  0
SECTION
  2
HEADER
  9
$ACADVER
  1
AC1024
  9
$ACADMAINTVER
 70
   181
  9
$DWGCODEPAGE
  3
ANSI_1252
  9
$LASTSAVEDBY
  1
clastring
  9
$INSBASE
 10
0.0
 20
0.0
 30
0.0
  9
$EXTMIN
 10
12321.81479007845
 20
-3698.855845447596
 30
0.0
  9
$EXTMAX
 10
12329.83907353876
 20
-3685.894358091344
 30
0.0
  9
$LIMMIN
 10
0.0
 20
0.0
  9
$LIMMAX
 10
210.0
 20
297.0
  9
$ORTHOMODE
 70
     0
  9
$REGENMODE
 70
     1
  9
$FILLMODE
 70
     1
  9
$QTEXTMODE
 70
     0
  9
$MIRRTEXT
 70
     0
  9
$LTSCALE
 40
1.0
  9
$ATTMODE
 70
     1
  9
$TEXTSIZE
 40
150.0
  9
$TRACEWID
 40
1.0
  9
$TEXTSTYLE
  7
100
  9
$CLAYER
  8
Kontur 18
  9
$CELTYPE
  6
ByLayer
  9
$CECOLOR
 62
   256
  9
$CELTSCALE
 40
1.0
  9
$DISPSILH
 70
     0
  9
$DIMSCALE
 40
1.0
  9
$DIMASZ
 40
1.0
  9
$DIMEXO
 40
1.0
  9
$DIMDLI
 40
1.0
  9
$DIMRND
 40
0.0
  9
$DIMDLE
 40
3.0
  9
$DIMEXE
 40
1.0
  9
$DIMTP
 40
0.0
  9
$DIMTM
 40
0.0
  9
$DIMTXT
 40
1.0
  9
$DIMCEN
 40
1.0
  9
$DIMTSZ
 40
0.0
  9
$DIMTOL
 70
     0
  9
$DIMLIM
 70
     0
  9
$DIMTIH
 70
     0
  9
$DIMTOH
 70
     0
  9
$DIMSE1
 70
     0
  9
$DIMSE2
 70
     0
  9
$DIMTAD
 70
     1
  9
$DIMZIN
 70
     8
  9
$DIMBLK
  1

  9
$DIMASO
 70
     1
  9
$DIMSHO
 70
     1
  9
$DIMPOST
  1

  9
$DIMAPOST
  1

  9
$DIMALT
 70
     0
  9
$DIMALTD
 70
     3
  9
$DIMALTF
 40
0.03937007874016
  9
$DIMLFAC
 40
1.0
  9
$DIMTOFL
 70
     1
  9
$DIMTVP
 40
0.0
  9
$DIMTIX
 70
     0
  9
$DIMSOXD
 70
     0
  9
$DIMSAH
 70
     0
  9
$DIMBLK1
  1

  9
$DIMBLK2
  1

  9
$DIMSTYLE
  2
1
  9
$DIMCLRD
 70
     0
  9
$DIMCLRE
 70
     0
  9
$DIMCLRT
 70
     0
  9
$DIMTFAC
 40
1.0
  9
$DIMGAP
 40
1.0
  9
$DIMJUST
 70
     0
  9
$DIMSD1
 70
     0
  9
$DIMSD2
 70
     0
  9
$DIMTOLJ
 70
     0
  9
$DIMTZIN
 70
     8
  9
$DIMALTZ
 70
     0
  9
$DIMALTTZ
 70
     0
  9
$DIMUPT
 70
     0
  9
$DIMDEC
 70
     2
  9
$DIMTDEC
 70
     2
  9
$DIMALTU
 70
     2
  9
$DIMALTTD
 70
     3
  9
$DIMTXSTY
  7
Standard
  9
$DIMAUNIT
 70
     0
  9
$DIMADEC
 70
     2
  9
$DIMALTRND
 40
0.0
  9
$DIMAZIN
 70
     0
  9
$DIMDSEP
 70
    44
  9
$DIMATFIT
 70
     3
  9
$DIMFRAC
 70
     0
  9
$DIMLDRBLK
  1

  9
$DIMLUNIT
 70
     2
  9
$DIMLWD
 70
    -2
  9
$DIMLWE
 70
    -2
  9
$DIMTMOVE
 70
     0
  9
$DIMFXL
 40
1.0
  9
$DIMFXLON
 70
     0
  9
$DIMJOGANG
 40
0.7853981633974483
  9
$DIMTFILL
 70
     0
  9
$DIMTFILLCLR
 70
     0
  9
$DIMARCSYM
 70
     0
  9
$DIMLTYPE
  6

  9
$DIMLTEX1
  6

  9
$DIMLTEX2
  6

  9
$DIMTXTDIRECTION
 70
     0
  9
$LUNITS
 70
     2
  9
$LUPREC
 70
     4
  9
$SKETCHINC
 40
1.0
  9
$FILLETRAD
 40
0.0
  9
$AUNITS
 70
     0
  9
$AUPREC
 70
     0
  9
$MENU
  1
.
  9
$ELEVATION
 40
0.0
  9
$PELEVATION
 40
0.0
  9
$THICKNESS
 40
0.0
  9
$LIMCHECK
 70
     0
  9
$CHAMFERA
 40
0.0
  9
$CHAMFERB
 40
0.0
  9
$CHAMFERC
 40
0.0
  9
$CHAMFERD
 40
0.0
  9
$SKPOLY
 70
     0
  9
$TDCREATE
 40
2453325.398830648
  9
$TDUCREATE
 40
2453325.315497315
  9
$TDUPDATE
 40
2458022.641862789
  9
$TDUUPDATE
 40
2458022.558529456
  9
$TDINDWG
 40
4.5745506597
  9
$TDUSRTIMER
 40
4.5745488542
  9
$USRTIMER
 70
     1
  9
$ANGBASE
 50
0.0
  9
$ANGDIR
 70
     0
  9
$PDMODE
 70
     0
  9
$PDSIZE
 40
0.0
  9
$PLINEWID
 40
0.0
  9
$SPLFRAME
 70
     0
  9
$SPLINETYPE
 70
     6
  9
$SPLINESEGS
 70
     8
  9
$HANDSEED
  5
531F2
  9
$SURFTAB1
 70
     6
  9
$SURFTAB2
 70
     6
  9
$SURFTYPE
 70
     6
  9
$SURFU
 70
     6
  9
$SURFV
 70
     6
  9
$UCSBASE
  2

  9
$UCSNAME
  2

  9
$UCSORG
 10
0.0
 20
0.0
 30
0.0
  9
$UCSXDIR
 10
1.0
 20
0.0
 30
0.0
  9
$UCSYDIR
 10
0.0
 20
1.0
 30
0.0
  9
$UCSORTHOREF
  2

  9
$UCSORTHOVIEW
 70
     0
  9
$UCSORGTOP
 10
0.0
 20
0.0
 30
0.0
  9
$UCSORGBOTTOM
 10
0.0
 20
0.0
 30
0.0
  9
$UCSORGLEFT
 10
0.0
 20
0.0
 30
0.0
  9
$UCSORGRIGHT
 10
0.0
 20
0.0
 30
0.0
  9
$UCSORGFRONT
 10
0.0
 20
0.0
 30
0.0
  9
$UCSORGBACK
 10
0.0
 20
0.0
 30
0.0
  9
$PUCSBASE
  2

  9
$PUCSNAME
  2

  9
$PUCSORG
 10
0.0
 20
0.0
 30
0.0
  9
$PUCSXDIR
 10
1.0
 20
0.0
 30
0.0
  9
$PUCSYDIR
 10
0.0
 20
1.0
 30
0.0
  9
$PUCSORTHOREF
  2

  9
$PUCSORTHOVIEW
 70
     0
  9
$PUCSORGTOP
 10
0.0
 20
0.0
 30
0.0
  9
$PUCSORGBOTTOM
 10
0.0
 20
0.0
 30
0.0
  9
$PUCSORGLEFT
 10
0.0
 20
0.0
 30
0.0
  9
$PUCSORGRIGHT
 10
0.0
 20
0.0
 30
0.0
  9
$PUCSORGFRONT
 10
0.0
 20
0.0
 30
0.0
  9
$PUCSORGBACK
 10
0.0
 20
0.0
 30
0.0
  9
$USERI1
 70
     0
  9
$USERI2
 70
     0
  9
$USERI3
 70
     0
  9
$USERI4
 70
     0
  9
$USERI5
 70
     0
  9
$USERR1
 40
0.0
  9
$USERR2
 40
0.0
  9
$USERR3
 40
0.0
  9
$USERR4
 40
0.0
  9
$USERR5
 40
0.0
  9
$WORLDVIEW
 70
     1
  9
$SHADEDGE
 70
     3
  9
$SHADEDIF
 70
    70
  9
$TILEMODE
 70
     1
  9
$MAXACTVP
 70
    64
  9
$PINSBASE
 10
0.0
 20
0.0
 30
0.0
  9
$PLIMCHECK
 70
     0
  9
$PEXTMIN
 10
0.7612936004385347
 20
0.7559578922353012
 30
0.0
  9
$PEXTMAX
 10
832.7911693029754
 20
585.9562928245313
 30
0.0
  9
$PLIMMIN
 10
-3.757080078125
 20
-3.757083415985107
  9
$PLIMMAX
 10
837.2369384765624
 20
590.2219204902649
  9
$UNITMODE
 70
     0
  9
$VISRETAIN
 70
     1
  9
$PLINEGEN
 70
     0
  9
$PSLTSCALE
 70
     1
  9
$TREEDEPTH
 70
  3020
  9
$CMLSTYLE
  2
Standard
  9
$CMLJUST
 70
     0
  9
$CMLSCALE
 40
20.0
  9
$PROXYGRAPHICS
 70
     1
  9
$MEASUREMENT
 70
     1
  9
$CELWEIGHT
370
    -1
  9
$ENDCAPS
280
     0
  9
$JOINSTYLE
280
     0
  9
$LWDISPLAY
290
     0
  9
$INSUNITS
 70
     4
  9
$HYPERLINKBASE
  1

  9
$STYLESHEET
  1
monochrome.ctb
  9
$XEDIT
290
     1
  9
$CEPSNTYPE
380
     0
  9
$PSTYLEMODE
290
     1
  9
$FINGERPRINTGUID
  2
{84C6DA88-BD7E-44D7-AD8D-086D7E86F6BE}
  9
$VERSIONGUID
  2
{CA79C6E0-175A-4D47-BEF8-680034D0F37C}
  9
$EXTNAMES
290
     1
  9
$PSVPSCALE
 40
0.0
  9
$OLESTARTUP
290
     0
  9
$SORTENTS
280
   127
  9
$INDEXCTL
280
     0
  9
$HIDETEXT
280
     1
  9
$XCLIPFRAME
280
     2
  9
$HALOGAP
280
     0
  9
$OBSCOLOR
 70
   257
  9
$OBSLTYPE
280
     0
  9
$INTERSECTIONDISPLAY
280
     0
  9
$INTERSECTIONCOLOR
 70
   257
  9
$DIMASSOC
280
     2
  9
$PROJECTNAME
  1

  9
$CAMERADISPLAY
290
     0
  9
$LENSLENGTH
 40
50.0
  9
$CAMERAHEIGHT
 40
0.0
  9
$STEPSPERSEC
 40
2.0
  9
$STEPSIZE
 40
6.0
  9
$3DDWFPREC
 40
2.0
  9
$PSOLWIDTH
 40
0.25
  9
$PSOLHEIGHT
 40
4.0
  9
$LOFTANG1
 40
1.570796326794896
  9
$LOFTANG2
 40
1.570796326794896
  9
$LOFTMAG1
 40
0.0
  9
$LOFTMAG2
 40
0.0
  9
$LOFTPARAM
 70
     7
  9
$LOFTNORMALS
280
     1
  9
$LATITUDE
 40
37.795
  9
$LONGITUDE
 40
-122.394
  9
$NORTHDIRECTION
 40
0.0
  9
$TIMEZONE
 70
 -8000
  9
$LIGHTGLYPHDISPLAY
280
     1
  9
$TILEMODELIGHTSYNCH
280
     1
  9
$CMATERIAL
347
1D8F
  9
$SOLIDHIST
280
     1
  9
$SHOWHIST
280
     1
  9
$DWFFRAME
280
     2
  9
$DGNFRAME
280
     0
  9
$REALWORLDSCALE
290
     1
  9
$INTERFERECOLOR
 62
     1
  9
$INTERFEREOBJVS
345
1D9C
  9
$INTERFEREVPVS
346
1D99
  9
$CSHADOW
280
     0
  9
$SHADOWPLANELOCATION
 40
0.0
  0
ENDSEC
  0
SECTION
  2
CLASSES
  0
CLASS
  1
ACDBDICTIONARYWDFLT
  2
AcDbDictionaryWithDefault
  3
ObjectDBX Classes
 90
        0
 91
        1
280
     0
281
     0
  0
CLASS
  1
TABLESTYLE
  2
AcDbTableStyle
  3
ObjectDBX Classes
 90
     4095
 91
        1
280
     0
281
     0
  0
CLASS
  1
DICTIONARYVAR
  2
AcDbDictionaryVar
  3
ObjectDBX Classes
 90
        0
 91
       17
280
     0
281
     0
  0
CLASS
  1
DIMASSOC
  2
AcDbDimAssoc
  3
"AcDbDimAssoc|Product Desc:     AcDim ARX App For Dimension|Company:          Autodesk, Inc.|WEB Address:      www.autodesk.com"
 90
        0
 91
        7
280
     0
281
     0
  0
CLASS
  1
SORTENTSTABLE
  2
AcDbSortentsTable
  3
ObjectDBX Classes
 90
        0
 91
        2
280
     0
281
     0
  0
CLASS
  1
MATERIAL
  2
AcDbMaterial
  3
ObjectDBX Classes
 90
     1153
 91
        3
280
     0
281
     0
  0
CLASS
  1
VISUALSTYLE
  2
AcDbVisualStyle
  3
ObjectDBX Classes
 90
     4095
 91
       26
280
     0
281
     0
  0
CLASS
  1
ACAD_EVALUATION_GRAPH
  2
AcDbEvalGraph
  3
ObjectDBX Classes
 90
     1153
 91
        0
280
     0
281
     0
  0
CLASS
  1
ACAECUSTOBJ
  2
AcAeEditorObj
  3
AcAeEditorObj
 90
     1024
 91
        0
280
     0
281
     0
  0
CLASS
  1
ACDB_DYNAMICBLOCKPURGEPREVENTER_VERSION
  2
AcDbDynamicBlockPurgePreventer
  3
ObjectDBX Classes
 90
     1153
 91
        0
280
     0
281
     0
  0
CLASS
  1
SCALE
  2
AcDbScale
  3
ObjectDBX Classes
 90
     1153
 91
        1
280
     0
281
     0
  0
CLASS
  1
MLEADERSTYLE
  2
AcDbMLeaderStyle
  3
ACDB_MLEADERSTYLE_CLASS
 90
     4095
 91
        1
280
     0
281
     0
  0
CLASS
  1
CELLSTYLEMAP
  2
AcDbCellStyleMap
  3
ObjectDBX Classes
 90
     1152
 91
        1
280
     0
281
     0
  0
CLASS
  1
MULTILEADER
  2
AcDbMLeader
  3
ACDB_MLEADER_CLASS
 90
     1025
 91
        0
280
     0
281
     1
  0
CLASS
  1
AEC_REFEDIT_STATUS_TRACKER
  2
AecDbRefEditStatusTracker
  3
AecArchBase70|Product Desc: Autodesk Architectural Desktop 2007 |Company: Autodesk,Inc. |WEB Address: www.autodesk.com
 90
      129
 91
        0
280
     0
281
     0
  0
CLASS
  1
NPOCOLLECTION
  2
AcDbImpNonPersistentObjectsCollection
  3
ObjectDBX Classes
 90
     1153
 91
        0
280
     0
281
     0
  0
CLASS
  1
IMAGEDEF
  2
AcDbRasterImageDef
  3
ISM
 90
        0
 91
        0
280
     0
281
     0
  0
CLASS
  1
RASTERVARIABLES
  2
AcDbRasterVariables
  3
ISM
 90
        0
 91
        1
280
     0
281
     0
  0
CLASS
  1
IMAGEDEF_REACTOR
  2
AcDbRasterImageDefReactor
  3
ISM
 90
        1
 91
        0
280
     0
281
     0
  0
CLASS
  1
IMAGE
  2
AcDbRasterImage
  3
ISM
 90
     2175
 91
        0
280
     0
281
     1
  0
CLASS
  1
ACDB_BLOCKREPRESENTATION_DATA
  2
AcDbBlockRepresentationData
  3
ObjectDBX Classes
 90
     1153
 91
        0
280
     0
281
     0
  0
CLASS
  1
SOLID_BACKGROUND
  2
AcDbSolidBackground
  3
SCENEOE
 90
     4095
 91
        0
280
     0
281
     0
  0
CLASS
  1
EXACXREFPANELOBJECT
  2
ExAcXREFPanelObject
  3
EXAC_ESW
 90
     1025
 91
        0
280
     0
281
     0
  0
CLASS
  1
WIPEOUT
  2
AcDbWipeout
  3
WipeOut|Product Desc: Object Enabler for WipeOut entity | Company: Autodesk, Inc. | WEB Address: www.autodesk.com
 90
     2175
 91
        0
280
     0
281
     1
  0
CLASS
  1
WIPEOUTVARIABLES
  2
AcDbWipeoutVariables
  3
"WipeOut|Product Desc:     WipeOut Dbx Application|Company:          Autodesk, Inc.|WEB Address:      www.autodesk.com"
 90
        0
 91
        1
280
     0
281
     0
  0
CLASS
  1
ARC_DIMENSION
  2
AcDbArcDimension
  3
ObjectDBX Classes
 90
     1025
 91
        0
280
     0
281
     1
  0
CLASS
  1
PDFDEFINITION
  2
AcDbPdfDefinition
  3
ObjectDBX Classes
 90
     1153
 91
        0
280
     0
281
     0
  0
CLASS
  1
PDFUNDERLAY
  2
AcDbPdfReference
  3
ObjectDBX Classes
 90
     4095
 91
        0
280
     0
281
     1
  0
CLASS
  1
ACDBSECTIONVIEWSTYLE
  2
AcDbSectionViewStyle
  3
ObjectDBX Classes
 90
     1025
 91
        1
280
     0
281
     0
  0
CLASS
  1
ACDBDETAILVIEWSTYLE
  2
AcDbDetailViewStyle
  3
ObjectDBX Classes
 90
     1025
 91
        1
280
     0
281
     0
  0
CLASS
  1
BREAKDATA
  2
AcDbBreakData
  3
ObjectDBX Classes
 90
     1024
 91
        0
280
     0
281
     0
  0
ENDSEC
  0
SECTION
  2
TABLES
  0
TABLE
  2
VPORT
  5
8
102
{ACAD_XDICTIONARY
360
592E
102
}
330
0
100
AcDbSymbolTable
 70
     1
  0
VPORT
  5
1D8D
330
8
100
AcDbSymbolTableRecord
100
AcDbViewportTableRecord
  2
*Active
 70
     0
 10
0.0
 20
0.0
 11
1.0
 21
1.0
 12
12327.65931778097
 22
-3692.831275453505
 13
0.0
 23
0.0
 14
10.0
 24
10.0
 15
10.0
 25
10.0
 16
0.0
 26
0.0
 36
1.0
 17
0.0
 27
0.0
 37
0.0
 40
20.86771994928311
 41
2.138127853881278
 42
50.0
 43
0.0
 44
0.0
 50
0.0
 51
0.0
 71
     0
 72
  1000
 73
     1
 74
     3
 75
     0
 76
     0
 77
     0
 78
     0
281
     0
 65
     1
110
0.0
120
0.0
130
0.0
111
1.0
121
0.0
131
0.0
112
0.0
122
1.0
132
0.0
 79
     0
146
0.0
348
1D98
 60
     3
 61
     5
292
     1
282
     1
141
0.0
142
0.0
 63
   250
421
  3355443
1001
ACAD_NAV_VCDISPLAY
1070
     3
  0
ENDTAB
  0
TABLE
  2
LTYPE
  5
5
330
0
100
AcDbSymbolTable
 70
     2
  0
LTYPE
  5
14
330
5
100
AcDbSymbolTableRecord
100
AcDbLinetypeTableRecord
  2
ByBlock
 70
     0
  3

 72
    65
 73
     0
 40
0.0
  0
LTYPE
  5
15
330
5
100
AcDbSymbolTableRecord
100
AcDbLinetypeTableRecord
  2
ByLayer
 70
     0
  3

 72
    65
 73
     0
 40
0.0
  0
LTYPE
  5
16
330
5
100
AcDbSymbolTableRecord
100
AcDbLinetypeTableRecord
  2
Continuous
 70
     0
  3
Solid line
 72
    65
 73
     0
 40
0.0
  0
LTYPE
  5
517C7
330
5
100
AcDbSymbolTableRecord
100
AcDbLinetypeTableRecord
  2
HIDDEN2
 70
     0
  3
Hidden (.5x) _ _ _ _ _ _ _ _ _ _ _ _ _ _ _ _ _
 72
    65
 73
     2
 40
4.762499999999999
 49
3.174999999999999
 74
     0
 49
-1.587499999999999
 74
     0
  0
ENDTAB
  0
TABLE
  2
LAYER
  5
2
102
{ACAD_XDICTIONARY
360
48
102
}
330
0
100
AcDbSymbolTable
 70
     8
  0
LAYER
  5
10
102
{ACAD_XDICTIONARY
360
253B
102
}
330
2
100
AcDbSymbolTableRecord
100
AcDbLayerTableRecord
  2
0
 70
     0
 62
     7
  6
Continuous
370
    -3
390
F
347
1D91
  0
LAYER
  5
3F
102
{ACAD_XDICTIONARY
360
2549
102
}
330
2
100
AcDbSymbolTableRecord
100
AcDbLayerTableRecord
  2
Kontur 18
 70
     0
 62
     1
  6
Continuous
370
    18
390
F
347
1D91
1001
AcAecLayerStandard
1000

1000

  0
LAYER
  5
32AF3
102
{ACAD_XDICTIONARY
360
32AF4
102
}
330
2
100
AcDbSymbolTableRecord
100
AcDbLayerTableRecord
  2
Bemaßung
 70
     0
 62
     9
  6
Continuous
370
     5
390
F
347
1D91
1001
AcAecLayerStandard
1000

1000

  0
LAYER
  5
517C8
102
{ACAD_XDICTIONARY
360
517C9
102
}
330
2
100
AcDbSymbolTableRecord
100
AcDbLayerTableRecord
  2
Text
 70
     0
 62
     3
  6
Continuous
370
    25
390
F
347
1D91
1001
AcAecLayerStandard
1000

1000

  0
LAYER
  5
517CE
330
2
100
AcDbSymbolTableRecord
100
AcDbLayerTableRecord
  2
Defpoints
 70
     0
 62
     7
  6
Continuous
290
     0
370
    -3
390
F
347
1D91
  0
LAYER
  5
517CF
330
2
100
AcDbSymbolTableRecord
100
AcDbLayerTableRecord
  2
dünne Linie
 70
     0
 62
   143
  6
Continuous
370
     5
390
F
347
1D91
1001
AcAecLayerStandard
1000

1000

  0
LAYER
  5
51A52
330
2
100
AcDbSymbolTableRecord
100
AcDbLayerTableRecord
  2
Sicherheitsbereich
 70
     0
 62
    31
  6
HIDDEN2
370
    13
390
F
347
1D91
1001
AcAecLayerStandard
1000

1000

1001
AcCmTransparency
1071
        0
  0
LAYER
  5
51FEB
102
{ACAD_XDICTIONARY
360
51FEC
102
}
330
2
100
AcDbSymbolTableRecord
100
AcDbLayerTableRecord
  2
Kontur 09
 70
     0
 62
     5
  6
Continuous
370
     9
390
F
347
1D91
  0
ENDTAB
  0
TABLE
  2
STYLE
  5
3
330
0
100
AcDbSymbolTable
 70
     3
  0
STYLE
  5
11
330
3
100
AcDbSymbolTableRecord
100
AcDbTextStyleTableRecord
  2
Standard
 70
     0
 40
0.0
 41
1.0
 50
0.0
 71
     0
 42
150.0
  3
tahoma.ttf
  4

1001
ACAD
1000
Tahoma
1071
       34
  0
STYLE
  5
BA8
330
3
100
AcDbSymbolTableRecord
100
AcDbTextStyleTableRecord
  2
100
 70
     0
 40
100.0
 41
1.0
 50
0.0
 71
     0
 42
150.0
  3
tahoma.ttf
  4

1001
ACAD
1000
Tahoma
1071
       34
  0
STYLE
  5
51980
330
3
100
AcDbSymbolTableRecord
100
AcDbTextStyleTableRecord
  2
2.5
 70
     0
 40
2.5
 41
1.0
 50
0.0
 71
     0
 42
2.5
  3
arial.ttf
  4

1001
ACAD
1000
Arial
1071
       34
  0
ENDTAB
  0
TABLE
  2
VIEW
  5
6
330
0
100
AcDbSymbolTable
 70
     0
  0
ENDTAB
  0
TABLE
  2
UCS
  5
7
330
0
100
AcDbSymbolTable
 70
     0
  0
ENDTAB
  0
TABLE
  2
APPID
  5
9
330
0
100
AcDbSymbolTable
 70
    30
  0
APPID
  5
12
330
9
100
AcDbSymbolTableRecord
100
AcDbRegAppTableRecord
  2
ACAD
 70
     0
  0
APPID
  5
2F
330
9
100
AcDbSymbolTableRecord
100
AcDbRegAppTableRecord
  2
ACAD_PSEXT
 70
     0
  0
APPID
  5
39
330
9
100
AcDbSymbolTableRecord
100
AcDbRegAppTableRecord
  2
AcAecLayerStandard
 70
     0
  0
APPID
  5
1DB7
330
9
100
AcDbSymbolTableRecord
100
AcDbRegAppTableRecord
  2
ACAD_EXEMPT_FROM_CAD_STANDARDS
 70
     0
  0
APPID
  5
2091
330
9
100
AcDbSymbolTableRecord
100
AcDbRegAppTableRecord
  2
ACAUTHENVIRON
 70
     0
  0
APPID
  5
2096
330
9
100
AcDbSymbolTableRecord
100
AcDbRegAppTableRecord
  2
AcDbDynamicBlockTrueName
 70
     0
  0
APPID
  5
2097
330
9
100
AcDbSymbolTableRecord
100
AcDbRegAppTableRecord
  2
AcDbDynamicBlockGUID
 70
     0
  0
APPID
  5
2099
330
9
100
AcDbSymbolTableRecord
100
AcDbRegAppTableRecord
  2
AcDbBlockRepETag
 70
     0
  0
APPID
  5
2115
330
9
100
AcDbSymbolTableRecord
100
AcDbRegAppTableRecord
  2
ACAD_DSTYLE_DIMTEXT_FILL
 70
     0
  0
APPID
  5
2116
330
9
100
AcDbSymbolTableRecord
100
AcDbRegAppTableRecord
  2
AcDbBlockRepBTag
 70
     0
  0
APPID
  5
252F
330
9
100
AcDbSymbolTableRecord
100
AcDbRegAppTableRecord
  2
ACAD_MLEADERVER
 70
     0
  0
APPID
  5
257F
330
9
100
AcDbSymbolTableRecord
100
AcDbRegAppTableRecord
  2
ACAD_DSTYLE_DIMJAG
 70
     0
  0
APPID
  5
2580
330
9
100
AcDbSymbolTableRecord
100
AcDbRegAppTableRecord
  2
ACAD_DSTYLE_DIMTALN
 70
     0
  0
APPID
  5
26EC
330
9
100
AcDbSymbolTableRecord
100
AcDbRegAppTableRecord
  2
AcadAnnoAV
 70
     0
  0
APPID
  5
2738
330
9
100
AcDbSymbolTableRecord
100
AcDbRegAppTableRecord
  2
ACAD_DSTYLE_DIMBREAK
 70
     0
  0
APPID
  5
273B
330
9
100
AcDbSymbolTableRecord
100
AcDbRegAppTableRecord
  2
AcadAnnoPO
 70
     0
  0
APPID
  5
828C
330
9
100
AcDbSymbolTableRecord
100
AcDbRegAppTableRecord
  2
AcadAnnotative
 70
     0
  0
APPID
  5
C44A
330
9
100
AcDbSymbolTableRecord
100
AcDbRegAppTableRecord
  2
ACAD_DSTYLE_DIMRADIAL_EXTENSION
 70
     0
  0
APPID
  5
CB35
330
9
100
AcDbSymbolTableRecord
100
AcDbRegAppTableRecord
  2
GradientColor1ACI
 70
     0
  0
APPID
  5
CB36
330
9
100
AcDbSymbolTableRecord
100
AcDbRegAppTableRecord
  2
GradientColor2ACI
 70
     0
  0
APPID
  5
12C71
330
9
100
AcDbSymbolTableRecord
100
AcDbRegAppTableRecord
  2
AcCmTransparency
 70
     0
  0
APPID
  5
2268C
330
9
100
AcDbSymbolTableRecord
100
AcDbRegAppTableRecord
  2
AdeskUnderlayLayerOverrideData
 70
     0
  0
APPID
  5
31C07
330
9
100
AcDbSymbolTableRecord
100
AcDbRegAppTableRecord
  2
ACAD_NAV_VCDISPLAY
 70
     0
  0
APPID
  5
389C3
330
9
100
AcDbSymbolTableRecord
100
AcDbRegAppTableRecord
  2
MCAD_NO_VIS
 70
     0
  0
APPID
  5
389C4
330
9
100
AcDbSymbolTableRecord
100
AcDbRegAppTableRecord
  2
ACAD_TEMP_GRAPHIC
 70
     0
  0
APPID
  5
389C5
330
9
100
AcDbSymbolTableRecord
100
AcDbRegAppTableRecord
  2
ACATTRIBSERVICES
 70
     0
  0
APPID
  5
389C6
330
9
100
AcDbSymbolTableRecord
100
AcDbRegAppTableRecord
  2
DESIGNERASSEMBLIES
 70
     0
  0
APPID
  5
389C7
330
9
100
AcDbSymbolTableRecord
100
AcDbRegAppTableRecord
  2
GENIUS_GENSCREG_15
 70
     0
  0
APPID
  5
389C8
330
9
100
AcDbSymbolTableRecord
100
AcDbRegAppTableRecord
  2
GENIUS_GENOBJ-N-SDF_13
 70
     0
  0
APPID
  5
389C9
330
9
100
AcDbSymbolTableRecord
100
AcDbRegAppTableRecord
  2
GENIUS_GENODEF_13
 70
     0
  0
ENDTAB
  0
TABLE
  2
DIMSTYLE
  5
A
330
0
100
AcDbSymbolTable
 70
     2
100
AcDbDimStyleTable
 71
     1
340
37FBB
  0
DIMSTYLE
105
37FBB
330
A
100
AcDbSymbolTableRecord
100
AcDbDimStyleTableRecord
  2
1
 70
     0
 41
1.0
 42
1.0
 43
1.0
 44
1.0
 46
3.0
 73
     0
 74
     0
 77
     1
 78
     8
140
1.0
141
1.0
143
0.03937007874016
147
1.0
171
     3
172
     1
179
     2
271
     2
272
     2
274
     3
278
    44
283
     0
284
     8
340
11
1001
ACAD_DSTYLE_DIMJAG
1070
   388
1040
1.0
1001
ACAD_DSTYLE_DIMBREAK
1070
   391
1040
1.0
1001
ACAD_DSTYLE_DIMTALN
1070
   392
1070
     0
  0
DIMSTYLE
105
517D1
102
{ACAD_REACTORS
330
52FBE
330
52FA2
330
52FA5
330
52FA8
330
52FBB
330
5317F
330
53182
102
}
330
A
100
AcDbSymbolTableRecord
100
AcDbDimStyleTableRecord
  2
100
 70
     0
 41
100.0
 42
30.0
 43
100.0
 44
20.0
 73
     0
 74
     0
 77
     1
 78
     8
140
100.0
141
100.0
143
0.03937007874016
147
20.0
171
     3
172
     1
179
     2
271
     2
272
     2
274
     3
278
    44
283
     0
284
     8
340
11
1001
ACAD_DSTYLE_DIMJAG
1070
   388
1040
1.5
1001
ACAD_DSTYLE_DIMTALN
1070
   392
1070
     0
  0
ENDTAB
  0
TABLE
  2
BLOCK_RECORD
  5
1
330
0
100
AcDbSymbolTable
 70
    10
  0
BLOCK_RECORD
  5
23
102
{ACAD_XDICTIONARY
360
1FDD
102
}
330
1
100
AcDbSymbolTableRecord
100
AcDbBlockTableRecord
  2
*Model_Space
340
26
 70
     0
280
     1
281
     0
  0
BLOCK_RECORD
  5
31D04
330
1
100
AcDbSymbolTableRecord
100
AcDbBlockTableRecord
  2
*Paper_Space
340
31D05
 70
     0
280
     1
281
     0
  0
BLOCK_RECORD
  5
5198F
102
{ACAD_XDICTIONARY
360
51991
102
}
330
1
100
AcDbSymbolTableRecord
100
AcDbBlockTableRecord
  2
Eigentum
340
0
102
{BLKREFS
331
5199B
102
}
 70
     4
280
     1
281
     0
  0
BLOCK_RECORD
  5
52E17
330
1
100
AcDbSymbolTableRecord
100
AcDbBlockTableRecord
  2
*D1
340
0
 70
     0
280
     1
281
     0
  0
BLOCK_RECORD
  5
52E23
330
1
100
AcDbSymbolTableRecord
100
AcDbBlockTableRecord
  2
*D2
340
0
 70
     0
280
     1
281
     0
  0
BLOCK_RECORD
  5
52E2F
330
1
100
AcDbSymbolTableRecord
100
AcDbBlockTableRecord
  2
*D3
340
0
 70
     0
280
     1
281
     0
  0
BLOCK_RECORD
  5
52E3B
330
1
100
AcDbSymbolTableRecord
100
AcDbBlockTableRecord
  2
*D4
340
0
 70
     0
280
     1
281
     0
  0
BLOCK_RECORD
  5
52E47
330
1
100
AcDbSymbolTableRecord
100
AcDbBlockTableRecord
  2
*D5
340
0
 70
     0
280
     1
281
     0
  0
BLOCK_RECORD
  5
52F8A
330
1
100
AcDbSymbolTableRecord
100
AcDbBlockTableRecord
  2
03 1003E Rutschbogen
340
0
310
28000000200000002000000001002000000000000010000001000000010000000000000000000000000000FF000000FF000000FF000000FF000000FF000000FF000000FF000000FF000000FF000000FF000000FF000000FF000000FF000000FF000000FF000000FF000000FF000000FF000000FF000000FF000000FF000000
310
FF000000FF000000FF000000FF000000FF000000FF000000FF000000FF000000FF000000FF000000FF000000FF000000FF000000FF000000FF000000FF000000FF000000FF000000FF000000FF000000FF000000FF000000FF000000FF000000FF000000FF000000FF000000FF000000FF000000FF000000FF000000FF0000
310
00FF000000FF000000FF000000FF000000FF000000FF000000FF000000FF000000FF000000FF000000FF000000FF000000FF000000FF000000FF000000FF000000FF000000FF000000FF000000FF000000FF000000FF000000FF000000FF000000FF000000FF000000FF000000FF000000FF000000FF000000FF000000FF00
310
0000FF000000FF000000FF000000FF000000FF000000FF000000FF000000FF000000FF000000FF000000FF000000FF000000FF000000FF000000FF000000FF000000FF000000FF000000FF000000FF000000FF000000FF000000FF000000FF000000FF000000FF000000FF000000FF000000FF000000FF000000FF000000FF
310
000000FF000000FF000000FF000000FF000000FF000000FF000000FF000000FF000000FF000000FF000000FF000000FF000000FF000000FF000000FF000000FF000000FF000000FF000000FF000000FF000000FF000000FF000000FF000000FF000000FF000000FF000000FF000000FF000000FF000000FF000000FF000000
310
FF000000FF000000FF000000FF000000FF000000FF000000FF000000FF000000FF000000FF000000FF000000FF000000FF000000FF000000FF000000FF000000FF000000FF000000FF000000FF000000FF000000FF000000FF000000FF000000FF000000FF000000FF000000FF000000FF000000FF000000FF000000FF0000
310
00FF000000FF000000FF000000FF000000FF000000FF000000FF000000FF000000FF000000FF000000FF000000FF000000FF000000FF000000FF000000FF000000FF000000FF000000FF000000FF000000FF000000FF000000FF000000FF000000FF000000FF000000FF000000FF000000FF000000FF000000FF000000FF00
310
0000FF000000FF000000FF000000FF000000FF000000FF000000FF000000FF000000FF000000FF000000FF000000FF000000FF000000FF000000FF000000FF000000FF000000FF000000FF000000FF000000FF000000FF000000FF000000FF000000FF000000FF000000FF000000FF000000FF000000FF000000FF000000FF
310
000000FF000000FF000000FF000000FF000000FF000000FF000000FF000000FF000000FF000000FF000000FF000000FF000000FF000000FF000000FF000000FF000000FF000000FF000000FF000000FF000000FF000000FF000000FF000000FF000000FF000000FF000000FF000000FF000000FF000000FF000000FF000000
310
FF000000FF000000FF000000FF000000FF000000FF000000FF000000FF000000FF000000FF000000FF000000FF000000FF000000FF000000FF000000FF000000FF000000FF000000FF000000FF000000FF000000FF000000FF000000FF000000FF000000FF000000FF000000FF000000FF000000FF000000FF000000FF0000
310
00FF000000FF000000FF000000FF000000FF000000FF000000FF000000FF000000FF000000FF000000FF000000FF000000FF000000FF000000FF000000FF000000FF000000FF000000FF000000FF000000FF000000FF000000FF000000FF000000FF000000FF000000FF000000FF000000FF000000FF000000FF000000FF00
310
0000FF000000FF000000FF000000FF000000FF000000FF000000FF000000FF000000FF000000FF000000FF000000FF000000FF000000FF000000FF000000FF000000FF000000FF000000FF000000FF000000FF000000FF000000FF000000FF000000FF000000FF000000FF000000FF000000FF000000FF000000FF000000FF
310
000000FF000000FF000000FF000000FF000000FF000000FF000000FF000000FF000000FF000000FF000000FF000000FF000000FF000000FF000000FF000000FF000000FF000000FF000000FF000000FF000000FF000000FF000000FF000000FF000000FF000000FF000000FF000000FF000000FF000000FF000000FF000000
310
FF000000FF000000FF000000FF000000FF000000FF000000FF000000FF000000FF000000FF000000FF000000FF000000FF000000FF000000FF000000FF000000FF000000FF000000FF000000FF000000FF000000FF000000FF000000FF000000FF000000FF000000FF000000FF000000FF000000FF000000FF000000FF0000
310
00FF000000FF000000FF000000FF000000FF000000FF000000FF000000FF000000FF000000FF000000FF000000FF000000FF000000FF000000FF000000FF000000FF000000FF000000FF000000FF000000FF000000FF000000FF000000FF000000FF000000FF000000FF000000FF000000FF000000FF000000FF000000FF00
310
0000FF000000FF000000FF000000FF000000FF000000FF000000FF000000FF000000FF000000FF000000FF000000FF000000FF000000FF000000FFFFFFFFFFFFFFFFFF000000FF000000FF000000FF000000FF000000FF000000FF000000FF000000FF000000FF000000FF000000FF000000FF000000FF000000FF000000FF
310
000000FF000000FF000000FF000000FF000000FF000000FF000000FF000000FF000000FF000000FF000000FF000000FF000000FF000000FF000000FFFFFFFFFFFFFFFFFF000000FF000000FF000000FF000000FF000000FF000000FF000000FF000000FF000000FF000000FF000000FF000000FF000000FF000000FF000000
310
FF000000FF000000FF000000FF000000FF000000FF000000FF000000FF000000FF000000FF000000FF000000FF000000FF000000FF000000FF000000FF000000FF000000FF000000FF000000FF000000FF000000FF000000FF000000FF000000FF000000FF000000FF000000FF000000FF000000FF000000FF000000FF0000
310
00FF000000FF000000FF000000FF000000FF000000FF000000FF000000FF000000FF000000FF000000FF000000FF000000FF000000FF000000FF000000FF000000FF000000FF000000FF000000FF000000FF000000FF000000FF000000FF000000FF000000FF000000FF000000FF000000FF000000FF000000FF000000FF00
310
0000FF000000FF000000FF000000FF000000FF000000FF000000FF000000FF000000FF000000FF000000FF000000FF000000FF000000FF000000FF000000FF000000FF000000FF000000FF000000FF000000FF000000FF000000FF000000FF000000FF000000FF000000FF000000FF000000FF000000FF000000FF000000FF
310
000000FF000000FF000000FF000000FF000000FF000000FF000000FF000000FF000000FF000000FF000000FF000000FF000000FF000000FF000000FF000000FF000000FF000000FF000000FF000000FF000000FF000000FF000000FF000000FF000000FF000000FF000000FF000000FF000000FF000000FF000000FF000000
310
FF000000FF000000FF000000FF000000FF000000FF000000FF000000FF000000FF000000FF000000FF000000FF000000FF000000FF000000FF000000FF000000FF000000FF000000FF000000FF000000FF000000FF000000FF000000FF000000FF000000FF000000FF000000FF000000FF000000FF000000FF000000FF0000
310
00FF000000FF000000FF000000FF000000FF000000FF000000FF000000FF000000FF000000FF000000FF000000FF000000FF000000FF000000FF000000FF000000FF000000FF000000FF000000FF000000FF000000FF000000FF000000FF000000FF000000FF000000FF000000FF000000FF000000FF000000FF000000FF00
310
0000FF000000FF000000FF000000FF000000FF000000FF000000FF000000FF000000FF000000FF000000FF000000FF000000FF000000FF000000FF000000FF000000FF000000FF000000FF000000FF000000FF000000FF000000FF000000FF000000FF000000FF000000FF000000FF000000FF000000FF000000FF000000FF
310
000000FF000000FF000000FF000000FF000000FF000000FF000000FF000000FF000000FF000000FF000000FF000000FF000000FF000000FF000000FF000000FF000000FF000000FF000000FF000000FF000000FF000000FF000000FF000000FF000000FF000000FF000000FF000000FF000000FF000000FF000000FF000000
310
FF000000FF000000FF000000FF000000FF000000FF000000FF000000FF000000FF000000FF000000FF000000FF000000FF000000FF000000FF000000FF000000FF000000FF000000FF000000FF000000FF000000FF000000FF000000FF000000FF000000FF000000FF000000FF000000FF000000FF000000FF000000FF0000
310
00FF000000FF000000FF000000FF000000FF000000FF000000FF000000FF000000FF000000FF000000FF000000FF000000FF000000FF000000FF000000FF000000FF000000FF000000FF000000FF000000FF000000FF000000FF000000FF000000FF000000FF000000FF000000FF000000FF000000FF000000FF000000FF00
310
0000FF000000FF000000FF000000FF000000FF000000FF000000FF000000FF000000FF000000FF000000FF000000FF000000FF000000FF000000FF000000FF000000FF000000FF000000FF000000FF000000FF000000FF000000FF000000FF000000FF000000FF000000FF000000FF000000FF000000FF000000FF000000FF
310
000000FF000000FF000000FF000000FF000000FF000000FF000000FF000000FF000000FF000000FF000000FF000000FF000000FF000000FF000000FF000000FF000000FF000000FF000000FF000000FF000000FF000000FF000000FF000000FF000000FF000000FF000000FF000000FF000000FF000000FF000000FF000000
310
FF000000FF000000FF000000FF000000FF000000FF000000FF000000FF000000FF000000FF000000FF000000FF000000FF000000FF000000FF000000FF000000FF000000FF000000FF000000FF000000FF000000FF000000FF000000FF000000FF000000FF000000FF000000FF000000FF000000FF000000FF000000FF0000
310
00FF000000FF000000FF000000FF000000FF000000FF000000FF000000FF000000FF000000FF000000FF000000FF000000FF000000FF000000FF000000FF000000FF000000FF000000FF000000FF000000FF000000FF000000FF000000FF000000FF000000FF000000FF000000FF000000FF000000FF000000FF000000FF00
310
0000FF000000FF000000FF000000FF000000FF000000FF000000FF000000FF000000FF000000FF000000FF000000FF000000FF000000FF000000FF000000FF000000FF000000FF000000FF000000FF000000FF000000FF000000FF000000FF000000FF000000FF000000FF000000FF000000FF000000FF000000FF000000FF
310
000000FF000000FF000000FF000000FF000000FF000000FF000000FF000000FF000000FF000000FF000000FF000000FF000000FF000000FF000000FF000000FF000000FF000000FF
102
{BLKREFS
331
52FC4
102
}
 70
     4
280
     1
281
     0
  0
BLOCK_RECORD
  5
5304E
330
1
100
AcDbSymbolTableRecord
100
AcDbBlockTableRecord
  2
*D7
340
0
 70
     0
280
     1
281
     0
  0
BLOCK_RECORD
  5
5305A
330
1
100
AcDbSymbolTableRecord
100
AcDbBlockTableRecord
  2
*D8
340
0
 70
     0
280
     1
281
     0
  0
BLOCK_RECORD
  5
53175
330
1
100
AcDbSymbolTableRecord
100
AcDbBlockTableRecord
  2
03 1003E RutschbogenAnsicht
340
0
310
28000000200000002000000001002000000000000010000001000000010000000000000000000000000000FF000000FF000000FF000000FF000000FF000000FF000000FF000000FF000000FF000000FF000000FF000000FF000000FF000000FF000000FF000000FF000000FF000000FF000000FF000000FF000000FF000000
310
FF000000FF000000FF000000FF000000FF000000FF000000FF000000FF000000FF000000FF000000FF000000FF000000FF000000FF000000FF000000FF000000FF000000FF000000FF000000FF000000FF000000FF000000FF000000FF000000FF000000FF000000FF000000FF000000FF000000FF000000FF000000FF0000
310
00FF000000FF000000FF000000FF000000FF000000FF000000FF000000FF000000FF000000FF000000FF000000FF000000FF000000FF000000FF000000FF000000FF000000FF000000FF000000FF000000FF000000FF000000FF000000FF000000FF000000FF000000FF000000FF000000FF000000FF000000FF000000FF00
310
0000FF000000FF000000FF000000FF000000FF000000FF000000FF000000FF000000FF000000FF000000FF000000FF000000FF000000FF000000FF000000FF000000FF000000FF000000FF000000FF000000FF000000FF000000FF000000FF000000FF000000FF000000FF000000FF000000FF000000FF000000FF000000FF
310
000000FF000000FF000000FF000000FF000000FF000000FF000000FF000000FF000000FF000000FF000000FF000000FF000000FF000000FF000000FF000000FF000000FF000000FF000000FF000000FF000000FF000000FF000000FF000000FF000000FF000000FF000000FF000000FF000000FF000000FF000000FF000000
310
FF000000FF000000FF000000FF000000FF000000FF000000FF000000FF000000FF000000FF000000FF000000FF000000FF000000FF000000FF000000FF000000FF000000FF000000FF000000FF000000FF000000FF000000FF000000FF000000FF000000FF000000FF000000FF000000FF000000FF000000FF000000FF0000
310
00FF000000FF000000FF000000FF000000FF000000FF000000FF000000FF000000FF000000FF000000FF000000FF000000FF000000FF000000FF000000FF000000FF000000FF000000FF000000FF000000FF000000FF000000FF000000FF000000FF000000FF000000FF000000FF000000FF000000FF000000FF000000FF00
310
0000FF000000FF000000FF000000FF000000FF000000FF000000FF000000FF000000FF000000FF000000FF000000FF000000FF000000FF000000FF000000FF000000FF000000FF000000FF000000FF000000FF000000FF000000FF000000FF000000FF000000FF000000FF000000FF000000FF000000FF000000FF000000FF
310
000000FF000000FF000000FF000000FF000000FF000000FF000000FF000000FF000000FF000000FF000000FF000000FF000000FF000000FF000000FF000000FF000000FF000000FF000000FF000000FF000000FF000000FF000000FF000000FF000000FF000000FF000000FF000000FF000000FF000000FF000000FF000000
310
FF000000FF000000FF000000FF000000FF000000FF000000FF000000FF000000FF000000FF000000FF000000FF000000FF000000FF000000FF000000FF000000FF000000FF000000FF000000FF000000FF000000FF000000FF000000FF000000FF000000FF000000FF000000FF000000FF000000FF000000FF000000FF0000
310
00FF000000FF000000FF000000FF000000FF000000FF000000FF000000FF000000FF000000FF000000FF000000FF000000FF000000FF000000FF000000FF000000FF000000FF000000FF000000FF000000FF000000FF000000FF000000FF000000FF000000FF000000FF000000FF000000FF000000FF000000FF000000FF00
310
0000FF000000FF000000FF000000FF000000FF000000FF000000FF000000FF000000FF000000FF000000FF000000FF000000FF000000FF000000FF000000FF000000FF000000FF000000FF000000FF000000FF000000FF000000FF000000FF000000FF000000FF000000FF000000FF000000FF000000FF000000FF000000FF
310
000000FF000000FF000000FF000000FF000000FF000000FF000000FF000000FF000000FF000000FF000000FF000000FF000000FF000000FF000000FF000000FF000000FF000000FF000000FF000000FF000000FF000000FF000000FF000000FF000000FF000000FF000000FF000000FF000000FF000000FF000000FF000000
310
FF000000FF000000FF000000FF000000FF000000FF000000FF000000FF000000FF000000FF000000FF000000FF000000FF000000FF000000FF000000FF000000FF000000FF000000FF000000FF000000FF000000FF000000FF000000FF000000FF000000FF000000FF000000FF000000FF000000FF000000FF000000FF0000
310
00FF000000FF000000FF000000FF000000FF000000FF000000FF000000FF000000FF000000FF000000FF000000FF000000FF000000FF000000FFFFFFFFFFFFFFFFFFFFFFFFFFFFFFFFFFFFFFFFFFFFFFFFFFFFFFFFFFFFFFFFFFFFFFFFFFFFFFFFFFFFFFFFFFFFFFFFFFFFFFFFFFFFFFFFFFFFFFFFFFFFFFFFFFFFFFFFFF00
310
0000FF000000FF000000FF000000FF000000FF000000FF000000FF000000FF000000FF000000FF000000FF000000FF000000FF000000FF000000FF000000FF000000FF000000FFFFFFFFFFFFFFFFFFFFFFFFFFFFFFFFFF000000FF000000FF000000FFFFFFFFFFFFFFFFFF000000FFFFFFFFFFFFFFFFFF000000FFFFFFFFFF
310
FFFFFFFFFFFFFFFF000000FF000000FF000000FF000000FF000000FF000000FFFFFFFFFFFFFFFFFFFFFFFFFF000000FF000000FF000000FF000000FF000000FF000000FF000000FF000000FF000000FF000000FF000000FF000000FF000000FF000000FFFFFFFFFFFFFFFFFFFFFFFFFFFFFFFFFFFFFFFFFFFFFFFFFFFFFFFF
310
FFFFFFFFFFFFFFFFFFFFFFFFFFFFFFFFFFFFFFFFFFFFFFFFFFFFFFFFFFFFFFFFFFFFFFFFFFFFFFFFFFFFFFFFFFFFFFFFFFFFFFFFFF000000FF000000FF000000FF000000FF000000FF000000FF000000FF000000FF000000FF000000FF000000FF000000FFFFFFFFFFFFFFFFFFFFFFFFFFFFFFFFFFFFFFFFFFFFFFFFFFFFFF
310
FFFF000000FFFFFFFFFFFFFFFFFFFFFFFFFFFFFFFFFFFFFFFFFFFFFFFFFF000000FF000000FF000000FF000000FF000000FF000000FF000000FF000000FF000000FF000000FF000000FF000000FF000000FF000000FF000000FF000000FF000000FF000000FF000000FF000000FF000000FF000000FF000000FF000000FF00
310
0000FF000000FF000000FF000000FF000000FF000000FF000000FF000000FF000000FF000000FF000000FF000000FF000000FF000000FF000000FF000000FF000000FF000000FF000000FF000000FF000000FF000000FF000000FF000000FF000000FF000000FF000000FF000000FF000000FF000000FF000000FF000000FF
310
000000FF000000FF000000FF000000FF000000FF000000FF000000FF000000FF000000FF000000FF000000FF000000FF000000FF000000FF000000FF000000FF000000FF000000FF000000FF000000FF000000FF000000FF000000FF000000FF000000FF000000FF000000FF000000FF000000FF000000FF000000FF000000
310
FF000000FF000000FF000000FF000000FF000000FF000000FF000000FF000000FF000000FF000000FF000000FF000000FF000000FF000000FF000000FF000000FF000000FF000000FF000000FF000000FF000000FF000000FF000000FF000000FF000000FF000000FF000000FF000000FF000000FF000000FF000000FF0000
310
00FF000000FF000000FF000000FF000000FF000000FF000000FF000000FF000000FF000000FF000000FF000000FF000000FF000000FF000000FF000000FF000000FF000000FF000000FF000000FF000000FF000000FF000000FF000000FF000000FF000000FF000000FF000000FF000000FF000000FF000000FF000000FF00
310
0000FF000000FF000000FF000000FF000000FF000000FF000000FF000000FF000000FF000000FF000000FF000000FF000000FF000000FF000000FF000000FF000000FF000000FF000000FF000000FF000000FF000000FF000000FF000000FF000000FF000000FF000000FF000000FF000000FF000000FF000000FF000000FF
310
000000FF000000FF000000FF000000FF000000FF000000FF000000FF000000FF000000FF000000FF000000FF000000FF000000FF000000FF000000FF000000FF000000FF000000FF000000FF000000FF000000FF000000FF000000FF000000FF000000FF000000FF000000FF000000FF000000FF000000FF000000FF000000
310
FF000000FF000000FF000000FF000000FF000000FF000000FF000000FF000000FF000000FF000000FF000000FF000000FF000000FF000000FF000000FF000000FF000000FF000000FF000000FF000000FF000000FF000000FF000000FF000000FF000000FF000000FF000000FF000000FF000000FF000000FF000000FF0000
310
00FF000000FF000000FF000000FF000000FF000000FF000000FF000000FF000000FF000000FF000000FF000000FF000000FF000000FF000000FF000000FF000000FF000000FF000000FF000000FF000000FF000000FF000000FF000000FF000000FF000000FF000000FF000000FF000000FF000000FF000000FF000000FF00
310
0000FF000000FF000000FF000000FF000000FF000000FF000000FF000000FF000000FF000000FF000000FF000000FF000000FF000000FF000000FF000000FF000000FF000000FF000000FF000000FF000000FF000000FF000000FF000000FF000000FF000000FF000000FF000000FF000000FF000000FF000000FF000000FF
310
000000FF000000FF000000FF000000FF000000FF000000FF000000FF000000FF000000FF000000FF000000FF000000FF000000FF000000FF000000FF000000FF000000FF000000FF000000FF000000FF000000FF000000FF000000FF000000FF000000FF000000FF000000FF000000FF000000FF000000FF000000FF000000
310
FF000000FF000000FF000000FF000000FF000000FF000000FF000000FF000000FF000000FF000000FF000000FF000000FF000000FF000000FF000000FF000000FF000000FF000000FF000000FF000000FF000000FF000000FF000000FF000000FF000000FF000000FF000000FF000000FF000000FF000000FF000000FF0000
310
00FF000000FF000000FF000000FF000000FF000000FF000000FF000000FF000000FF000000FF000000FF000000FF000000FF000000FF000000FF000000FF000000FF000000FF000000FF000000FF000000FF000000FF000000FF000000FF000000FF000000FF000000FF000000FF000000FF000000FF000000FF000000FF00
310
0000FF000000FF000000FF000000FF000000FF000000FF000000FF000000FF000000FF000000FF000000FF000000FF000000FF000000FF000000FF000000FF000000FF000000FF000000FF000000FF000000FF000000FF000000FF000000FF000000FF000000FF000000FF000000FF000000FF000000FF000000FF000000FF
310
000000FF000000FF000000FF000000FF000000FF000000FF000000FF000000FF000000FF000000FF000000FF000000FF000000FF000000FF000000FF000000FF000000FF000000FF
102
{BLKREFS
331
53188
102
}
 70
     4
280
     1
281
     0
  0
ENDTAB
  0
ENDSEC
  0
SECTION
  2
BLOCKS
  0
BLOCK
  5
24
330
23
100
AcDbEntity
  8
0
100
AcDbBlockBegin
  2
*Model_Space
 70
     0
 10
0.0
 20
0.0
 30
0.0
  3
*Model_Space
  1

  0
ENDBLK
  5
25
330
23
100
AcDbEntity
  8
0
100
AcDbBlockEnd
  0
BLOCK
  5
31D06
330
31D04
100
AcDbEntity
 67
     1
  8
0
100
AcDbBlockBegin
  2
*Paper_Space
 70
     0
 10
0.0
 20
0.0
 30
0.0
  3
*Paper_Space
  1

  0
ENDBLK
  5
31D07
330
31D04
100
AcDbEntity
 67
     1
  8
0
100
AcDbBlockEnd
  0
BLOCK
  5
51993
330
5198F
100
AcDbEntity
  8
0
100
AcDbBlockBegin
  2
Eigentum
 70
     0
 10
0.0
 20
0.0
 30
0.0
  3
Eigentum
  1

  0
MTEXT
  5
51990
330
5198F
100
AcDbEntity
  8
Text
100
AcDbMText
 10
0.1881376586563874
 20
0.0
 30
0.0
 40
1.9
 41
62.72914090897023
 46
0.0
 71
     4
 72
     5
  3
{\fTahoma|b0|i0|c0|p34;\LDiese Zeichnung ist Eigentum der Firma:\P\lESF Emsland Spiel- und Freizeitgeräte GmbH & Co. KG\PThyssenstraße 7, 49744 Geeste\PTel: 05937/ 97189-0 ; Fax: 05937/ 97189-90\PAlle Rechte sind bei den Autoren.\PDiese Unterlage dar
  1
f nicht ohne Zustimmung der o. g. Firma in den Ausschreibungen verwendet werden.\PDer nicht autorisierte Nachbau ist kostenpflichtig.}
  7
2.5
 73
     1
 44
1.0
  0
ENDBLK
  5
51994
330
5198F
100
AcDbEntity
  8
0
100
AcDbBlockEnd
  0
BLOCK
  5
52E18
330
52E17
100
AcDbEntity
  8
0
100
AcDbBlockBegin
  2
*D1
 70
     1
 10
0.0
 20
0.0
 30
0.0
  3
*D1
  1

  0
LINE
  5
52F81
330
52E17
100
AcDbEntity
  8
Bemaßung
 62
     0
440
 16777216
370
    -2
100
AcDbLine
 10
12326.09105587862
 20
-3691.143085177382
 30
0.0
 11
12326.09105587862
 21
-3691.388037087261
 31
0.0
  0
LINE
  5
52F82
330
52E17
100
AcDbEntity
  8
Bemaßung
 62
     0
440
 16777216
370
    -2
100
AcDbLine
 10
12328.17115452765
 20
-3691.018085177383
 30
0.0
 11
12328.17115452765
 21
-3691.388037087261
 31
0.0
  0
LINE
  5
52F83
330
52E17
100
AcDbEntity
  8
Bemaßung
 62
     0
440
 16777216
370
    -2
100
AcDbLine
 10
12326.19105587862
 20
-3691.368037087261
 30
0.0
 11
12328.07115452765
 21
-3691.368037087261
 31
0.0
  0
SOLID
  5
52F84
330
52E17
100
AcDbEntity
  8
Bemaßung
 62
     0
440
 16777216
100
AcDbTrace
 10
12326.19105587862
 20
-3691.351370420594
 30
0.0
 11
12326.19105587862
 21
-3691.384703753928
 31
0.0
 12
12326.09105587862
 22
-3691.368037087261
 32
0.0
 13
12326.09105587862
 23
-3691.368037087261
 33
0.0
  0
SOLID
  5
52F85
330
52E17
100
AcDbEntity
  8
Bemaßung
 62
     0
440
 16777216
100
AcDbTrace
 10
12328.07115452765
 20
-3691.351370420594
 30
0.0
 11
12328.07115452765
 21
-3691.384703753928
 31
0.0
 12
12328.17115452765
 22
-3691.368037087261
 32
0.0
 13
12328.17115452765
 23
-3691.368037087261
 33
0.0
  0
MTEXT
  5
52F86
330
52E17
100
AcDbEntity
  8
Bemaßung
 62
     0
440
 16777216
100
AcDbMText
 10
12327.13110520313
 20
-3691.284571674232
 30
0.0
 40
0.1
 41
0.0
 46
0.0
 71
     5
 72
     1
  1
~2,00m
 73
     1
 44
1.0
  0
POINT
  5
52F87
330
52E17
100
AcDbEntity
  8
Defpoints
 62
     0
440
 16777216
100
AcDbPoint
 10
12326.09105587862
 20
-3691.113085177382
 30
0.0
  0
POINT
  5
52F88
330
52E17
100
AcDbEntity
  8
Defpoints
 62
     0
440
 16777216
100
AcDbPoint
 10
12328.17115452765
 20
-3690.988085177382
 30
0.0
  0
POINT
  5
52F89
330
52E17
100
AcDbEntity
  8
Defpoints
 62
     0
440
 16777216
100
AcDbPoint
 10
12328.17115452765
 20
-3691.368037087261
 30
0.0
  0
ENDBLK
  5
52E19
330
52E17
100
AcDbEntity
  8
0
100
AcDbBlockEnd
  0
BLOCK
  5
52E24
330
52E23
100
AcDbEntity
  8
0
100
AcDbBlockBegin
  2
*D2
 70
     1
 10
0.0
 20
0.0
 30
0.0
  3
*D2
  1

  0
LINE
  5
52F78
330
52E23
100
AcDbEntity
  8
Bemaßung
 62
     0
440
 16777216
370
    -2
100
AcDbLine
 10
12326.06105587862
 20
-3690.363085177382
 30
0.0
 11
12325.83563387008
 21
-3690.363085177382
 31
0.0
  0
LINE
  5
52F79
330
52E23
100
AcDbEntity
  8
Bemaßung
 62
     0
440
 16777216
370
    -2
100
AcDbLine
 10
12326.06105587862
 20
-3691.113085177382
 30
0.0
 11
12325.83563387008
 21
-3691.113085177382
 31
0.0
  0
LINE
  5
52F7A
330
52E23
100
AcDbEntity
  8
Bemaßung
 62
     0
440
 16777216
370
    -2
100
AcDbLine
 10
12325.85563387008
 20
-3690.463085177382
 30
0.0
 11
12325.85563387008
 21
-3691.013085177382
 31
0.0
  0
SOLID
  5
52F7B
330
52E23
100
AcDbEntity
  8
Bemaßung
 62
     0
440
 16777216
100
AcDbTrace
 10
12325.83896720341
 20
-3690.463085177382
 30
0.0
 11
12325.87230053674
 21
-3690.463085177382
 31
0.0
 12
12325.85563387008
 22
-3690.363085177382
 32
0.0
 13
12325.85563387008
 23
-3690.363085177382
 33
0.0
  0
SOLID
  5
52F7C
330
52E23
100
AcDbEntity
  8
Bemaßung
 62
     0
440
 16777216
100
AcDbTrace
 10
12325.83896720341
 20
-3691.013085177382
 30
0.0
 11
12325.87230053674
 21
-3691.013085177382
 31
0.0
 12
12325.85563387008
 22
-3691.113085177382
 32
0.0
 13
12325.85563387008
 23
-3691.113085177382
 33
0.0
  0
MTEXT
  5
52F7D
330
52E23
100
AcDbEntity
  8
Bemaßung
 62
     0
440
 16777216
100
AcDbMText
 10
12325.78459290298
 20
-3690.73808517738
 30
0.0
 40
0.1
 41
0.0
 46
0.0
 71
     5
 72
     1
  1
75
 11
0.0000000000000001
 21
1.0
 31
0.0
 73
     1
 44
1.0
  0
POINT
  5
52F7E
330
52E23
100
AcDbEntity
  8
Defpoints
 62
     0
440
 16777216
100
AcDbPoint
 10
12326.09105587862
 20
-3690.363085177382
 30
0.0
  0
POINT
  5
52F7F
330
52E23
100
AcDbEntity
  8
Defpoints
 62
     0
440
 16777216
100
AcDbPoint
 10
12326.09105587862
 20
-3691.113085177382
 30
0.0
  0
POINT
  5
52F80
330
52E23
100
AcDbEntity
  8
Defpoints
 62
     0
440
 16777216
100
AcDbPoint
 10
12325.85563387008
 20
-3691.113085177382
 30
0.0
  0
ENDBLK
  5
52E25
330
52E23
100
AcDbEntity
  8
0
100
AcDbBlockEnd
  0
BLOCK
  5
52E30
330
52E2F
100
AcDbEntity
  8
0
100
AcDbBlockBegin
  2
*D3
 70
     1
 10
0.0
 20
0.0
 30
0.0
  3
*D3
  1

  0
LINE
  5
52F6F
330
52E2F
100
AcDbEntity
  8
Bemaßung
 62
     0
440
 16777216
370
    -2
100
AcDbLine
 10
12328.20115452765
 20
-3690.488085177382
 30
0.0
 11
12328.41068746819
 21
-3690.488085177382
 31
0.0
  0
LINE
  5
52F70
330
52E2F
100
AcDbEntity
  8
Bemaßung
 62
     0
440
 16777216
370
    -2
100
AcDbLine
 10
12328.20115452765
 20
-3690.988085177382
 30
0.0
 11
12328.41068746819
 21
-3690.988085177382
 31
0.0
  0
LINE
  5
52F71
330
52E2F
100
AcDbEntity
  8
Bemaßung
 62
     0
440
 16777216
370
    -2
100
AcDbLine
 10
12328.39068746819
 20
-3690.588085177382
 30
0.0
 11
12328.39068746819
 21
-3690.888085177383
 31
0.0
  0
SOLID
  5
52F72
330
52E2F
100
AcDbEntity
  8
Bemaßung
 62
     0
440
 16777216
100
AcDbTrace
 10
12328.37402080153
 20
-3690.588085177382
 30
0.0
 11
12328.40735413486
 21
-3690.588085177382
 31
0.0
 12
12328.39068746819
 22
-3690.488085177382
 32
0.0
 13
12328.39068746819
 23
-3690.488085177382
 33
0.0
  0
SOLID
  5
52F73
330
52E2F
100
AcDbEntity
  8
Bemaßung
 62
     0
440
 16777216
100
AcDbTrace
 10
12328.37402080153
 20
-3690.888085177383
 30
0.0
 11
12328.40735413486
 21
-3690.888085177383
 31
0.0
 12
12328.39068746819
 22
-3690.988085177382
 32
0.0
 13
12328.39068746819
 23
-3690.988085177382
 33
0.0
  0
MTEXT
  5
52F74
330
52E2F
100
AcDbEntity
  8
Bemaßung
 62
     0
440
 16777216
100
AcDbMText
 10
12328.31863911359
 20
-3690.73808517738
 30
0.0
 40
0.1
 41
0.0
 46
0.0
 71
     5
 72
     1
  1
50
 11
0.0000000000000001
 21
1.0
 31
0.0
 73
     1
 44
1.0
  0
POINT
  5
52F75
330
52E2F
100
AcDbEntity
  8
Defpoints
 62
     0
440
 16777216
100
AcDbPoint
 10
12328.17115452765
 20
-3690.488085177382
 30
0.0
  0
POINT
  5
52F76
330
52E2F
100
AcDbEntity
  8
Defpoints
 62
     0
440
 16777216
100
AcDbPoint
 10
12328.17115452765
 20
-3690.988085177382
 30
0.0
  0
POINT
  5
52F77
330
52E2F
100
AcDbEntity
  8
Defpoints
 62
     0
440
 16777216
100
AcDbPoint
 10
12328.39068746819
 20
-3690.988085177382
 30
0.0
  0
ENDBLK
  5
52E31
330
52E2F
100
AcDbEntity
  8
0
100
AcDbBlockEnd
  0
BLOCK
  5
52E3C
330
52E3B
100
AcDbEntity
  8
0
100
AcDbBlockBegin
  2
*D4
 70
     1
 10
0.0
 20
0.0
 30
0.0
  3
*D4
  1

  0
LINE
  5
52F66
330
52E3B
100
AcDbEntity
  8
Bemaßung
 62
     0
440
 16777216
370
    -2
100
AcDbLine
 10
12324.59105587862
 20
-3690.333085177382
 30
0.0
 11
12324.59105587862
 21
-3688.663875345079
 31
0.0
  0
LINE
  5
52F67
330
52E3B
100
AcDbEntity
  8
Bemaßung
 62
     0
440
 16777216
370
    -2
100
AcDbLine
 10
12329.67115452765
 20
-3690.458085177382
 30
0.0
 11
12329.67115452765
 21
-3688.663875345079
 31
0.0
  0
LINE
  5
52F68
330
52E3B
100
AcDbEntity
  8
Bemaßung
 62
     0
440
 16777216
370
    -2
100
AcDbLine
 10
12324.69105587862
 20
-3688.683875345079
 30
0.0
 11
12329.57115452765
 21
-3688.683875345079
 31
0.0
  0
SOLID
  5
52F69
330
52E3B
100
AcDbEntity
  8
Bemaßung
 62
     0
440
 16777216
100
AcDbTrace
 10
12324.69105587862
 20
-3688.667208678412
 30
0.0
 11
12324.69105587862
 21
-3688.700542011746
 31
0.0
 12
12324.59105587862
 22
-3688.683875345079
 32
0.0
 13
12324.59105587862
 23
-3688.683875345079
 33
0.0
  0
SOLID
  5
52F6A
330
52E3B
100
AcDbEntity
  8
Bemaßung
 62
     0
440
 16777216
100
AcDbTrace
 10
12329.57115452765
 20
-3688.667208678412
 30
0.0
 11
12329.57115452765
 21
-3688.700542011746
 31
0.0
 12
12329.67115452765
 22
-3688.683875345079
 32
0.0
 13
12329.67115452765
 23
-3688.683875345079
 33
0.0
  0
MTEXT
  5
52F6B
330
52E3B
100
AcDbEntity
  8
Bemaßung
 62
     0
440
 16777216
100
AcDbMText
 10
12327.13110520313
 20
-3688.59920106704
 30
0.0
 40
0.1
 41
0.0
 46
0.0
 71
     5
 72
     1
  1
Sicherheitsbereich min. 5,10m
 73
     1
 44
1.0
  0
POINT
  5
52F6C
330
52E3B
100
AcDbEntity
  8
Defpoints
 62
     0
440
 16777216
100
AcDbPoint
 10
12324.59105587862
 20
-3690.363085177382
 30
0.0
  0
POINT
  5
52F6D
330
52E3B
100
AcDbEntity
  8
Defpoints
 62
     0
440
 16777216
100
AcDbPoint
 10
12329.67115452765
 20
-3690.488085177382
 30
0.0
  0
POINT
  5
52F6E
330
52E3B
100
AcDbEntity
  8
Defpoints
 62
     0
440
 16777216
100
AcDbPoint
 10
12329.67115452765
 20
-3688.683875345079
 30
0.0
  0
ENDBLK
  5
52E3D
330
52E3B
100
AcDbEntity
  8
0
100
AcDbBlockEnd
  0
BLOCK
  5
52E48
330
52E47
100
AcDbEntity
  8
0
100
AcDbBlockBegin
  2
*D5
 70
     1
 10
0.0
 20
0.0
 30
0.0
  3
*D5
  1

  0
LINE
  5
52F5D
330
52E47
100
AcDbEntity
  8
Bemaßung
 62
     0
440
 16777216
370
    -2
100
AcDbLine
 10
12326.04670019108
 20
-3688.86315387421
 30
0.0
 11
12324.23081821834
 21
-3688.86315387421
 31
0.0
  0
LINE
  5
52F5E
330
52E47
100
AcDbEntity
  8
Bemaßung
 62
     0
440
 16777216
370
    -2
100
AcDbLine
 10
12326.07062643438
 20
-3692.613054645225
 30
0.0
 11
12324.23081821834
 21
-3692.613054645225
 31
0.0
  0
LINE
  5
52F5F
330
52E47
100
AcDbEntity
  8
Bemaßung
 62
     0
440
 16777216
370
    -2
100
AcDbLine
 10
12324.25081821834
 20
-3688.96315387421
 30
0.0
 11
12324.25081821834
 21
-3692.513054645225
 31
0.0
  0
SOLID
  5
52F60
330
52E47
100
AcDbEntity
  8
Bemaßung
 62
     0
440
 16777216
100
AcDbTrace
 10
12324.23415155167
 20
-3688.96315387421
 30
0.0
 11
12324.267484885
 21
-3688.96315387421
 31
0.0
 12
12324.25081821834
 22
-3688.86315387421
 32
0.0
 13
12324.25081821834
 23
-3688.86315387421
 33
0.0
  0
SOLID
  5
52F61
330
52E47
100
AcDbEntity
  8
Bemaßung
 62
     0
440
 16777216
100
AcDbTrace
 10
12324.23415155167
 20
-3692.513054645225
 30
0.0
 11
12324.267484885
 21
-3692.513054645225
 31
0.0
 12
12324.25081821834
 22
-3692.613054645225
 32
0.0
 13
12324.25081821834
 23
-3692.613054645225
 33
0.0
  0
MTEXT
  5
52F62
330
52E47
100
AcDbEntity
  8
Bemaßung
 62
     0
440
 16777216
100
AcDbMText
 10
12324.1661439403
 20
-3690.738104259715
 30
0.0
 40
0.1
 41
0.0
 46
0.0
 71
     5
 72
     1
  1
Sicherheitsbereich min. 3,80m
 11
0.0000000000000001
 21
1.0
 31
0.0
 73
     1
 44
1.0
  0
POINT
  5
52F63
330
52E47
100
AcDbEntity
  8
Defpoints
 62
     0
440
 16777216
100
AcDbPoint
 10
12326.07670019108
 20
-3688.86315387421
 30
0.0
  0
POINT
  5
52F64
330
52E47
100
AcDbEntity
  8
Defpoints
 62
     0
440
 16777216
100
AcDbPoint
 10
12326.10062643438
 20
-3692.613054645225
 30
0.0
  0
POINT
  5
52F65
330
52E47
100
AcDbEntity
  8
Defpoints
 62
     0
440
 16777216
100
AcDbPoint
 10
12324.25081821834
 20
-3692.613054645225
 30
0.0
  0
ENDBLK
  5
52E49
330
52E47
100
AcDbEntity
  8
0
100
AcDbBlockEnd
  0
BLOCK
  5
52F8B
330
52F8A
100
AcDbEntity
  8
0
100
AcDbBlockBegin
  2
03 1003E Rutschbogen
 70
     0
 10
0.0
 20
0.0
 30
0.0
  3
03 1003E Rutschbogen
  1

  0
SPLINE
  5
52F8D
330
52F8A
100
AcDbEntity
  8
Kontur 09
 62
     7
420
 16777215
100
AcDbSpline
210
0.0
220
0.0
230
1.0
 70
     8
 71
     3
 72
    26
 73
    22
 74
     0
 42
0.000000001
 43
0.0000000001
 40
11532.31821851621
 40
11532.31821851621
 40
11532.31821851621
 40
11532.31821851621
 40
11634.23963498723
 40
11809.16049993985
 40
11977.64080322295
 40
12108.7108842127
 40
12294.32890573836
 40
12439.86978998464
 40
12645.41383674506
 40
12837.91936361659
 40
12975.88567711198
 40
13188.48601914701
 40
13325.95556741034
 40
13458.65867697755
 40
13608.07641550288
 40
13927.31405080986
 40
14102.28482973636
 40
14102.28482973636
 40
14102.28482973636
 40
14388.07988275668
 40
14414.84097661571
 40
14414.84097661571
 40
14414.84097661571
 40
14414.84097661571
 10
12324.9424669497
 20
-3692.919813971793
 30
0.0
 10
12324.97621666686
 20
-3692.915802015416
 30
0.0
 10
12325.06766387506
 20
-3692.90294746436
 30
0.0
 10
12325.21343375947
 20
-3692.873966145267
 30
0.0
 10
12325.36514345234
 20
-3692.828736449062
 30
0.0
 10
12325.51788739663
 20
-3692.775413449193
 30
0.0
 10
12325.65874793054
 20
-3692.712342900343
 30
0.0
 10
12325.81652121774
 20
-3692.627902097475
 30
0.0
 10
12325.97033250881
 20
-3692.531501277075
 30
0.0
 10
12326.11111594183
 20
-3692.421149383177
 30
0.0
 10
12326.2470570513
 20
-3692.301390270924
 30
0.0
 10
12326.3569709653
 20
-3692.181063248765
 30
0.0
 10
12326.46106041807
 20
-3692.058349752188
 30
0.0
 10
12326.54375582453
 20
-3691.945231088745
 30
0.0
 10
12326.64543755809
 20
-3691.772572330097
 30
0.0
 10
12326.75080180319
 20
-3691.583992403208
 30
0.0
 10
12326.7989474411
 20
-3691.426142549551
 30
0.0
 10
12326.81599304276
 20
-3691.370256993876
 30
0.0
 10
12326.83794052256
 20
-3691.277672685266
 30
0.0
 10
12326.86194310639
 20
-3691.176419026553
 30
0.0
 10
12326.88332457564
 20
-3691.074132035241
 30
0.0
 10
12326.88512709172
 20
-3691.065366814753
 30
0.0
  0
SPLINE
  5
52F8E
330
52F8A
100
AcDbEntity
  8
Kontur 09
 62
     7
420
 16777215
100
AcDbSpline
210
0.0
220
0.0
230
1.0
 70
     8
 71
     3
 72
   248
 73
   244
 74
     0
 42
0.000000001
 43
0.0000000001
 40
11532.31821851621
 40
11532.31821851621
 40
11532.31821851621
 40
11532.31821851621
 40
11561.57711372162
 40
11561.57711372162
 40
11620.09490413243
 40
11620.09490413243
 40
11630.4630641113
 40
11630.4630641113
 40
11638.47595705713
 40
11638.47595705713
 40
11646.48885000296
 40
11646.48885000296
 40
11662.51463589462
 40
11662.51463589462
 40
11694.56620767794
 40
11694.56620767794
 40
11758.66935124458
 40
11758.66935124458
 40
11782.19045569471
 40
11782.19045569471
 40
11797.20651981839
 40
11797.20651981839
 40
11808.45612630965
 40
11808.45612630965
 40
11813.40632827295
 40
11813.40632827295
 40
11818.35653023625
 40
11818.35653023625
 40
11828.25693416284
 40
11828.25693416284
 40
11848.05774201604
 40
11848.05774201604
 40
11887.65935772242
 40
11887.65935772242
 40
11907.97845188762
 40
11907.97845188762
 40
11948.616640218
 40
11948.616640218
 40
11965.49028541705
 40
11965.49028541705
 40
11975.81676440408
 40
11975.81676440408
 40
11979.81468928745
 40
11979.81468928745
 40
11983.81261417082
 40
11983.81261417082
 40
11991.80846393756
 40
11991.80846393756
 40
12007.80016347104
 40
12007.80016347104
 40
12039.783562538
 40
12039.783562538
 40
12056.83665270296
 40
12056.83665270296
 40
12090.94283303289
 40
12090.94283303289
 40
12107.86633758912
 40
12107.86633758912
 40
12112.64928516193
 40
12112.64928516193
 40
12117.43223273474
 40
12117.43223273474
 40
12126.99812788035
 40
12126.99812788035
 40
12146.12991817159
 40
12146.12991817159
 40
12184.39349875406
 40
12184.39349875406
 40
12260.920659919
 40
12260.920659919
 40
12292.13924254622
 40
12292.13924254622
 40
12303.7447731728
 40
12303.7447731728
 40
12315.35030379938
 40
12315.35030379938
 40
12338.56136505253
 40
12338.56136505253
 40
12384.98348755884
 40
12384.98348755884
 40
12410.20003696581
 40
12410.20003696581
 40
12428.92331711284
 40
12428.92331711284
 40
12437.62247824931
 40
12437.62247824931
 40
12445.03722776943
 40
12445.03722776943
 40
12452.45197728955
 40
12452.45197728955
 40
12467.28147632979
 40
12467.28147632979
 40
12496.94047441027
 40
12496.94047441027
 40
12556.25847057123
 40
12556.25847057123
 40
12579.31014731366
 40
12579.31014731366
 40
12625.41350079852
 40
12625.41350079852
 40
12635.62846191129
 40
12635.62846191129
 40
12643.21467912357
 40
12643.21467912357
 40
12648.88838742709
 40
12648.88838742709
 40
12654.56209573062
 40
12654.56209573062
 40
12665.90951233768
 40
12665.90951233768
 40
12688.60434555179
 40
12688.60434555179
 40
12733.99401198001
 40
12733.99401198001
 40
12755.58317056991
 40
12755.58317056991
 40
12798.76148774971
 40
12798.76148774971
 40
12817.9460295303
 40
12817.9460295303
 40
12834.81684651641
 40
12834.81684651641
 40
12840.63174416894
 40
12840.63174416894
 40
12846.44664182146
 40
12846.44664182146
 40
12858.0764371265
 40
12858.0764371265
 40
12881.3360277366
 40
12881.3360277366
 40
12927.85520895678
 40
12927.85520895678
 40
12974.37439017696
 40
12974.37439017696
 40
12977.83102216373
 40
12977.83102216373
 40
12981.28765415049
 40
12981.28765415049
 40
12988.20091812403
 40
12988.20091812403
 40
13002.0274460711
 40
13002.0274460711
 40
13029.68050196524
 40
13029.68050196524
 40
13089.19253219388
 40
13089.19253219388
 40
13148.70456242253
 40
13148.70456242253
 40
13161.08110641982
 40
13161.08110641982
 40
13185.83419441442
 40
13185.83419441442
 40
13190.69697624124
 40
13190.69697624124
 40
13195.55975806807
 40
13195.55975806807
 40
13205.28532172172
 40
13205.28532172172
 40
13224.73644902903
 40
13224.73644902903
 40
13263.63870364365
 40
13263.63870364365
 40
13282.99160076814
 40
13282.99160076814
 40
13321.69739501711
 40
13321.69739501711
 40
13329.60533920274
 40
13329.60533920274
 40
13337.51328338838
 40
13337.51328338838
 40
13353.32917175964
 40
13353.32917175964
 40
13384.96094850217
 40
13384.96094850217
 40
13399.47580727914
 40
13399.47580727914
 40
13428.50552483309
 40
13428.50552483309
 40
13446.256227147
 40
13446.256227147
 40
13455.44419825746
 40
13455.44419825746
 40
13461.92607949746
 40
13461.92607949746
 40
13474.45445999507
 40
13474.45445999507
 40
13499.5112209903
 40
13499.5112209903
 40
13540.88410919916
 40
13540.88410919916
 40
13582.25699740801
 40
13582.25699740801
 40
13592.0154388311
 40
13592.0154388311
 40
13598.3826312871
 40
13598.3826312871
 40
13603.41527363185
 40
13603.41527363185
 40
13606.919852629
 40
13606.919852629
 40
13609.71364755978
 40
13609.71364755978
 40
13612.50744249055
 40
13612.50744249055
 40
13618.09503235209
 40
13618.09503235209
 40
13629.27021207519
 40
13629.27021207519
 40
13651.62057152137
 40
13651.62057152137
 40
13696.32129041375
 40
13696.32129041375
 40
13741.02200930612
 40
13741.02200930612
 40
13785.72272819849
 40
13785.72272819849
 40
13830.42344709086
 40
13830.42344709086
 40
13875.12416598324
 40
13875.12416598324
 40
13919.82488487561
 40
13919.82488487561
 40
13924.0297737833
 40
13924.0297737833
 40
13926.86403407454
 40
13926.86403407454
 40
13929.25689124837
 40
13929.25689124837
 40
13931.64974842221
 40
13931.64974842221
 40
13936.43546276988
 40
13936.43546276988
 40
13946.00689146521
 40
13946.00689146521
 40
13965.14974885589
 40
13965.14974885589
 40
14002.53328512598
 40
14002.53328512598
 40
14039.91682139607
 40
14039.91682139607
 40
14077.30035766615
 40
14077.30035766615
 40
14102.28482973636
 40
14102.28482973636
 40
14102.28482973636
 40
14102.28482973636
 10
12325.09167289023
 20
-3694.174976745026
 30
0.0
 10
12325.10648759664
 20
-3694.173215664909
 30
0.0
 10
12325.12127399449
 20
-3694.171365914546
 30
0.0
 10
12325.16554653306
 20
-3694.165554045851
 30
0.0
 10
12325.19494599364
 20
-3694.161329334899
 30
0.0
 10
12325.22941334752
 20
-3694.155954229426
 30
0.0
 10
12325.23459733522
 20
-3694.155134493998
 30
0.0
 10
12325.24378098939
 20
-3694.153662320302
 30
0.0
 10
12325.24777968922
 20
-3694.153014607401
 30
0.0
 10
12325.25580161573
 20
-3694.151701617086
 30
0.0
 10
12325.25982169142
 20
-3694.151036827606
 30
0.0
 10
12325.27190914315
 20
-3694.149017081489
 30
0.0
 10
12325.28000374529
 20
-3694.147636748743
 30
0.0
 10
12325.30439550568
 20
-3694.143390230236
 30
0.0
 10
12325.32080064457
 20
-3694.140418548301
 30
0.0
 10
12325.37043948978
 20
-3694.131048494209
 30
0.0
 10
12325.40409719246
 20
-3694.124195453909
 30
0.0
 10
12325.45083840888
 20
-3694.113872745738
 30
0.0
 10
12325.46345739426
 20
-3694.111007679626
 30
0.0
 10
12325.48424785076
 20
-3694.106151553588
 30
0.0
 10
12325.49237758735
 20
-3694.104219062
 30
0.0
 10
12325.50664723499
 20
-3694.10076613508
 30
0.0
 10
12325.51277476833
 20
-3694.099263926638
 30
0.0
 10
12325.52162110134
 20
-3694.097066356293
 30
0.0
 10
12325.52432190508
 20
-3694.096391554492
 30
0.0
 10
12325.52970266398
 20
-3694.095039542686
 30
0.0
 10
12325.53238508045
 20
-3694.094361722687
 30
0.0
 10
12325.54040847906
 20
-3694.092323078083
 30
0.0
 10
12325.54572560991
 20
-3694.090957069761
 30
0.0
 10
12325.56158192252
 20
-3694.086840338466
 30
0.0
 10
12325.57202601768
 20
-3694.084070923346
 30
0.0
 10
12325.60298083101
 20
-3694.075703618774
 30
0.0
 10
12325.62311401541
 20
-3694.070046892156
 30
0.0
 10
12325.65282880538
 20
-3694.061428317176
 30
0.0
 10
12325.66277487398
 20
-3694.058495359176
 30
0.0
 10
12325.69222621972
 20
-3694.049680101744
 30
0.0
 10
12325.71134464679
 20
-3694.043781645578
 30
0.0
 10
12325.73768579458
 20
-3694.035455439458
 30
0.0
 10
12325.74532696521
 20
-3694.033015139764
 30
0.0
 10
12325.75750507403
 20
-3694.029089481047
 30
0.0
 10
12325.76209608959
 20
-3694.027600986162
 30
0.0
 10
12325.76841983257
 20
-3694.025539568905
 30
0.0
 10
12325.7701779375
 20
-3694.024965260159
 30
0.0
 10
12325.77371041198
 20
-3694.023808901923
 30
0.0
 10
12325.77548188046
 20
-3694.023227791289
 30
0.0
 10
12325.78081193947
 20
-3694.02147554885
 30
0.0
 10
12325.78438618379
 20
-3694.020295506958
 30
0.0
 10
12325.79517120166
 20
-3694.016718796343
 30
0.0
 10
12325.80244426449
 20
-3694.014285549705
 30
0.0
 10
12325.82450981934
 20
-3694.006831681652
 30
0.0
 10
12325.83954876411
 20
-3694.001657038182
 30
0.0
 10
12325.86309721878
 20
-3693.993374488501
 30
0.0
 10
12325.87137751955
 20
-3693.990429405948
 30
0.0
 10
12325.89648714652
 20
-3693.981389366076
 30
0.0
 10
12325.91358535822
 20
-3693.975089729119
 30
0.0
 10
12325.93968421553
 20
-3693.965211190387
 30
0.0
 10
12325.94842460859
 20
-3693.961860490295
 30
0.0
 10
12325.95974179916
 20
-3693.957462280132
 30
0.0
 10
12325.96223800997
 20
-3693.956488478448
 30
0.0
 10
12325.96721685736
 20
-3693.954538816567
 30
0.0
 10
12325.96970226113
 20
-3693.95356188313
 30
0.0
 10
12325.97714643518
 20
-3693.950624876587
 30
0.0
 10
12325.98209316804
 20
-3693.948658597476
 30
0.0
 10
12325.99688540312
 20
-3693.942735737812
 30
0.0
 10
12326.00668293956
 20
-3693.938755138518
 30
0.0
 10
12326.03588526465
 20
-3693.926723547484
 30
0.0
 10
12326.05509974037
 20
-3693.91858281864
 30
0.0
 10
12326.11199575554
 20
-3693.89384986432
 30
0.0
 10
12326.14892965232
 20
-3693.876947698282
 30
0.0
 10
12326.19958491585
 20
-3693.852734681673
 30
0.0
 10
12326.2141029414
 20
-3693.845669831023
 30
0.0
 10
12326.23380398526
 20
-3693.835921165515
 30
0.0
 10
12326.23912459918
 20
-3693.833271932333
 30
0.0
 10
12326.24974508355
 20
-3693.827951259941
 30
0.0
 10
12326.25504257562
 20
-3693.825280992804
 30
0.0
 10
12326.27089685047
 20
-3693.817240925748
 30
0.0
 10
12326.28141542975
 20
-3693.8118418615
 30
0.0
 10
12326.31281882651
 20
-3693.795531781173
 30
0.0
 10
12326.33355127177
 20
-3693.78450789976
 30
0.0
 10
12326.36523464603
 20
-3693.767280355622
 30
0.0
 10
12326.37632762952
 20
-3693.761175116875
 30
0.0
 10
12326.39555412678
 20
-3693.75046789453
 30
0.0
 10
12326.40371416988
 20
-3693.745883638074
 30
0.0
 10
12326.41561798695
 20
-3693.73913855366
 30
0.0
 10
12326.41938720449
 20
-3693.736994270379
 30
0.0
 10
12326.42635617726
 20
-3693.733013990718
 30
0.0
 10
12326.4295584252
 20
-3693.731178914579
 30
0.0
 10
12326.43597671688
 20
-3693.727488409102
 30
0.0
 10
12326.43918977208
 20
-3693.725634678973
 30
0.0
 10
12326.44884047986
 20
-3693.720047777899
 30
0.0
 10
12326.45528967558
 20
-3693.716288896874
 30
0.0
 10
12326.47468191329
 20
-3693.704907162515
 30
0.0
 10
12326.48766962309
 20
-3693.697179226612
 30
0.0
 10
12326.52679865205
 20
-3693.673556744026
 30
0.0
 10
12326.55310620518
 20
-3693.657223624132
 30
0.0
 10
12326.58989255429
 20
-3693.633661254337
 30
0.0
 10
12326.60021516483
 20
-3693.626971234166
 30
0.0
 10
12326.6312588358
 20
-3693.606604310039
 30
0.0
 10
12326.65205589127
 20
-3693.592630548296
 30
0.0
 10
12326.67755863039
 20
-3693.575047484612
 30
0.0
 10
12326.68218821115
 20
-3693.571837661665
 30
0.0
 10
12326.69026238137
 20
-3693.56620763851
 30
0.0
 10
12326.69370532456
 20
-3693.563796805882
 30
0.0
 10
12326.69972659107
 20
-3693.559562592883
 30
0.0
 10
12326.70230495344
 20
-3693.557743686284
 30
0.0
 10
12326.70743998053
 20
-3693.554109710119
 30
0.0
 10
12326.70999957378
 20
-3693.552292592811
 30
0.0
 10
12326.71765471093
 20
-3693.546841083352
 30
0.0
 10
12326.72272661194
 20
-3693.543206534567
 30
0.0
 10
12326.73784870266
 20
-3693.532304069113
 30
0.0
 10
12326.7478052762
 20
-3693.525037347401
 30
0.0
 10
12326.7773083725
 20
-3693.503255900281
 30
0.0
 10
12326.79648824653
 20
-3693.488760102328
 30
0.0
 10
12326.82410110692
 20
-3693.467457693975
 30
0.0
 10
12326.83289577068
 20
-3693.460604797647
 30
0.0
 10
12326.85896952785
 20
-3693.440096903891
 30
0.0
 10
12326.87593841193
 20
-3693.426492846064
 30
0.0
 10
12326.89987600282
 20
-3693.406979769122
 30
0.0
 10
12326.9071618553
 20
-3693.400995481442
 30
0.0
 10
12326.92071122858
 20
-3693.389787352786
 30
0.0
 10
12326.92699207174
 20
-3693.384558840635
 30
0.0
 10
12326.93535970202
 20
-3693.377551505603
 30
0.0
 10
12326.93749324323
 20
-3693.375761131548
 30
0.0
 10
12326.94178468275
 20
-3693.372152476109
 30
0.0
 10
12326.94393921157
 20
-3693.370336984791
 30
0.0
 10
12326.95042892866
 20
-3693.364856676545
 30
0.0
 10
12326.95479024968
 20
-3693.36115802726
 30
0.0
 10
12326.96797629451
 20
-3693.349923928727
 30
0.0
 10
12326.97690313813
 20
-3693.342250356732
 30
0.0
 10
12327.0040712418
 20
-3693.318653500305
 30
0.0
 10
12327.02270081687
 20
-3693.302154402814
 30
0.0
 10
12327.06086767175
 20
-3693.267485022173
 30
0.0
 10
12327.08040513825
 20
-3693.249314524431
 30
0.0
 10
12327.10179975992
 20
-3693.228818970627
 30
0.0
 10
12327.10328285409
 20
-3693.227395159545
 30
0.0
 10
12327.10623473705
 20
-3693.224555218856
 30
0.0
 10
12327.10770566609
 20
-3693.2231370485
 30
0.0
 10
12327.11210349738
 20
-3693.218888042741
 30
0.0
 10
12327.11501544379
 20
-3693.216062713105
 30
0.0
 10
12327.12369211217
 20
-3693.207609572875
 30
0.0
 10
12327.12939766355
 20
-3693.202004618028
 30
0.0
 10
12327.1462828556
 20
-3693.185287517878
 30
0.0
 10
12327.15723105199
 20
-3693.174273241211
 30
0.0
 10
12327.19081158553
 20
-3693.140015626016
 30
0.0
 10
12327.21237425864
 20
-3693.11730468667
 30
0.0
 10
12327.25303156877
 20
-3693.073502993747
 30
0.0
 10
12327.27212668172
 20
-3693.052411723794
 30
0.0
 10
12327.29384008367
 20
-3693.028039649302
 30
0.0
 10
12327.2975298161
 20
-3693.023883188907
 30
0.0
 10
12327.30845619932
 20
-3693.011534840971
 30
0.0
 10
12327.31555008186
 20
-3693.003464017387
 30
0.0
 10
12327.32381781745
 20
-3692.994008341007
 30
0.0
 10
12327.32516421196
 20
-3692.992466883746
 30
0.0
 10
12327.32787640965
 20
-3692.989358509219
 30
0.0
 10
12327.32923941867
 20
-3692.987794761015
 30
0.0
 10
12327.33334898956
 20
-3692.983074667567
 30
0.0
 10
12327.33611609693
 20
-3692.979889474591
 30
0.0
 10
12327.3444980462
 20
-3692.970217135054
 30
0.0
 10
12327.35019354323
 20
-3692.963613244043
 30
0.0
 10
12327.3675892197
 20
-3692.943323017114
 30
0.0
 10
12327.37959907555
 20
-3692.929158326825
 30
0.0
 10
12327.39813968074
 20
-3692.906941512923
 30
0.0
 10
12327.40439083316
 20
-3692.899394647241
 30
0.0
 10
12327.42340215594
 20
-3692.876242152498
 30
0.0
 10
12327.43642076236
 20
-3692.860124662553
 30
0.0
 10
12327.45244983866
 20
-3692.83984864847
 30
0.0
 10
12327.45518384824
 20
-3692.836375521737
 30
0.0
 10
12327.46065309893
 20
-3692.829396914839
 30
0.0
 10
12327.46339027841
 20
-3692.82588903186
 30
0.0
 10
12327.47160875466
 20
-3692.815309063222
 30
0.0
 10
12327.47709699425
 20
-3692.808180659564
 30
0.0
 10
12327.49358350715
 20
-3692.786565459465
 30
0.0
 10
12327.50460366523
 20
-3692.771848691645
 30
0.0
 10
12327.52069844109
 20
-3692.749912758839
 30
0.0
 10
12327.5257634055
 20
-3692.742945804193
 30
0.0
 10
12327.54096071954
 20
-3692.721839339334
 30
0.0
 10
12327.55109556667
 20
-3692.707494225686
 30
0.0
 10
12327.5674089761
 20
-3692.683919533162
 30
0.0
 10
12327.57359472582
 20
-3692.674867910226
 30
0.0
 10
12327.58297022743
 20
-3692.660966310444
 30
0.0
 10
12327.58616579612
 20
-3692.6561958079
 30
0.0
 10
12327.59161123016
 20
-3692.648009696834
 30
0.0
 10
12327.59386873559
 20
-3692.644599126782
 30
0.0
 10
12327.60039031562
 20
-3692.634698376843
 30
0.0
 10
12327.60458676607
 20
-3692.628266222768
 30
0.0
 10
12327.61688244444
 20
-3692.609257045314
 30
0.0
 10
12327.624688126
 20
-3692.596967567004
 30
0.0
 10
12327.64441731645
 20
-3692.565457089236
 30
0.0
 10
12327.65571361534
 20
-3692.546934717147
 30
0.0
 10
12327.67654302463
 20
-3692.51223569962
 30
0.0
 10
12327.68607640389
 20
-3692.496058669905
 30
0.0
 10
12327.69687738423
 20
-3692.477574042652
 30
0.0
 10
12327.69889449212
 20
-3692.474114039443
 30
0.0
 10
12327.70215614647
 20
-3692.468509270606
 30
0.0
 10
12327.70342556577
 20
-3692.466325297097
 30
0.0
 10
12327.70566575828
 20
-3692.462467357938
 30
0.0
 10
12327.70664335959
 20
-3692.460782440269
 30
0.0
 10
12327.70828264346
 20
-3692.457955219155
 30
0.0
 10
12327.70895012198
 20
-3692.456803496427
 30
0.0
 10
12327.71013996346
 20
-3692.454749607468
 30
0.0
 10
12327.71066355665
 20
-3692.453845498267
 30
0.0
 10
12327.7117177522
 20
-3692.452024595172
 30
0.0
 10
12327.71224669269
 20
-3692.451110664333
 30
0.0
 10
12327.71383900787
 20
-3692.448358421129
 30
0.0
 10
12327.71490787647
 20
-3692.446509658254
 30
0.0
 10
12327.71813617742
 20
-3692.440921458444
 30
0.0
 10
12327.72031730733
 20
-3692.437140113133
 30
0.0
 10
12327.72694515825
 20
-3692.425627466902
 30
0.0
 10
12327.73147637993
 20
-3692.417727598858
 30
0.0
 10
12327.7453880052
 20
-3692.393344300125
 30
0.0
 10
12327.75508706866
 20
-3692.376177787051
 30
0.0
 10
12327.77521194347
 20
-3692.339956994237
 30
0.0
 10
12327.78563788057
 20
-3692.320902561933
 30
0.0
 10
12327.8070702481
 20
-3692.280822114223
 30
0.0
 10
12327.81807683255
 20
-3692.259795875691
 30
0.0
 10
12327.84049610652
 20
-3692.215675754189
 30
0.0
 10
12327.85190895605
 20
-3692.192581560096
 30
0.0
 10
12327.87493342992
 20
-3692.144225167475
 30
0.0
 10
12327.88654518607
 20
-3692.11896255592
 30
0.0
 10
12327.90972267599
 20
-3692.066175485241
 30
0.0
 10
12327.92128846545
 20
-3692.038650509154
 30
0.0
 10
12327.9337609884
 20
-3692.007258883865
 30
0.0
 10
12327.9348318913
 20
-3692.004549520968
 30
0.0
 10
12327.93662193165
 20
-3691.999996625752
 30
0.0
 10
12327.93734194694
 20
-3691.998158737573
 30
0.0
 10
12327.93866842236
 20
-3691.994760512144
 30
0.0
 10
12327.9392739498
 20
-3691.993204461706
 30
0.0
 10
12327.9404757395
 20
-3691.99010677906
 30
0.0
 10
12327.94107287799
 20
-3691.988562905232
 30
0.0
 10
12327.94285315349
 20
-3691.983946251429
 30
0.0
 10
12327.94402515089
 20
-3691.980888439694
 30
0.0
 10
12327.94749760663
 20
-3691.971775377771
 30
0.0
 10
12327.94975453395
 20
-3691.965780509214
 30
0.0
 10
12327.95635917979
 20
-3691.948041114987
 30
0.0
 10
12327.96054086062
 20
-3691.936541914316
 30
0.0
 10
12327.9722947021
 20
-3691.903576686888
 30
0.0
 10
12327.97930238547
 20
-3691.883055521593
 30
0.0
 10
12327.992050325
 20
-3691.844663663308
 30
0.0
 10
12327.99779075208
 20
-3691.826792433654
 30
0.0
 10
12328.00821330682
 20
-3691.79375923526
 30
0.0
 10
12328.01289550475
 20
-3691.778596926076
 30
0.0
 10
12328.01994951729
 20
-3691.755596475963
 30
0.0
 10
12328.02257193971
 20
-3691.746996918084
 30
0.0
 10
12328.02500591961
 20
-3691.739016893571
 30
0.0
  0
ARC
  5
52F8F
330
52F8A
100
AcDbEntity
  8
Kontur 09
 62
     7
420
 16777215
100
AcDbCircle
 10
12326.81599304276
 20
-3691.370256993876
 30
0.0
 40
1.264
100
AcDbArc
 50
343.0378184119377
 51
346.6639739939781
  0
SPLINE
  5
52F90
330
52F8A
100
AcDbEntity
  8
Kontur 09
 62
     7
420
 16777215
100
AcDbSpline
210
0.0
220
0.0
230
1.0
 70
     8
 71
     3
 72
    35
 73
    31
 74
     0
 42
0.000000001
 43
0.0000000001
 40
14102.28407123826
 40
14102.28407123826
 40
14102.28407123826
 40
14102.28407123826
 40
14102.28482973636
 40
14102.28482973636
 40
14102.28482973636
 40
14140.86817665014
 40
14140.86817665014
 40
14218.0348704777
 40
14218.0348704777
 40
14325.75087820851
 40
14325.75087820851
 40
14343.47521662495
 40
14343.47521662495
 40
14378.92389345784
 40
14378.92389345784
 40
14385.25821925522
 40
14385.25821925522
 40
14391.88790215807
 40
14391.88790215807
 40
14398.51758506091
 40
14398.51758506091
 40
14411.7769508666
 40
14411.7769508666
 40
14414.84097661571
 40
14414.84097661571
 40
14414.84097661571
 40
14414.84444140676
 40
14414.84444140676
 40
14414.84444140676
 40
14596.48121623009
 40
14596.48121623009
 40
14596.48121623009
 40
14596.48121623009
 10
12328.04590788376
 20
-3691.661813993274
 30
0.0
 10
12328.04590794201
 20
-3691.661813747555
 30
0.0
 10
12328.04590800026
 20
-3691.661813501838
 30
0.0
 10
12328.0459080585
 20
-3691.66181325612
 30
0.0
 10
12328.0488710462
 20
-3691.649314045724
 30
0.0
 10
12328.05187748363
 20
-3691.636631727007
 30
0.0
 10
12328.06101018203
 20
-3691.598029106203
 30
0.0
 10
12328.06725035226
 20
-3691.571553099888
 30
0.0
 10
12328.08244112977
 20
-3691.506304798781
 30
0.0
 10
12328.09148803159
 20
-3691.466813748994
 30
0.0
 10
12328.10205756719
 20
-3691.419056892408
 30
0.0
 10
12328.10355173174
 20
-3691.412267908746
 30
0.0
 10
12328.10803391014
 20
-3691.391777197119
 30
0.0
 10
12328.1110216312
 20
-3691.377951700661
 30
0.0
 10
12328.11453464669
 20
-3691.361459730932
 30
0.0
 10
12328.11506698834
 20
-3691.358954230326
 30
0.0
 10
12328.11615593318
 20
-3691.353815523051
 30
0.0
 10
12328.11671188652
 20
-3691.351184876441
 30
0.0
 10
12328.11783359702
 20
-3691.345861484661
 30
0.0
 10
12328.11839808199
 20
-3691.343174672119
 30
0.0
 10
12328.12010174478
 20
-3691.335038809365
 30
0.0
 10
12328.12125113873
 20
-3691.32951433897
 30
0.0
 10
12328.12268054722
 20
-3691.322589130216
 30
0.0
 10
12328.12294948256
 20
-3691.321283831148
 30
0.0
 10
12328.12321901768
 20
-3691.319973143968
 30
0.0
 10
12328.12321932247
 20
-3691.319971661847
 30
0.0
 10
12328.12321962726
 20
-3691.31997017972
 30
0.0
 10
12328.12321993205
 20
-3691.319968697591
 30
0.0
 10
12328.13919813058
 20
-3691.2422702321
 30
0.0
 10
12328.15517632912
 20
-3691.164571766608
 30
0.0
 10
12328.17115452765
 20
-3691.086873301116
 30
0.0
  0
SPLINE
  5
52F91
330
52F8A
100
AcDbEntity
  8
Kontur 09
 62
     7
420
 16777215
100
AcDbSpline
210
0.0
220
0.0
230
1.0
 70
     8
 71
     3
 72
    21
 73
    17
 74
     0
 42
0.000000001
 43
0.0000000001
 40
15070.99990040099
 40
15070.99990040099
 40
15070.99990040099
 40
15070.99990040099
 40
15122.53884058176
 40
15388.94484983051
 40
15702.67543622855
 40
15986.721947296
 40
16279.63847442137
 40
16454.9597716891
 40
16628.22786901864
 40
16801.81468400678
 40
16956.97793720435
 40
17114.747251198
 40
17271.46238691502
 40
17536.72873487494
 40
17794.51281777904
 40
18022.76953330163
 40
18022.76953330163
 40
18022.76953330163
 40
18022.76953330163
 10
12326.90626650846
 20
-3690.412073877403
 30
0.0
 10
12326.90464052771
 20
-3690.394987243152
 30
0.0
 10
12326.89305540979
 20
-3690.289749218736
 30
0.0
 10
12326.84519500981
 20
-3690.083260206887
 30
0.0
 10
12326.74109247683
 20
-3689.814822553063
 30
0.0
 10
12326.62150151058
 20
-3689.541330616303
 30
0.0
 10
12326.46902905678
 20
-3689.340893217458
 30
0.0
 10
12326.3400820815
 20
-3689.169831038484
 30
0.0
 10
12326.20977180959
 20
-3689.053146195469
 30
0.0
 10
12326.07873805594
 20
-3688.949679888692
 30
0.0
 10
12325.9635318471
 20
-3688.833179699381
 30
0.0
 10
12325.8209577632
 20
-3688.765069678856
 30
0.0
 10
12325.66090032804
 20
-3688.65549165853
 30
0.0
 10
12325.44335105325
 20
-3688.585403399201
 30
0.0
 10
12325.20830013393
 20
-3688.497308244367
 30
0.0
 10
12325.04725748976
 20
-3688.475515288098
 30
0.0
 10
12324.97139306373
 20
-3688.466921563209
 30
0.0
  0
SPLINE
  5
52F92
330
52F8A
100
AcDbEntity
  8
Kontur 09
 62
     7
420
 16777215
100
AcDbSpline
210
0.0
220
0.0
230
1.0
 70
     8
 71
     3
 72
   188
 73
   184
 74
     0
 42
0.000000001
 43
0.0000000001
 40
15070.99990040099
 40
15070.99990040099
 40
15070.99990040099
 40
15070.99990040099
 40
15085.23219755871
 40
15085.23219755871
 40
15113.69679187415
 40
15113.69679187415
 40
15119.31632385998
 40
15119.31632385998
 40
15122.45926356616
 40
15122.45926356616
 40
15128.74514297853
 40
15128.74514297853
 40
15135.03102239089
 40
15135.03102239089
 40
15147.60278121561
 40
15147.60278121561
 40
15172.74629886506
 40
15172.74629886506
 40
15223.03333416396
 40
15223.03333416396
 40
15297.42248765771
 40
15297.42248765771
 40
15371.81164115146
 40
15371.81164115146
 40
15387.45910632508
 40
15387.45910632508
 40
15407.87495066141
 40
15407.87495066141
 40
15428.29079499773
 40
15428.29079499773
 40
15469.12248367037
 40
15469.12248367037
 40
15545.43712127194
 40
15545.43712127194
 40
15621.75175887351
 40
15621.75175887351
 40
15698.06639647508
 40
15698.06639647508
 40
15702.62611241763
 40
15702.62611241763
 40
15711.74554430271
 40
15711.74554430271
 40
15720.8649761878
 40
15720.8649761878
 40
15739.10383995798
 40
15739.10383995798
 40
15775.58156749834
 40
15775.58156749834
 40
15829.26768019589
 40
15829.26768019589
 40
15882.95379289343
 40
15882.95379289343
 40
15936.63990559098
 40
15936.63990559098
 40
15949.72270872175
 40
15949.72270872175
 40
15975.88831498329
 40
15975.88831498329
 40
15981.41941036122
 40
15981.41941036122
 40
15985.61662680638
 40
15985.61662680638
 40
15988.76825407278
 40
15988.76825407278
 40
15991.91988133919
 40
15991.91988133919
 40
15998.22313587199
 40
15998.22313587199
 40
16010.82964493759
 40
16010.82964493759
 40
16036.0426630688
 40
16036.0426630688
 40
16083.48305668293
 40
16083.48305668293
 40
16130.92345029706
 40
16130.92345029706
 40
16178.36384391118
 40
16178.36384391118
 40
16225.80423752531
 40
16225.80423752531
 40
16273.24463113944
 40
16273.24463113944
 40
16277.35757800595
 40
16277.35757800595
 40
16281.05146762438
 40
16281.05146762438
 40
16284.74535724282
 40
16284.74535724282
 40
16292.13313647968
 40
16292.13313647968
 40
16306.90869495342
 40
16306.90869495342
 40
16336.4598119009
 40
16336.4598119009
 40
16366.01092884838
 40
16366.01092884838
 40
16395.56204579585
 40
16395.56204579585
 40
16425.11316274333
 40
16425.11316274333
 40
16454.66427969081
 40
16454.66427969081
 40
16457.09399478472
 40
16457.09399478472
 40
16459.52370987863
 40
16459.52370987863
 40
16464.38314006646
 40
16464.38314006646
 40
16474.10200044211
 40
16474.10200044211
 40
16493.53972119341
 40
16493.53972119341
 40
16531.79666609629
 40
16531.79666609629
 40
16570.05361099917
 40
16570.05361099917
 40
16608.31055590205
 40
16608.31055590205
 40
16626.55812948582
 40
16626.55812948582
 40
16631.17294879924
 40
16631.17294879924
 40
16635.78776811267
 40
16635.78776811267
 40
16645.01740673952
 40
16645.01740673952
 40
16663.47668399321
 40
16663.47668399321
 40
16696.74798371981
 40
16696.74798371981
 40
16730.0192834464
 40
16730.0192834464
 40
16763.290583173
 40
16763.290583173
 40
16796.5618828996
 40
16796.5618828996
 40
16799.20139547569
 40
16799.20139547569
 40
16804.48042062787
 40
16804.48042062787
 40
16809.75944578005
 40
16809.75944578005
 40
16820.31749608442
 40
16820.31749608442
 40
16839.56230455982
 40
16839.56230455982
 40
16858.80711303522
 40
16858.80711303522
 40
16878.05192151062
 40
16878.05192151062
 40
16897.29672998601
 40
16897.29672998601
 40
16916.54153846141
 40
16916.54153846141
 40
16935.78634693682
 40
16935.78634693682
 40
16955.03115541221
 40
16955.03115541221
 40
16956.43680622472
 40
16956.43680622472
 40
16957.59469664679
 40
16957.59469664679
 40
16958.75258706885
 40
16958.75258706885
 40
16961.06836791298
 40
16961.06836791298
 40
16965.69992960125
 40
16965.69992960125
 40
16974.96305297777
 40
16974.96305297777
 40
16992.64908339682
 40
16992.64908339682
 40
17010.33511381586
 40
17010.33511381586
 40
17028.02114423491
 40
17028.02114423491
 40
17045.70717465395
 40
17045.70717465395
 40
17063.39320507299
 40
17063.39320507299
 40
17081.07923549204
 40
17081.07923549204
 40
17094.75340478906
 40
17094.75340478906
 40
17094.75340478906
 40
17094.75340478906
 10
12328.16458194129
 20
-3690.292331355752
 30
0.0
 10
12328.16380742229
 20
-3690.284192315383
 30
0.0
 10
12328.16298608791
 20
-3690.275912977808
 30
0.0
 10
12328.16036593991
 20
-3690.250656774866
 30
0.0
 10
12328.15841122245
 20
-3690.233261433681
 30
0.0
 10
12328.15576781179
 20
-3690.211776102361
 30
0.0
 10
12328.15532211868
 20
-3690.208212433321
 30
0.0
 10
12328.15461120226
 20
-3690.202622541334
 30
0.0
 10
12328.1543530092
 20
-3690.200610907742
 30
0.0
 10
12328.15356863676
 20
-3690.19455614101
 30
0.0
 10
12328.15303709586
 20
-3690.190527403089
 30
0.0
 10
12328.1519577886
 20
-3690.182490892492
 30
0.0
 10
12328.15140990625
 20
-3690.178482223912
 30
0.0
 10
12328.14974205727
 20
-3690.166484984955
 30
0.0
 10
12328.14859789031
 20
-3690.158525183328
 30
0.0
 10
12328.14507240442
 20
-3690.134760831075
 30
0.0
 10
12328.14259812631
 20
-3690.119071360577
 30
0.0
 10
12328.13483305557
 20
-3690.072462008636
 30
0.0
 10
12328.12920044423
 20
-3690.042001508565
 30
0.0
 10
12328.11428877716
 20
-3689.967979689168
 30
0.0
 10
12328.10455726998
 20
-3689.925136969576
 30
0.0
 10
12328.08385250418
 20
-3689.842013606464
 30
0.0
 10
12328.07287897303
 20
-3689.801732240074
 30
0.0
 10
12328.0590694365
 20
-3689.754466658617
 30
0.0
 10
12328.05665009291
 20
-3689.746306789303
 30
0.0
 10
12328.05103311141
 20
-3689.727624755509
 30
0.0
 10
12328.04782661757
 20
-3689.717152747599
 30
0.0
 10
12328.04137331372
 20
-3689.696429735032
 30
0.0
 10
12328.03812584605
 20
-3689.686176532525
 30
0.0
 10
12328.02833388149
 20
-3689.655740031314
 30
0.0
 10
12328.02173998008
 20
-3689.635879941178
 30
0.0
 10
12328.00272617105
 20
-3689.580119625669
 30
0.0
 10
12327.99022478707
 20
-3689.545278750856
 30
0.0
 10
12327.96536949714
 20
-3689.478459556156
 30
0.0
 10
12327.9530154947
 20
-3689.446480584662
 30
0.0
 10
12327.92877175913
 20
-3689.385265833434
 30
0.0
 10
12327.91688188031
 20
-3689.356029596329
 30
0.0
 10
12327.90466547341
 20
-3689.326439184902
 30
0.0
 10
12327.90397799455
 20
-3689.324775563327
 30
0.0
 10
12327.90191948782
 20
-3689.319798743578
 30
0.0
 10
12327.90052952545
 20
-3689.316444298234
 30
0.0
 10
12327.89771200314
 20
-3689.30965908037
 30
0.0
 10
12327.89628469396
 20
-3689.306228914128
 30
0.0
 10
12327.89194578448
 20
-3689.295826426297
 30
0.0
 10
12327.88897722803
 20
-3689.288742112463
 30
0.0
 10
12327.87983207399
 20
-3689.267046760072
 30
0.0
 10
12327.87341639591
 20
-3689.251993219075
 30
0.0
 10
12327.85668136745
 20
-3689.213364993538
 30
0.0
 10
12327.84594951565
 20
-3689.189119854834
 30
0.0
 10
12327.82267220363
 20
-3689.138256002399
 30
0.0
 10
12327.81012649755
 20
-3689.111636596131
 30
0.0
 10
12327.78288763676
 20
-3689.056174838718
 30
0.0
 10
12327.76819400027
 20
-3689.027331634891
 30
0.0
 10
12327.74834919797
 20
-3688.990207625151
 30
0.0
 10
12327.74438570854
 20
-3688.982873881561
 30
0.0
 10
12327.73226144364
 20
-3688.960699489999
 30
0.0
 10
12327.7238668892
 20
-3688.945685503472
 30
0.0
 10
12327.71329205224
 20
-3688.92723856853
 30
0.0
 10
12327.71143176724
 20
-3688.924010016122
 30
0.0
 10
12327.70813310717
 20
-3688.918315025447
 30
0.0
 10
12327.70670117502
 20
-3688.915852562472
 30
0.0
 10
12327.70417854266
 20
-3688.911531764521
 30
0.0
 10
12327.70309149406
 20
-3688.909675430713
 30
0.0
 10
12327.70092247339
 20
-3688.90598243911
 30
0.0
 10
12327.69983863617
 20
-3688.904142575145
 30
0.0
 10
12327.69658932052
 20
-3688.898642812348
 30
0.0
 10
12327.69442603884
 20
-3688.895002742974
 30
0.0
 10
12327.68794636664
 20
-3688.884161307355
 30
0.0
 10
12327.68364016067
 20
-3688.877038718346
 30
0.0
 10
12327.67077293777
 20
-3688.855981504551
 30
0.0
 10
12327.66226349626
 20
-3688.84235747762
 30
0.0
 10
12327.63801642424
 20
-3688.80425490225
 30
0.0
 10
12327.62252191932
 20
-3688.780795534622
 30
0.0
 10
12327.5925056709
 20
-3688.736539090474
 30
0.0
 10
12327.57798357539
 20
-3688.715741392476
 30
0.0
 10
12327.55014753027
 20
-3688.676637922848
 30
0.0
 10
12327.53683325537
 20
-3688.65833174002
 30
0.0
 10
12327.51159806409
 20
-3688.62406618391
 30
0.0
 10
12327.49967690756
 20
-3688.608106565823
 30
0.0
 10
12327.47737167428
 20
-3688.57842394003
 30
0.0
 10
12327.46698747336
 20
-3688.564700817233
 30
0.0
 10
12327.4565967326
 20
-3688.550965156365
 30
0.0
 10
12327.45577392606
 20
-3688.549877475063
 30
0.0
 10
12327.45422391523
 20
-3688.547828384165
 30
0.0
 10
12327.4535007828
 20
-3688.54687235796
 30
0.0
 10
12327.45202929346
 20
-3688.544926847618
 30
0.0
 10
12327.45128239943
 20
-3688.54393931486
 30
0.0
 10
12327.44900814039
 20
-3688.540932485922
 30
0.0
 10
12327.44744720274
 20
-3688.538868956658
 30
0.0
 10
12327.44262890866
 20
-3688.532502342765
 30
0.0
 10
12327.43923613965
 20
-3688.528023192294
 30
0.0
 10
12327.42850414758
 20
-3688.513890158155
 30
0.0
 10
12327.42061229736
 20
-3688.503539982654
 30
0.0
 10
12327.40326447302
 20
-3688.481045422653
 30
0.0
 10
12327.39380838827
 20
-3688.468900860856
 30
0.0
 10
12327.37320966774
 20
-3688.442904215251
 30
0.0
 10
12327.36206683181
 20
-3688.429051872399
 30
0.0
 10
12327.33794415281
 20
-3688.399757712988
 30
0.0
 10
12327.32496399039
 20
-3688.384315581626
 30
0.0
 10
12327.29699584532
 20
-3688.351999981902
 30
0.0
 10
12327.28200739422
 20
-3688.335126189527
 30
0.0
 10
12327.26460301935
 20
-3688.316203068538
 30
0.0
 10
12327.26327847295
 20
-3688.314766873297
 30
0.0
 10
12327.26063673932
 20
-3688.311910194965
 30
0.0
 10
12327.25931772215
 20
-3688.310487720946
 30
0.0
 10
12327.25536635528
 20
-3688.306237795516
 30
0.0
 10
12327.25273969091
 20
-3688.303427840861
 30
0.0
 10
12327.24488349847
 20
-3688.295067168341
 30
0.0
 10
12327.23967778191
 20
-3688.28958564307
 30
0.0
 10
12327.22416394904
 20
-3688.273411414795
 30
0.0
 10
12327.21395930847
 20
-3688.262989053693
 30
0.0
 10
12327.18413746539
 20
-3688.23307240003
 30
0.0
 10
12327.16497466356
 20
-3688.21456382964
 30
0.0
 10
12327.12811814575
 20
-3688.179950178849
 30
0.0
 10
12327.11042383672
 20
-3688.163844570308
 30
0.0
 10
12327.07669406819
 20
-3688.133808280534
 30
0.0
 10
12327.0606581023
 20
-3688.119877271415
 30
0.0
 10
12327.03831077528
 20
-3688.100768444086
 30
0.0
 10
12327.03129970102
 20
-3688.094823713172
 30
0.0
 10
12327.02278243225
 20
-3688.087648620868
 30
0.0
 10
12327.0210764337
 20
-3688.08621394389
 30
0.0
 10
12327.01771074556
 20
-3688.083387976737
 30
0.0
 10
12327.01604872763
 20
-3688.081994718791
 30
0.0
 10
12327.0111256441
 20
-3688.07787362467
 30
0.0
 10
12327.00792755817
 20
-3688.075204461124
 30
0.0
 10
12326.9985887993
 20
-3688.067427939692
 30
0.0
 10
12326.99270377042
 20
-3688.062551430053
 30
0.0
 10
12326.97718839637
 20
-3688.049724174465
 30
0.0
 10
12326.96834331481
 20
-3688.04244521248
 30
0.0
 10
12326.95297458666
 20
-3688.029761923738
 30
0.0
 10
12326.94645100115
 20
-3688.024357655188
 30
0.0
 10
12326.9357307675
 20
-3688.01539840458
 30
0.0
 10
12326.93153431662
 20
-3688.011843657042
 30
0.0
 10
12326.92542187908
 20
-3688.006596153505
 30
0.0
 10
12326.92350618436
 20
-3688.004903829863
 30
0.0
 10
12326.9226120063
 20
-3688.004104147565
 30
0.0
 10
12326.92255310835
 20
-3688.004051362372
 30
0.0
 10
12326.92239678533
 20
-3688.003911022491
 30
0.0
 10
12326.92234663501
 20
-3688.003865915852
 30
0.0
 10
12326.92202384936
 20
-3688.00357388081
 30
0.0
 10
12326.92177948926
 20
-3688.003352240873
 30
0.0
 10
12326.92079951305
 20
-3688.002459535217
 30
0.0
 10
12326.91981714521
 20
-3688.001560573449
 30
0.0
 10
12326.91612568301
 20
-3687.998162406937
 30
0.0
 10
12326.91266247794
 20
-3687.99495412199
 30
0.0
 10
12326.90358113963
 20
-3687.986525517057
 30
0.0
 10
12326.89796301854
 20
-3687.981305210771
 30
0.0
 10
12326.88452219918
 20
-3687.968903299576
 30
0.0
 10
12326.87669939211
 20
-3687.961721526187
 30
0.0
 10
12326.8587470056
 20
-3687.945484200685
 30
0.0
 10
12326.84861716727
 20
-3687.936428309541
 30
0.0
 10
12326.82590134862
 20
-3687.916574726591
 30
0.0
 10
12326.81331490261
 20
-3687.905776558691
 30
0.0
 10
12326.78549994896
 20
-3687.882627247072
 30
0.0
 10
12326.77027069647
 20
-3687.870275562499
 30
0.0
 10
12326.73696553194
 20
-3687.844280477472
 30
0.0
 10
12326.7188885347
 20
-3687.830636602862
 30
0.0
 10
12326.69785871962
 20
-3687.81549065686
 30
0.0
 10
12326.69641913694
 20
-3687.814457199239
 30
0.0
 10
12326.69377886084
 20
-3687.812568039583
 30
0.0
 10
12326.69257882502
 20
-3687.81171173024
 30
0.0
 10
12326.69019104529
 20
-3687.810012512986
 30
0.0
 10
12326.68900075984
 20
-3687.809167777322
 30
0.0
 10
12326.68544083029
 20
-3687.806648088021
 30
0.0
 10
12326.68308211372
 20
-3687.804987652132
 30
0.0
 10
12326.6760505533
 20
-3687.800063603077
 30
0.0
 10
12326.67142231064
 20
-3687.79685724866
 30
0.0
 10
12326.65772257645
 20
-3687.7874606999
 30
0.0
 10
12326.64883625312
 20
-3687.781492998362
 30
0.0
 10
12326.62374623649
 20
-3687.76494398407
 30
0.0
 10
12326.60823805842
 20
-3687.755100963752
 30
0.0
 10
12326.57929976467
 20
-3687.737221860492
 30
0.0
 10
12326.56586909389
 20
-3687.729185339762
 30
0.0
 10
12326.54119391968
 20
-3687.714719714996
 30
0.0
 10
12326.52994895643
 20
-3687.708290358591
 30
0.0
 10
12326.50971547531
 20
-3687.69687989392
 30
0.0
 10
12326.50072663187
 20
-3687.691898657897
 30
0.0
 10
12326.48504974622
 20
-3687.68327109193
 30
0.0
 10
12326.47836152726
 20
-3687.679624713029
 30
0.0
 10
12326.46731190134
 20
-3687.673601835252
 30
0.0
 10
12326.46295046938
 20
-3687.671225340805
 30
0.0
 10
12326.45728933496
 20
-3687.668122989631
 30
0.0
 10
12326.4555194146
 20
-3687.667145491545
 30
0.0
 10
12326.45444706937
 20
-3687.666549351519
 30
0.0
  0
SPLINE
  5
52F93
330
52F8A
100
AcDbEntity
  8
Kontur 09
 62
     7
420
 16777215
100
AcDbSpline
210
0.0
220
0.0
230
1.0
 70
     8
 71
     3
 72
    88
 73
    84
 74
     0
 42
0.000000001
 43
0.0000000001
 40
17139.24758142444
 40
17139.24758142444
 40
17139.24758142444
 40
17139.24758142444
 40
17161.03727430932
 40
17161.03727430932
 40
17182.8269671942
 40
17182.8269671942
 40
17204.61666007907
 40
17204.61666007907
 40
17226.40635296395
 40
17226.40635296395
 40
17248.19604584883
 40
17248.19604584883
 40
17269.98573873371
 40
17269.98573873371
 40
17271.45082661945
 40
17271.45082661945
 40
17274.38100239093
 40
17274.38100239093
 40
17280.41049166499
 40
17280.41049166499
 40
17292.46947021312
 40
17292.46947021312
 40
17316.58742730937
 40
17316.58742730937
 40
17340.70538440562
 40
17340.70538440562
 40
17373.98305129392
 40
17373.98305129392
 40
17407.26071818222
 40
17407.26071818222
 40
17440.53838507052
 40
17440.53838507052
 40
17473.81605195881
 40
17473.81605195881
 40
17507.09371884711
 40
17507.09371884711
 40
17515.09252129139
 40
17515.09252129139
 40
17531.09012617995
 40
17531.09012617995
 40
17535.61271042025
 40
17535.61271042025
 40
17538.16633394582
 40
17538.16633394582
 40
17540.71995747139
 40
17540.71995747139
 40
17545.82720452253
 40
17545.82720452253
 40
17556.04169862482
 40
17556.04169862482
 40
17576.47068682939
 40
17576.47068682939
 40
17617.24947389453
 40
17617.24947389453
 40
17658.02826095967
 40
17658.02826095967
 40
17698.8070480248
 40
17698.8070480248
 40
17739.58583508994
 40
17739.58583508994
 40
17780.36462215508
 40
17780.36462215508
 40
17789.37239951742
 40
17789.37239951742
 40
17792.94801078387
 40
17792.94801078387
 40
17796.58652471855
 40
17796.58652471855
 40
17800.22503865323
 40
17800.22503865323
 40
17807.5020665226
 40
17807.5020665226
 40
17822.05612226132
 40
17822.05612226132
 40
17851.16423373878
 40
17851.16423373878
 40
17896.1234870125
 40
17896.1234870125
 40
17941.08274028621
 40
17941.08274028621
 40
17986.04199355993
 40
17986.04199355993
 40
18022.76953330163
 40
18022.76953330163
 40
18022.76953330163
 40
18022.76953330163
 10
12326.45444706937
 20
-3687.666549351519
 30
0.0
 10
12326.45307765847
 20
-3687.665723451845
 30
0.0
 10
12326.45043476373
 20
-3687.664113806155
 30
0.0
 10
12326.44261985533
 20
-3687.65929405956
 30
0.0
 10
12326.43744802091
 20
-3687.656084058891
 30
0.0
 10
12326.4245573546
 20
-3687.648083673622
 30
0.0
 10
12326.41683851724
 20
-3687.64329325607
 30
0.0
 10
12326.39879691373
 20
-3687.632203640954
 30
0.0
 10
12326.38847395083
 20
-3687.625904277029
 30
0.0
 10
12326.36513109761
 20
-3687.611922920217
 30
0.0
 10
12326.35211079178
 20
-3687.604240655993
 30
0.0
 10
12326.32325324601
 20
-3687.587680905512
 30
0.0
 10
12326.30741533326
 20
-3687.578803108055
 30
0.0
 10
12326.28893952775
 20
-3687.568828108166
 30
0.0
 10
12326.28776886008
 20
-3687.568197562431
 30
0.0
 10
12326.28423681118
 20
-3687.56629974672
 30
0.0
 10
12326.2818883168
 20
-3687.565043995317
 30
0.0
 10
12326.27472899648
 20
-3687.56123413249
 30
0.0
 10
12326.26994004116
 20
-3687.558711025764
 30
0.0
 10
12326.25566287443
 20
-3687.551261083716
 30
0.0
 10
12326.24626441559
 20
-3687.54645362868
 30
0.0
 10
12326.21844820154
 20
-3687.532485009967
 30
0.0
 10
12326.20041035767
 20
-3687.523777483431
 30
0.0
 10
12326.16543563999
 20
-3687.507446105914
 30
0.0
 10
12326.14849861466
 20
-3687.499822106488
 30
0.0
 10
12326.10958061297
 20
-3687.482823867301
 30
0.0
 10
12326.08812772797
 20
-3687.473883603412
 30
0.0
 10
12326.04756585026
 20
-3687.457544981285
 30
0.0
 10
12326.02845620897
 20
-3687.450146342646
 30
0.0
 10
12325.99265772544
 20
-3687.43664593337
 30
0.0
 10
12325.97596838714
 20
-3687.430544034429
 30
0.0
 10
12325.94506237741
 20
-3687.419442406945
 30
0.0
 10
12325.93084537874
 20
-3687.414442631904
 30
0.0
 10
12325.90492326885
 20
-3687.405403262028
 30
0.0
 10
12325.89321799914
 20
-3687.4013636556
 30
0.0
 10
12325.88027801071
 20
-3687.396893623587
 30
0.0
 10
12325.8778439547
 20
-3687.396052694059
 30
0.0
 10
12325.87076305368
 20
-3687.393604652541
 30
0.0
 10
12325.86633748214
 20
-3687.392072198387
 30
0.0
 10
12325.86104141816
 20
-3687.390231665744
 30
0.0
 10
12325.85989789806
 20
-3687.389833824828
 30
0.0
 10
12325.85814586714
 20
-3687.389223523773
 30
0.0
 10
12325.85752345337
 20
-3687.389006555171
 30
0.0
 10
12325.85625996416
 20
-3687.388565794331
 30
0.0
 10
12325.85562280007
 20
-3687.388343366463
 30
0.0
 10
12325.85369504449
 20
-3687.387669952664
 30
0.0
 10
12325.85238818989
 20
-3687.387212836092
 30
0.0
 10
12325.84840252808
 20
-3687.38581707739
 30
0.0
 10
12325.84565862602
 20
-3687.384854019221
 30
0.0
 10
12325.8371660623
 20
-3687.381868347202
 30
0.0
 10
12325.83115659653
 20
-3687.379749123494
 30
0.0
 10
12325.81210390564
 20
-3687.373027152577
 30
0.0
 10
12325.79801799736
 20
-3687.368051527987
 30
0.0
 10
12325.76701104524
 20
-3687.357219627145
 30
0.0
 10
12325.75008981966
 20
-3687.351363238731
 30
0.0
 10
12325.71333676821
 20
-3687.338942720311
 30
0.0
 10
12325.69350453386
 20
-3687.332378411966
 30
0.0
 10
12325.65083772109
 20
-3687.318778638194
 30
0.0
 10
12325.62800248042
 20
-3687.311742990363
 30
0.0
 10
12325.57923759052
 20
-3687.297506491024
 30
0.0
 10
12325.55330701241
 20
-3687.290305557836
 30
0.0
 10
12325.51971772295
 20
-3687.281644945918
 30
0.0
 10
12325.51356339693
 20
-3687.28008337763
 30
0.0
 10
12325.50485815771
 20
-3687.277912661553
 30
0.0
 10
12325.50237235764
 20
-3687.277297054672
 30
0.0
 10
12325.49733243806
 20
-3687.276057747426
 30
0.0
 10
12325.49477451641
 20
-3687.27543331085
 30
0.0
 10
12325.48968653074
 20
-3687.274200280167
 30
0.0
 10
12325.48715026792
 20
-3687.273590141823
 30
0.0
 10
12325.4795648072
 20
-3687.271778533238
 30
0.0
 10
12325.47453893883
 20
-3687.270595868805
 30
0.0
 10
12325.45955568505
 20
-3687.267120524766
 30
0.0
 10
12325.44969267736
 20
-3687.264900482503
 30
0.0
 10
12325.42048841841
 20
-3687.258510714316
 30
0.0
 10
12325.40153227514
 20
-3687.254611112527
 30
0.0
 10
12325.35464104604
 20
-3687.245474325795
 30
0.0
 10
12325.32743856945
 20
-3687.24066386381
 30
0.0
 10
12325.27562000056
 20
-3687.232173718691
 30
0.0
 10
12325.2510031884
 20
-3687.228493900725
 30
0.0
 10
12325.20438734587
 20
-3687.22197633106
 30
0.0
 10
12325.18238777622
 20
-3687.219138562556
 30
0.0
 10
12325.14481161009
 20
-3687.214534663925
 30
0.0
 10
12325.128796317
 20
-3687.212667966047
 30
0.0
 10
12325.11366580072
 20
-3687.210954020512
 30
0.0
  0
LINE
  5
52F94
102
{ACAD_REACTORS
330
52FA7
102
}
330
52F8A
100
AcDbEntity
  8
Kontur 18
 62
     7
420
 16777215
100
AcDbLine
 10
12326.09105587862
 20
-3690.363085177382
 30
0.0
 11
12328.17115452765
 21
-3690.488085177382
 31
0.0
  0
LINE
  5
52F95
330
52F8A
100
AcDbEntity
  8
Sicherheitsbereich
 62
     7
420
 16777215
 48
0.001
100
AcDbLine
 10
12326.18103351684
 20
-3688.865786267805
 30
0.0
 11
12328.26113216587
 21
-3688.990786267805
 31
0.0
  0
ARC
  5
52F96
102
{ACAD_REACTORS
330
52FC0
102
}
330
52F8A
100
AcDbEntity
  8
Sicherheitsbereich
 62
     7
420
 16777215
 48
0.001
100
AcDbCircle
 10
12326.09105587862
 20
-3690.363085177382
 30
0.0
 40
1.5
100
AcDbArc
 50
86.56104294669354
 51
180.0
  0
LINE
  5
52F97
330
52F8A
100
AcDbEntity
  8
Kontur 18
 62
     7
420
 16777215
100
AcDbLine
 10
12326.09105587862
 20
-3690.396144708571
 30
0.0
 11
12328.17115452765
 21
-3690.521144708571
 31
0.0
  0
LINE
  5
52F98
102
{ACAD_REACTORS
330
52FAA
102
}
330
52F8A
100
AcDbEntity
  8
Kontur 18
 62
     7
420
 16777215
100
AcDbLine
 10
12328.17115452765
 20
-3690.488085177382
 30
0.0
 11
12328.17115452765
 21
-3690.988085177382
 31
0.0
  0
LINE
  5
52F99
330
52F8A
100
AcDbEntity
  8
Sicherheitsbereich
 62
     7
420
 16777215
 48
0.001
100
AcDbLine
 10
12329.67115452765
 20
-3690.488085177382
 30
0.0
 11
12329.67115452765
 21
-3690.988085177382
 31
0.0
  0
ARC
  5
52F9A
102
{ACAD_REACTORS
330
52FBD
102
}
330
52F8A
100
AcDbEntity
  8
Sicherheitsbereich
 62
     7
420
 16777215
 48
0.001
100
AcDbCircle
 10
12328.17115452765
 20
-3690.488085177382
 30
0.0
 40
1.5
100
AcDbArc
 50
0.0
 51
86.56104294669354
  0
LINE
  5
52F9B
102
{ACAD_REACTORS
330
52FA4
330
52FAA
102
}
330
52F8A
100
AcDbEntity
  8
Kontur 18
 62
     7
420
 16777215
100
AcDbLine
 10
12328.17115452765
 20
-3690.988085177382
 30
0.0
 11
12326.09105587862
 21
-3691.113085177382
 31
0.0
  0
LINE
  5
52F9C
330
52F8A
100
AcDbEntity
  8
Sicherheitsbereich
 62
     7
420
 16777215
 48
0.001
100
AcDbLine
 10
12328.26113216587
 20
-3692.48538408696
 30
0.0
 11
12326.18103351684
 21
-3692.61038408696
 31
0.0
  0
ARC
  5
52F9D
330
52F8A
100
AcDbEntity
  8
Sicherheitsbereich
 62
     7
420
 16777215
 48
0.001
100
AcDbCircle
 10
12328.17115452765
 20
-3690.988085177382
 30
0.0
 40
1.5
100
AcDbArc
 50
273.4389570533064
 51
0.0
  0
LINE
  5
52F9E
330
52F8A
100
AcDbEntity
  8
Kontur 18
 62
     7
420
 16777215
100
AcDbLine
 10
12328.17115452765
 20
-3690.955025646193
 30
0.0
 11
12326.09105587862
 21
-3691.080025646193
 31
0.0
  0
LINE
  5
52F9F
102
{ACAD_REACTORS
330
52FA4
330
52FA7
102
}
330
52F8A
100
AcDbEntity
  8
Kontur 18
 62
     7
420
 16777215
100
AcDbLine
 10
12326.09105587862
 20
-3691.113085177382
 30
0.0
 11
12326.09105587862
 21
-3690.363085177382
 31
0.0
  0
LINE
  5
52FA0
102
{ACAD_REACTORS
330
52FBD
102
}
330
52F8A
100
AcDbEntity
  8
Sicherheitsbereich
 62
     7
420
 16777215
 48
0.001
100
AcDbLine
 10
12324.59105587862
 20
-3691.113085177382
 30
0.0
 11
12324.59105587862
 21
-3690.363085177382
 31
0.0
  0
ARC
  5
52FA1
102
{ACAD_REACTORS
330
52FC0
102
}
330
52F8A
100
AcDbEntity
  8
Sicherheitsbereich
 62
     7
420
 16777215
 48
0.001
100
AcDbCircle
 10
12326.09105587862
 20
-3691.113085177382
 30
0.0
 40
1.5
100
AcDbArc
 50
180.0
 51
273.4389570533064
  0
DIMENSION
  5
52FA2
102
{ACAD_XDICTIONARY
360
52FA3
102
}
102
{ACAD_REACTORS
330
52FA4
102
}
330
52F8A
100
AcDbEntity
  8
Bemaßung
 62
     7
420
 16777215
100
AcDbDimension
280
     0
  2
*D1
 10
12328.17115452765
 20
-3691.368037087261
 30
0.0
 11
12327.13110520313
 21
-3691.284571674232
 31
0.0
  1
~2,00m
 71
     5
 42
0.0020800986490303
 73
     0
 74
     0
 75
     0
  3
100
100
AcDbAlignedDimension
 13
12326.09105587862
 23
-3691.113085177382
 33
0.0
 14
12328.17115452765
 24
-3690.988085177382
 34
0.0
100
AcDbRotatedDimension
1001
ACAD
1000
DSTYLE
1002
{
1070
    40
1040
0.001
1070
   144
1040
0.001
1002
}
  0
DIMENSION
  5
52FA5
102
{ACAD_XDICTIONARY
360
52FA6
102
}
102
{ACAD_REACTORS
330
52FA7
102
}
330
52F8A
100
AcDbEntity
  8
Bemaßung
 62
     7
420
 16777215
100
AcDbDimension
280
     0
  2
*D2
 10
12325.85563387008
 20
-3691.113085177382
 30
0.0
 11
12325.78459290298
 21
-3690.73808517738
 31
0.0
  1
75
 71
     5
 42
0.00075
 73
     0
 74
     0
 75
     0
  3
100
100
AcDbAlignedDimension
 13
12326.09105587862
 23
-3690.363085177382
 33
0.0
 14
12326.09105587862
 24
-3691.113085177382
 34
0.0
 50
90.0
100
AcDbRotatedDimension
1001
ACAD
1000
DSTYLE
1002
{
1070
    40
1040
0.001
1070
   144
1040
0.001
1002
}
  0
DIMENSION
  5
52FA8
102
{ACAD_XDICTIONARY
360
52FA9
102
}
102
{ACAD_REACTORS
330
52FAA
102
}
330
52F8A
100
AcDbEntity
  8
Bemaßung
 62
     7
420
 16777215
100
AcDbDimension
280
     0
  2
*D3
 10
12328.39068746819
 20
-3690.988085177382
 30
0.0
 11
12328.31863911359
 21
-3690.73808517738
 31
0.0
  1
50
 71
     5
 42
0.0005
 73
     0
 74
     0
 75
     0
  3
100
100
AcDbAlignedDimension
 13
12328.17115452765
 23
-3690.488085177382
 33
0.0
 14
12328.17115452765
 24
-3690.988085177382
 34
0.0
 50
90.0
100
AcDbRotatedDimension
1001
ACAD
1000
DSTYLE
1002
{
1070
    40
1040
0.001
1070
   144
1040
0.001
1002
}
  0
LINE
  5
52FAB
330
52F8A
100
AcDbEntity
  8
dünne Linie
 62
     7
420
 16777215
100
AcDbLine
 10
12327.04704699859
 20
-3690.198852547536
 30
0.0
 11
12328.1390058214
 21
-3690.097550170007
 31
0.0
  0
LINE
  5
52FAC
330
52F8A
100
AcDbEntity
  8
dünne Linie
 62
     7
420
 16777215
100
AcDbLine
 10
12326.78368257787
 20
-3689.546320539867
 30
0.0
 11
12327.72191828564
 21
-3689.151511275509
 31
0.0
  0
LINE
  5
52FAD
330
52F8A
100
AcDbEntity
  8
dünne Linie
 62
     7
420
 16777215
100
AcDbLine
 10
12326.36848889002
 20
-3689.023041947937
 30
0.0
 11
12326.66781920379
 21
-3688.754461575621
 31
0.0
  0
LINE
  5
52FAE
330
52F8A
100
AcDbEntity
  8
dünne Linie
 62
     7
420
 16777215
100
AcDbLine
 10
12326.95719896047
 20
-3688.494809548371
 30
0.0
 11
12327.03223281969
 21
-3688.427483851917
 31
0.0
  0
LINE
  5
52FAF
330
52F8A
100
AcDbEntity
  8
dünne Linie
 62
     7
420
 16777215
100
AcDbLine
 10
12326.78368257787
 20
-3691.929849814898
 30
0.0
 11
12327.72191828564
 21
-3692.324659079256
 31
0.0
  0
LINE
  5
52FB0
330
52F8A
100
AcDbEntity
  8
dünne Linie
 62
     7
420
 16777215
100
AcDbLine
 10
12326.36848889002
 20
-3692.453128406827
 30
0.0
 11
12327.03223281969
 21
-3693.048686502847
 31
0.0
  0
LINE
  5
52FB1
330
52F8A
100
AcDbEntity
  8
dünne Linie
 62
     7
420
 16777215
100
AcDbLine
 10
12326.63779093272
 20
-3693.402556598816
 30
0.0
 11
12326.34498537208
 21
-3693.071549235071
 31
0.0
  0
LINE
  5
52FB2
330
52F8A
100
AcDbEntity
  8
dünne Linie
 62
     7
420
 16777215
100
AcDbLine
 10
12327.37220505617
 20
-3692.706961397415
 30
0.0
 11
12327.01946022672
 21
-3692.474203857268
 31
0.0
  0
LINE
  5
52FB3
330
52F8A
100
AcDbEntity
  8
dünne Linie
 62
     7
420
 16777215
100
AcDbLine
 10
12327.90791863215
 20
-3691.883878612968
 30
0.0
 11
12327.45902424882
 21
-3691.741269421117
 31
0.0
  0
LINE
  5
52FB4
330
52F8A
100
AcDbEntity
  8
dünne Linie
 62
     7
420
 16777215
100
AcDbLine
 10
12327.98077536002
 20
-3689.632127711881
 30
0.0
 11
12327.52304496587
 21
-3689.766426534799
 31
0.0
  0
LINE
  5
52FB5
330
52F8A
100
AcDbEntity
  8
dünne Linie
 62
     7
420
 16777215
100
AcDbLine
 10
12327.31377756557
 20
-3688.791770932307
 30
0.0
 11
12326.98375964048
 21
-3689.025238727895
 31
0.0
  0
LINE
  5
52FB6
330
52F8A
100
AcDbEntity
  8
dünne Linie
 62
     7
420
 16777215
100
AcDbLine
 10
12326.609304842
 20
-3688.187236306458
 30
0.0
 11
12326.39923160868
 21
-3688.43917270897
 31
0.0
  0
MTEXT
  5
52FB7
330
52F8A
100
AcDbEntity
  8
Text
 62
     7
420
 16777215
100
AcDbMText
 10
12327.07684248324
 20
-3690.692544531122
 30
0.0
 40
0.1
 41
0.0
 46
0.0
 71
     1
 72
     5
  1
Gleitfläche
 73
     1
 44
1.0
  0
LINE
  5
52FB8
330
52F8A
100
AcDbEntity
  8
dünne Linie
 62
     7
420
 16777215
100
AcDbLine
 10
12326.81009058963
 20
-3690.745213839958
 30
0.0
 11
12326.27727016895
 21
-3690.745213839958
 31
0.0
  0
LINE
  5
52FB9
330
52F8A
100
AcDbEntity
  8
dünne Linie
 62
     7
420
 16777215
100
AcDbLine
 10
12326.27727016895
 20
-3690.745213839958
 30
0.0
 11
12326.36647458893
 21
-3690.711756962286
 31
0.0
  0
LINE
  5
52FBA
330
52F8A
100
AcDbEntity
  8
dünne Linie
 62
     7
420
 16777215
100
AcDbLine
 10
12326.27727016895
 20
-3690.745213839958
 30
0.0
 11
12326.36647458893
 21
-3690.77867071763
 31
0.0
  0
DIMENSION
  5
52FBB
102
{ACAD_XDICTIONARY
360
52FBC
102
}
102
{ACAD_REACTORS
330
52FBD
102
}
330
52F8A
100
AcDbEntity
  8
Bemaßung
 62
     7
420
 16777215
100
AcDbDimension
280
     0
  2
*D4
 10
12329.67115452765
 20
-3688.683875345079
 30
0.0
 11
12327.13110520313
 21
-3688.59920106704
 31
0.0
  1
Sicherheitsbereich min. 5,10m
 71
     5
 42
0.0050800986490303
 73
     0
 74
     0
 75
     0
  3
100
100
AcDbAlignedDimension
 13
12324.59105587862
 23
-3690.363085177382
 33
0.0
 14
12329.67115452765
 24
-3690.488085177382
 34
0.0
100
AcDbRotatedDimension
1001
ACAD
1000
DSTYLE
1002
{
1070
    40
1040
0.001
1070
   144
1040
0.001
1002
}
  0
DIMENSION
  5
52FBE
102
{ACAD_XDICTIONARY
360
52FBF
102
}
102
{ACAD_REACTORS
330
52FC0
102
}
330
52F8A
100
AcDbEntity
  8
Bemaßung
 62
     7
420
 16777215
100
AcDbDimension
280
     0
  2
*D5
 10
12324.25081821834
 20
-3692.613054645225
 30
0.0
 11
12324.1661439403
 21
-3690.738104259715
 31
0.0
  1
Sicherheitsbereich min. 3,80m
 71
     5
 42
0.0037499007710153
 73
     0
 74
     0
 75
     0
  3
100
100
AcDbAlignedDimension
 13
12326.07670019108
 23
-3688.86315387421
 33
0.0
 14
12326.10062643438
 24
-3692.613054645225
 34
0.0
 50
90.0
100
AcDbRotatedDimension
1001
ACAD
1000
DSTYLE
1002
{
1070
    40
1040
0.001
1070
   144
1040
0.001
1002
}
  0
MTEXT
  5
52FC1
330
52F8A
100
AcDbEntity
  8
Text
 62
     7
420
 16777215
100
AcDbMText
 10
12328.70968222495
 20
-3690.706722408831
 30
0.0
 40
0.1
 41
0.0
 46
0.0
 71
     1
 72
     5
  1
+0,50m
 73
     1
 44
1.0
  0
MTEXT
  5
52FC2
330
52F8A
100
AcDbEntity
  8
Text
 62
     7
420
 16777215
100
AcDbMText
 10
12324.92660878881
 20
-3690.688139567508
 30
0.0
 40
0.1
 41
0.0
 46
0.0
 71
     1
 72
     5
  1
±0,00
 73
     1
 44
1.0
  0
MTEXT
  5
52FC3
330
52F8A
100
AcDbEntity
  8
Text
 62
     7
420
 16777215
100
AcDbMText
 10
12325.03835816121
 20
-3689.587233416085
 30
0.0
 40
0.1
 41
1631.174986425158
 46
0.0
 71
     1
 72
     5
  1
Sicherheitsbereich \Pmit Anforderung an \Pden Fallschutz
 73
     1
 44
1.0
  0
ENDBLK
  5
52F8C
330
52F8A
100
AcDbEntity
  8
0
100
AcDbBlockEnd
  0
BLOCK
  5
5304F
330
5304E
100
AcDbEntity
  8
0
100
AcDbBlockBegin
  2
*D7
 70
     1
 10
0.0
 20
0.0
 30
0.0
  3
*D7
  1

  0
LINE
  5
5316C
330
5304E
100
AcDbEntity
  8
Bemaßung
 62
     0
440
 16777216
370
    -2
100
AcDbLine
 10
12326.98824943259
 20
-3685.422546792982
 30
0.0
 11
12325.64750576402
 21
-3685.422546792982
 31
0.0
  0
LINE
  5
5316D
330
5304E
100
AcDbEntity
  8
Bemaßung
 62
     0
440
 16777216
370
    -2
100
AcDbLine
 10
12325.96998887386
 20
-3686.012278822574
 30
0.0
 11
12325.64750576402
 21
-3686.012278822574
 31
0.0
  0
LINE
  5
5316E
330
5304E
100
AcDbEntity
  8
Bemaßung
 62
     0
440
 16777216
370
    -2
100
AcDbLine
 10
12325.66750576402
 20
-3685.522546792982
 30
0.0
 11
12325.66750576402
 21
-3685.912278822574
 31
0.0
  0
SOLID
  5
5316F
330
5304E
100
AcDbEntity
  8
Bemaßung
 62
     0
440
 16777216
100
AcDbTrace
 10
12325.65083909735
 20
-3685.522546792982
 30
0.0
 11
12325.68417243068
 21
-3685.522546792982
 31
0.0
 12
12325.66750576402
 22
-3685.422546792982
 32
0.0
 13
12325.66750576402
 23
-3685.422546792982
 33
0.0
  0
SOLID
  5
53170
330
5304E
100
AcDbEntity
  8
Bemaßung
 62
     0
440
 16777216
100
AcDbTrace
 10
12325.65083909735
 20
-3685.912278822574
 30
0.0
 11
12325.68417243068
 21
-3685.912278822574
 31
0.0
 12
12325.66750576402
 22
-3686.012278822574
 32
0.0
 13
12325.66750576402
 23
-3686.012278822574
 33
0.0
  0
MTEXT
  5
53171
330
5304E
100
AcDbEntity
  8
Bemaßung
 62
     0
440
 16777216
100
AcDbMText
 10
12325.59545740942
 20
-3685.717412807776
 30
0.0
 40
0.1
 41
0.0
 46
0.0
 71
     5
 72
     1
  1
~59
 11
0.0000000000000001
 21
1.0
 31
0.0
 73
     1
 44
1.0
  0
POINT
  5
53172
330
5304E
100
AcDbEntity
  8
Defpoints
 62
     0
440
 16777216
100
AcDbPoint
 10
12327.01824943259
 20
-3685.422546792982
 30
0.0
  0
POINT
  5
53173
330
5304E
100
AcDbEntity
  8
Defpoints
 62
     0
440
 16777216
100
AcDbPoint
 10
12325.99998887386
 20
-3686.012278822574
 30
0.0
  0
POINT
  5
53174
330
5304E
100
AcDbEntity
  8
Defpoints
 62
     0
440
 16777216
100
AcDbPoint
 10
12325.66750576402
 20
-3686.012278822574
 30
0.0
  0
ENDBLK
  5
53050
330
5304E
100
AcDbEntity
  8
0
100
AcDbBlockEnd
  0
BLOCK
  5
5305B
330
5305A
100
AcDbEntity
  8
0
100
AcDbBlockBegin
  2
*D8
 70
     1
 10
0.0
 20
0.0
 30
0.0
  3
*D8
  1

  0
LINE
  5
53163
330
5305A
100
AcDbEntity
  8
Bemaßung
 62
     0
440
 16777216
370
    -2
100
AcDbLine
 10
12327.60596583457
 20
-3685.541598127964
 30
0.0
 11
12325.83346663143
 21
-3685.541598127964
 31
0.0
  0
LINE
  5
53164
330
5305A
100
AcDbEntity
  8
Bemaßung
 62
     0
440
 16777216
370
    -2
100
AcDbLine
 10
12325.96998887478
 20
-3686.012278821799
 30
0.0
 11
12325.83346663143
 21
-3686.012278821799
 31
0.0
  0
LINE
  5
53165
330
5305A
100
AcDbEntity
  8
Bemaßung
 62
     0
440
 16777216
370
    -2
100
AcDbLine
 10
12325.85346663144
 20
-3685.641598127965
 30
0.0
 11
12325.85346663144
 21
-3685.912278821799
 31
0.0
  0
SOLID
  5
53166
330
5305A
100
AcDbEntity
  8
Bemaßung
 62
     0
440
 16777216
100
AcDbTrace
 10
12325.83679996477
 20
-3685.641598127965
 30
0.0
 11
12325.8701332981
 21
-3685.641598127965
 31
0.0
 12
12325.85346663144
 22
-3685.541598127964
 32
0.0
 13
12325.85346663144
 23
-3685.541598127964
 33
0.0
  0
SOLID
  5
53167
330
5305A
100
AcDbEntity
  8
Bemaßung
 62
     0
440
 16777216
100
AcDbTrace
 10
12325.83679996477
 20
-3685.912278821799
 30
0.0
 11
12325.8701332981
 21
-3685.912278821799
 31
0.0
 12
12325.85346663144
 22
-3686.012278821799
 32
0.0
 13
12325.85346663144
 23
-3686.012278821799
 33
0.0
  0
MTEXT
  5
53168
330
5305A
100
AcDbEntity
  8
Bemaßung
 62
     0
440
 16777216
100
AcDbMText
 10
12325.78141827683
 20
-3685.77693847488
 30
0.0
 40
0.1
 41
0.0
 46
0.0
 71
     5
 72
     1
  1
~50
 11
0.0000000000000001
 21
1.0
 31
0.0
 73
     1
 44
1.0
  0
POINT
  5
53169
330
5305A
100
AcDbEntity
  8
Defpoints
 62
     0
440
 16777216
100
AcDbPoint
 10
12327.63596583457
 20
-3685.541598127964
 30
0.0
  0
POINT
  5
5316A
330
5305A
100
AcDbEntity
  8
Defpoints
 62
     0
440
 16777216
100
AcDbPoint
 10
12325.99998887478
 20
-3686.012278821799
 30
0.0
  0
POINT
  5
5316B
330
5305A
100
AcDbEntity
  8
Defpoints
 62
     0
440
 16777216
100
AcDbPoint
 10
12325.85346663144
 20
-3686.012278821799
 30
0.0
  0
ENDBLK
  5
5305C
330
5305A
100
AcDbEntity
  8
0
100
AcDbBlockEnd
  0
BLOCK
  5
53176
330
53175
100
AcDbEntity
  8
0
100
AcDbBlockBegin
  2
03 1003E RutschbogenAnsicht
 70
     0
 10
0.0
 20
0.0
 30
0.0
  3
03 1003E RutschbogenAnsicht
  1

  0
LINE
  5
53178
330
53175
100
AcDbEntity
  8
Kontur 09
 62
     7
100
AcDbLine
 10
1.667919011346384
 20
0.0383786756242444
 30
0.0
 11
-0.0217973271501251
 21
-0.0005015546571485
 31
0.0
  0
SPLINE
  5
53179
330
53175
100
AcDbEntity
  8
Kontur 09
 62
     7
100
AcDbSpline
210
0.0
220
0.0
230
1.0
 70
     8
 71
     3
 72
    19
 73
    15
 74
     0
 42
0.000000001
 43
0.0000000001
 40
0.0
 40
0.0
 40
0.0
 40
0.0
 40
166.184286844891
 40
346.6230399583707
 40
473.9112096006987
 40
639.3530689439733
 40
816.470556817855
 40
937.8048555260839
 40
1020.034408827378
 40
1096.874497410311
 40
1161.594215230937
 40
1210.876599923864
 40
1260.442651807487
 40
1261.272805569248
 40
1261.272805569248
 40
1261.272805569248
 40
1261.272805569248
 10
-0.0209280087419757
 20
-0.0004815517140742
 30
0.0
 10
-0.0761484004960948
 20
-0.0052959212112
 30
0.0
 10
-0.1913257161158981
 20
-0.0153376130119796
 30
0.0
 10
-0.3465410169246752
 20
-0.0460471007290835
 30
0.0
 10
-0.4995102296416008
 20
-0.084948324002653
 30
0.0
 10
-0.646474356750332
 20
-0.1399536793146581
 30
0.0
 10
-0.7868044461847603
 20
-0.2052912329313585
 30
0.0
 10
-0.8969945392036606
 20
-0.2685166605197082
 30
0.0
 10
-0.9748087505522562
 20
-0.3203084823348945
 30
0.0
 10
-1.036790611535252
 20
-0.3618626265642888
 30
0.0
 10
-1.086049377981908
 20
-0.4023821830742236
 30
0.0
 10
-1.127137100198524
 20
-0.4377460546461407
 30
0.0
 10
-1.155010403575943
 20
-0.4573377608899137
 30
0.0
 10
-1.165499969034499
 20
-0.4701637724019747
 30
0.0
 10
-1.165671797147297
 20
-0.4703758283271782
 30
0.0
  0
LINE
  5
5317A
102
{ACAD_REACTORS
330
53184
102
}
330
53175
100
AcDbEntity
  8
Kontur 09
 62
     7
100
AcDbLine
 10
-1.165671797147297
 20
-0.4703758283271782
 30
0.0
 11
-4.525993028890297
 21
-0.4703758283271782
 31
0.0
  0
ARC
  5
5317B
102
{ACAD_REACTORS
330
53184
330
53181
102
}
330
53175
100
AcDbEntity
  8
Kontur 18
 62
     7
100
AcDbCircle
 10
-0.4670580419769977
 20
-2.380375828327487
 30
0.0
 40
2.5
100
AcDbArc
 50
85.53694006324297
 51
130.181890576266
  0
ARC
  5
5317C
330
53175
100
AcDbEntity
  8
Kontur 18
 62
     7
100
AcDbCircle
 10
-0.4670580419769977
 20
-2.380375828327487
 30
0.0
 40
2.467
100
AcDbArc
 50
85.54202516193788
 51
129.265658661303
  0
ARC
  5
5317D
330
53175
100
AcDbEntity
  8
Kontur 18
 62
     7
100
AcDbCircle
 10
-0.3179467235004267
 20
-0.3858884307874177
 30
0.0
 40
0.5
100
AcDbArc
 50
50.51371866255364
 51
84.7869695328227
  0
ARC
  5
5317E
330
53175
100
AcDbEntity
  8
Kontur 18
 62
     7
100
AcDbCircle
 10
-0.3179467235004267
 20
-0.3858884307874177
 30
0.0
 40
0.467
100
AcDbArc
 50
55.05792060920003
 51
84.76083549292271
  0
DIMENSION
  5
5317F
102
{ACAD_XDICTIONARY
360
53180
102
}
102
{ACAD_REACTORS
330
53181
102
}
330
53175
100
AcDbEntity
  8
Bemaßung
 62
     7
100
AcDbDimension
280
     0
  2
*D7
 10
-2.412581759788736
 20
-0.4703758291016129
 30
0.0
 11
-2.484630114389801
 21
-0.1755098143039504
 31
0.0
 12
-12328.08008752381
 22
3685.541902993473
 32
0.0
  1
~59
 71
     5
 42
0.5897320295912323
 73
     0
 74
     0
 75
     0
  3
100
100
AcDbAlignedDimension
 13
-1.061838091218305
 23
0.1193562004896194
 33
0.0
 14
-2.080098649945284
 24
-0.4703758291016129
 34
0.0
 50
90.0
100
AcDbRotatedDimension
1001
ACAD
1000
DSTYLE
1002
{
1070
    40
1040
0.001
1002
}
  0
DIMENSION
  5
53182
102
{ACAD_XDICTIONARY
360
53183
102
}
102
{ACAD_REACTORS
330
53184
102
}
330
53175
100
AcDbEntity
  8
Bemaßung
 62
     7
100
AcDbDimension
280
     0
  2
*D8
 10
-2.226620892372011
 20
-0.4703758283271782
 30
0.0
 11
-2.298669246973076
 21
-0.2350354814079765
 31
0.0
 12
-12328.08008752381
 22
3685.541902993473
 32
0.0
  1
~50
 71
     5
 42
0.4706806938347654
 73
     0
 74
     0
 75
     0
  3
100
100
AcDbAlignedDimension
 13
-0.4441216892373632
 23
0.0003048655075872
 33
0.0
 14
-2.080098649030333
 24
-0.4703758283271782
 34
0.0
 50
90.0
100
AcDbRotatedDimension
1001
ACAD
1000
DSTYLE
1002
{
1070
    40
1040
0.001
1002
}
  0
MTEXT
  5
53185
330
53175
100
AcDbEntity
  8
Text
 62
     7
100
AcDbMText
 10
-3.954804585828242
 20
-0.343811472253492
 30
0.0
 40
0.1
 41
0.6607044996642042
 46
0.0
 71
     1
 72
     5
  1
OKE ±0,00
 73
     1
 44
1.0
  0
MTEXT
  5
53186
330
53175
100
AcDbEntity
  8
Text
 62
     7
100
AcDbMText
 10
0.0518298790757399
 20
0.1492409929746827
 30
0.0
 40
0.1
 41
0.474875083948959
 46
0.0
 71
     1
 72
     5
  1
+0,50m
 73
     1
 44
1.0
  0
MTEXT
  5
53187
330
53175
100
AcDbEntity
  8
Text
 62
     7
100
AcDbMText
 10
0.84152140569131
 20
-0.1973134679851682
 30
0.0
 40
0.1
 41
0.4389449294828745
 46
0.0
 71
     1
 72
     5
  1
{\LAnsicht}
 73
     1
 44
1.0
  0
ENDBLK
  5
53177
330
53175
100
AcDbEntity
  8
0
100
AcDbBlockEnd
  0
ENDSEC
  0
SECTION
  2
ENTITIES
  0
INSERT
  5
5199B
330
23
100
AcDbEntity
  8
Kontur 18
100
AcDbBlockReference
  2
Eigentum
 10
12321.81515343782
 20
-3697.842699264475
 30
0.0
 41
0.08
 42
0.08
 43
0.08
  0
INSERT
  5
52FC4
330
23
100
AcDbEntity
  8
Kontur 18
100
AcDbBlockReference
  2
03 1003E Rutschbogen
 10
0.0
 20
0.0
 30
0.0
  0
INSERT
  5
53188
330
23
100
AcDbEntity
  8
Kontur 18
100
AcDbBlockReference
  2
03 1003E RutschbogenAnsicht
 10
12328.17115452741
 20
-3686.079193442949
 30
0.0
  0
VIEWPORT
  5
31D0B
102
{ACAD_XDICTIONARY
360
31D0C
102
}
330
31D04
100
AcDbEntity
 67
     1
  8
0
100
AcDbViewport
 10
483.2824524011709
 20
302.1642940576071
 30
0.0
 40
1593.145427720032
 41
638.5955439549341
 68
     1
 69
     1
 12
483.2824524011709
 22
302.1642940576071
 13
0.0
 23
0.0
 14
10.0
 24
10.0
 15
10.0
 25
10.0
 16
0.0
 26
0.0
 36
1.0
 17
0.0
 27
0.0
 37
0.0
 42
50.0
 43
0.0
 44
0.0
 45
638.5955439549341
 50
0.0
 51
0.0
 72
  1000
 90
   557088
  1

281
     0
 71
     1
 74
     0
110
0.0
120
0.0
130
0.0
111
1.0
121
0.0
131
0.0
112
0.0
122
1.0
132
0.0
 79
     0
146
0.0
170
     0
 61
     5
348
1D98
292
     1
282
     1
141
0.0
142
0.0
 63
   250
421
  3355443
  0
VIEWPORT
  5
31D0F
102
{ACAD_XDICTIONARY
360
31D10
102
}
330
31D04
100
AcDbEntity
 67
     1
  8
Bemaßung
100
AcDbViewport
 10
416.7762314517069
 20
293.3561253583834
 30
0.0
 40
832.0298757025367
 41
585.200334932296
 68
     2
 69
     2
 12
0.6081051326059708
 22
11.61366432708467
 13
0.0
 23
0.0
 14
10.0
 24
10.0
 15
10.0
 25
10.0
 16
0.0
 26
0.0
 36
121.097421126282
 17
-394.7731158432434
 27
-119.1469778502139
 37
0.0
 42
50.0
 43
0.0
 44
0.0
 45
58.52003427387774
 50
0.0
 51
0.0
 72
  1000
 90
   819296
  1

281
     0
 71
     1
 74
     0
110
0.0
120
0.0
130
0.0
111
1.0
121
0.0
131
0.0
112
0.0
122
1.0
132
0.0
 79
     0
146
0.0
170
     0
 61
     5
348
1D98
292
     1
282
     1
141
0.0
142
0.0
 63
   250
421
  3355443
  0
ENDSEC
  0
SECTION
  2
OBJECTS
  0
DICTIONARY
  5
C
330
0
100
AcDbDictionary
281
     1
  3
ACAD_BACKGROUND
350
A3CD
  3
ACAD_CIP_PREVIOUS_PRODUCT_INFO
350
31BFC
  3
ACAD_COLOR
350
1C
  3
ACAD_DETAILVIEWSTYLE
350
31BF3
  3
ACAD_GROUP
350
D
  3
ACAD_IMAGE_DICT
350
6518
  3
ACAD_IMAGE_VARS
350
651A
  3
ACAD_LAYOUT
350
1A
  3
ACAD_MATERIAL
350
1B
  3
ACAD_MLEADERSTYLE
350
252D
  3
ACAD_MLINESTYLE
350
17
  3
ACAD_PDFDEFINITIONS
350
22688
  3
ACAD_PLOTSETTINGS
350
19
  3
ACAD_PLOTSTYLENAME
350
E
  3
ACAD_SCALELIST
350
250B
  3
ACAD_SECTIONVIEWSTYLE
350
31BF1
  3
ACAD_TABLESTYLE
350
1D
  3
ACAD_VISUALSTYLE
350
1D92
  3
ACAD_WIPEOUT_VARS
350
10CEB
  3
AcadDim
350
1AFF
  3
ACDB_RECOMPOSE_DATA
350
531B3
  3
AcDbVariableDictionary
350
4C
  3
AcDsDecomposeData
350
531B9
  3
AEC_PROPERTY_SET_DEFS
350
5E76
  0
DICTIONARY
  5
592E
330
8
100
AcDbDictionary
280
     1
281
     1
  0
DICTIONARY
  5
48
330
2
100
AcDbDictionary
280
     1
281
     1
  3
ACAD_LAYERFILTERS
360
5B6B
  3
ACAD_LAYERSTATES
360
67
  3
ACLYDICTIONARY
360
5B6A
  0
DICTIONARY
  5
253B
330
10
100
AcDbDictionary
280
     1
281
     1
  3
ADSK_XREC_LAYER_RECONCILED
360
253C
  0
DICTIONARY
  5
2549
330
3F
100
AcDbDictionary
280
     1
281
     1
  3
ADSK_XREC_LAYER_RECONCILED
360
254A
  0
DICTIONARY
  5
32AF4
330
32AF3
100
AcDbDictionary
280
     1
281
     1
  0
DICTIONARY
  5
517C9
330
517C8
100
AcDbDictionary
280
     1
281
     1
  0
DICTIONARY
  5
51FEC
330
51FEB
100
AcDbDictionary
280
     1
281
     1
  0
DICTIONARY
  5
1FDD
330
23
100
AcDbDictionary
280
     1
281
     1
  3
ACAD_SORTENTS
360
1FDE
  0
DICTIONARY
  5
51991
330
5198F
100
AcDbDictionary
280
     1
281
     1
  3
ACAD_SORTENTS
360
51992
  0
DICTIONARY
  5
52FA3
330
52FA2
100
AcDbDictionary
280
     1
281
     1
  3
ACAD_DIMASSOC
360
52FA4
  0
DICTIONARY
  5
52FA6
330
52FA5
100
AcDbDictionary
280
     1
281
     1
  3
ACAD_DIMASSOC
360
52FA7
  0
DICTIONARY
  5
52FA9
330
52FA8
100
AcDbDictionary
280
     1
281
     1
  3
ACAD_DIMASSOC
360
52FAA
  0
DICTIONARY
  5
52FBC
330
52FBB
100
AcDbDictionary
280
     1
281
     1
  3
ACAD_DIMASSOC
360
52FBD
  0
DICTIONARY
  5
52FBF
330
52FBE
100
AcDbDictionary
280
     1
281
     1
  3
ACAD_DIMASSOC
360
52FC0
  0
DICTIONARY
  5
53180
330
5317F
100
AcDbDictionary
280
     1
281
     1
  3
ACAD_DIMASSOC
360
53181
  0
DICTIONARY
  5
53183
330
53182
100
AcDbDictionary
280
     1
281
     1
  3
ACAD_DIMASSOC
360
53184
  0
DICTIONARY
  5
31D0C
330
31D0B
100
AcDbDictionary
280
     1
281
     1
  3
ASDK_XREC_ANNOTATION_SCALE_INFO
360
31D0D
  0
DICTIONARY
  5
31D10
330
31D0F
100
AcDbDictionary
280
     1
281
     1
  3
ASDK_XREC_ANNOTATION_SCALE_INFO
360
31D11
  0
DICTIONARY
  5
A3CD
102
{ACAD_REACTORS
330
C
102
}
330
C
100
AcDbDictionary
281
     1
  0
XRECORD
  5
31BFC
102
{ACAD_REACTORS
330
C
102
}
330
C
100
AcDbXrecord
280
     1
300
ACDLT
300
2015
300
ACDLT_F_S
  0
DICTIONARY
  5
1C
102
{ACAD_REACTORS
330
C
102
}
330
C
100
AcDbDictionary
281
     1
  0
DICTIONARY
  5
31BF3
102
{ACAD_REACTORS
330
C
102
}
330
C
100
AcDbDictionary
281
     1
  3
Metric50
350
31BF4
  0
DICTIONARY
  5
D
102
{ACAD_REACTORS
330
C
102
}
330
C
100
AcDbDictionary
281
     1
  0
DICTIONARY
  5
6518
102
{ACAD_REACTORS
330
C
102
}
330
C
100
AcDbDictionary
281
     1
  0
RASTERVARIABLES
  5
651A
102
{ACAD_REACTORS
330
C
102
}
330
C
100
AcDbRasterVariables
 90
        0
 70
     3
 71
     1
 72
     1
  0
DICTIONARY
  5
1A
102
{ACAD_REACTORS
330
C
102
}
330
C
100
AcDbDictionary
281
     1
  3
Layout1
350
31D05
  3
Model
350
26
  0
DICTIONARY
  5
1B
102
{ACAD_REACTORS
330
C
102
}
330
C
100
AcDbDictionary
281
     1
  3
ByBlock
350
1D90
  3
ByLayer
350
1D8F
  3
Global
350
1D91
  0
DICTIONARY
  5
252D
102
{ACAD_REACTORS
330
C
102
}
330
C
100
AcDbDictionary
281
     1
  3
Standard
350
252E
  0
DICTIONARY
  5
17
102
{ACAD_REACTORS
330
C
102
}
330
C
100
AcDbDictionary
281
     1
  3
Standard
350
18
  0
DICTIONARY
  5
22688
102
{ACAD_REACTORS
330
C
102
}
330
C
100
AcDbDictionary
281
     1
  0
DICTIONARY
  5
19
102
{ACAD_REACTORS
330
C
102
}
330
C
100
AcDbDictionary
281
     1
  0
ACDBDICTIONARYWDFLT
  5
E
102
{ACAD_REACTORS
330
C
102
}
330
C
100
AcDbDictionary
281
     1
  3
Normal
350
F
100
AcDbDictionaryWithDefault
340
F
  0
DICTIONARY
  5
250B
102
{ACAD_REACTORS
330
C
102
}
330
C
100
AcDbDictionary
281
     1
  3
A0
350
250C
  0
DICTIONARY
  5
31BF1
102
{ACAD_REACTORS
330
C
102
}
330
C
100
AcDbDictionary
281
     1
  3
Metric50
350
31BF2
  0
DICTIONARY
  5
1D
102
{ACAD_REACTORS
330
C
102
}
330
C
100
AcDbDictionary
281
     1
  3
Standard
350
1E
  0
DICTIONARY
  5
1D92
102
{ACAD_REACTORS
330
C
102
}
330
C
100
AcDbDictionary
281
     1
  3
2dWireframe
350
1D98
  3
3D Hidden
350
1D9A
  3
3dWireframe
350
1D99
  3
Basic
350
1D97
  3
Brighten
350
1D9E
  3
ColorChange
350
1DA2
  3
Conceptual
350
1D9B
  3
Dim
350
1D9D
  3
EdgeColorOff
350
58CB
  3
Facepattern
350
1DA1
  3
Flat
350
1D93
  3
FlatWithEdges
350
1D94
  3
Gouraud
350
1D95
  3
GouraudWithEdges
350
1D96
  3
Hidden
350
A3B8
  3
JitterOff
350
58C9
  3
Linepattern
350
1DA0
  3
OverhangOff
350
58CA
  3
Realistic
350
1D9C
  3
Shaded
350
A3BD
  3
Shaded with edges
350
A3BC
  3
Shades of Gray
350
A3B9
  3
Sketchy
350
A3BA
  3
Thicken
350
1D9F
  3
Wireframe
350
A3B7
  3
X-Ray
350
A3BB
  0
WIPEOUTVARIABLES
  5
10CEB
102
{ACAD_REACTORS
330
C
102
}
330
C
100
AcDbWipeoutVariables
 70
     1
  0
XRECORD
  5
1AFF
102
{ACAD_REACTORS
330
C
102
}
330
C
100
AcDbXrecord
280
     1
 90
   990106
  3

 60
     0
 61
     0
 62
     1
 63
     3
 64
     0
 65
     0
 66
     0
 67
     3
 68
     1
 69
     0
 70
     0
 71
     0
 72
     0
 40
0.0
170
     0
  0
XRECORD
  5
531B3
102
{ACAD_REACTORS
330
C
102
}
330
C
100
AcDbXrecord
280
     1
 90
        1
330
1E
  0
DICTIONARY
  5
4C
102
{ACAD_REACTORS
330
C
102
}
330
C
100
AcDbDictionary
281
     1
  3
ANNOALLVISIBLE
350
32C7D
  3
CANNOSCALE
350
2569
  3
CMLEADERSTYLE
350
2567
  3
CTABLESTYLE
350
4D
  3
CVIEWDETAILSTYLE
350
31C1B
  3
CVIEWSECTIONSTYLE
350
31C1C
  3
DIMASSOC
350
83
  3
HIDETEXT
350
82
  3
INDEXCTL
350
597E
  3
LAYEREVAL
350
A45A
  3
LAYERNOTIFY
350
A45B
  3
LIGHTINGUNITS
350
256A
  3
MLEADERSCALE
350
597C
  3
MSLTSCALE
350
2568
  3
PROJECTNAME
350
84
  3
SOLIDHIST
350
32C1C
  3
SORTENTS
350
597D
  0
DICTIONARY
  5
531B9
102
{ACAD_REACTORS
330
C
102
}
330
C
100
AcDbDictionary
281
     1
  3
AcDsRecords
350
531BB
  3
AcDsSchemas
350
531BA
1001
ACAD
1070
     2
  0
DICTIONARY
  5
5E76
102
{ACAD_REACTORS
330
C
102
}
330
C
100
AcDbDictionary
281
     1
  0
DICTIONARY
  5
5B6B
102
{ACAD_REACTORS
330
48
102
}
330
48
100
AcDbDictionary
281
     1
  0
DICTIONARY
  5
67
102
{ACAD_REACTORS
330
48
102
}
330
48
100
AcDbDictionary
281
     1
  0
DICTIONARY
  5
5B6A
102
{ACAD_REACTORS
330
48
102
}
330
48
100
AcDbDictionary
281
     1
1001
ACAD
1000
<All
  0
XRECORD
  5
253C
102
{ACAD_REACTORS
330
253B
102
}
330
253B
100
AcDbXrecord
280
     1
290
     1
  0
XRECORD
  5
254A
102
{ACAD_REACTORS
330
2549
102
}
330
2549
100
AcDbXrecord
280
     1
290
     1
  0
SORTENTSTABLE
  5
1FDE
102
{ACAD_REACTORS
330
1FDD
102
}
330
1FDD
100
AcDbSortentsTable
330
23
  0
SORTENTSTABLE
  5
51992
102
{ACAD_REACTORS
330
51991
102
}
330
51991
100
AcDbSortentsTable
330
5198F
  0
DIMASSOC
  5
52FA4
102
{ACAD_REACTORS
330
52FA3
102
}
330
52FA3
100
AcDbDimAssoc
330
52FA2
 90
        3
 70
     0
 71
     0
  1
AcDbOsnapPointRef
 72
    13
331
52F9F
 73
     2
 91
        0
 40
0.0
 10
0.0
 20
0.0
 30
2.000000000000000E+50
 75
     0
  1
AcDbOsnapPointRef
 72
    13
331
52F9B
 73
     2
 91
        0
 40
0.0
 10
0.0
 20
0.0
 30
2.000000000000000E+50
 75
     0
  0
DIMASSOC
  5
52FA7
102
{ACAD_REACTORS
330
52FA6
102
}
330
52FA6
100
AcDbDimAssoc
330
52FA5
 90
        3
 70
     0
 71
     0
  1
AcDbOsnapPointRef
 72
    13
331
52F94
 73
     2
 91
        0
 40
0.0
 10
0.0
 20
0.0
 30
2.000000000000000E+50
 75
     0
  1
AcDbOsnapPointRef
 72
    13
331
52F9F
 73
     2
 91
        0
 40
0.0
 10
0.0
 20
0.0
 30
2.000000000000000E+50
 75
     0
  0
DIMASSOC
  5
52FAA
102
{ACAD_REACTORS
330
52FA9
102
}
330
52FA9
100
AcDbDimAssoc
330
52FA8
 90
        3
 70
     0
 71
     0
  1
AcDbOsnapPointRef
 72
    13
331
52F98
 73
     2
 91
        0
 40
0.0
 10
0.0
 20
0.0
 30
2.000000000000000E+50
 75
     0
  1
AcDbOsnapPointRef
 72
    13
331
52F9B
 73
     2
 91
        0
 40
0.0
 10
0.0
 20
0.0
 30
2.000000000000000E+50
 75
     0
  0
DIMASSOC
  5
52FBD
102
{ACAD_REACTORS
330
52FBC
102
}
330
52FBC
100
AcDbDimAssoc
330
52FBB
 90
        3
 70
     0
 71
     0
  1
AcDbOsnapPointRef
 72
     1
331
52FA0
 73
     2
 91
        0
 40
0.9999999999999998
 10
0.0
 20
0.0
 30
2.000000000000000E+50
 75
     0
  1
AcDbOsnapPointRef
 72
    13
331
52F9A
 73
     2
 91
        0
 40
0.0
 10
0.0
 20
0.0
 30
2.000000000000000E+50
 75
     0
  0
DIMASSOC
  5
52FC0
102
{ACAD_REACTORS
330
52FBF
102
}
330
52FBF
100
AcDbDimAssoc
330
52FBE
 90
        3
 70
     0
 71
     0
  1
AcDbOsnapPointRef
 72
    10
331
52F96
 73
     2
 91
        0
 40
1.580366931259516
 10
0.0
 20
0.0
 30
0.0
 75
     0
  1
AcDbOsnapPointRef
 72
     8
331
52FA1
 73
     2
 91
        0
 40
4.718769394183821
 10
0.0
 20
0.0
 30
0.0
 75
     1
  1
AcDbOsnapPointRef
 72
    10
331
52F96
 73
     2
 91
        0
 40
1.580366931259516
 10
0.0
 20
0.0
 30
0.0
 75
     0
  0
DIMASSOC
  5
53181
102
{ACAD_REACTORS
330
53180
102
}
330
53180
100
AcDbDimAssoc
330
5317F
 90
        2
 70
     0
 71
     0
  1
AcDbOsnapPointRef
 72
     1
331
5317B
 73
     2
 91
        0
 40
2.272102616547391
 10
0.0
 20
0.0
 30
2.000000000000000E+50
 75
     0
  0
DIMASSOC
  5
53184
102
{ACAD_REACTORS
330
53183
102
}
330
53183
100
AcDbDimAssoc
330
53182
 90
        2
 70
     0
 71
     0
  1
AcDbOsnapPointRef
 72
     6
331
5317A
 73
     2
 91
        0
 40
0.2718608476559877
 10
0.0
 20
0.0
 30
0.0
332
5317B
 74
     2
 92
        0
 75
     0
  0
XRECORD
  5
31D0D
102
{ACAD_REACTORS
330
31D0C
102
}
330
31D0C
100
AcDbXrecord
280
     1
 90
        1
340
250C
  0
XRECORD
  5
31D11
102
{ACAD_REACTORS
330
31D10
102
}
330
31D10
100
AcDbXrecord
280
     1
 90
        1
340
250C
  0
ACDBDETAILVIEWSTYLE
  5
31BF4
102
{ACAD_XDICTIONARY
360
531A5
102
}
102
{ACAD_REACTORS
330
31BF3
102
}
330
31BF3
100
AcDbModelDocViewStyle
 70
     0
  3
Metric50
290
     0
100
AcDbDetailViewStyle
 70
     0
 71
     0
 90
        3
 71
     1
340
11
 62
   256
 40
5.0
340
0
 62
   256
 40
5.0
300

 40
0.0
280
     1
 71
     2
340
16
 90
       25
 62
   256
 71
     3
340
11
 62
   256
 40
5.0
 90
        0
 40
15.0
 90
        1
300
%<\AcVar ViewDetailId>% (%<\AcVar ViewScale \f "%sn">%)
 71
     4
340
16
 90
       25
 62
   256
340
16
 90
       25
 62
   256
280
     0
1001
ACAD
1000
AcRTDxfName
1000
ACDBDETAILVIEWSTYLE
1000
AcRTDxfName
1000
ACDBDETAILVIEWSTYLE
1000
AcRTDxfName
1000
ACDBDETAILVIEWSTYLE
  0
LAYOUT
  5
31D05
102
{ACAD_XDICTIONARY
360
31D19
102
}
102
{ACAD_REACTORS
330
1A
102
}
330
1A
100
AcDbPlotSettings
  1

  2
Canon iPF605
  4
User4403
  6

 40
3.757083415985107
 41
3.75714111328125
 42
3.757080078125
 43
3.757080078125
 44
593.97900390625
 45
840.9940185546874
 46
0.0
 47
0.0
 48
0.0
 49
0.0
140
0.0
141
0.0
142
1.0
143
1.0
 70
   688
 72
     1
 73
     1
 74
     5
  7

 75
    16
147
1.0
 76
     0
 77
     2
 78
   300
148
0.0
149
0.0
100
AcDbLayout
  1
Layout1
 70
     1
 71
     1
 10
-3.757080078125
 20
-3.757083415985107
 11
837.2369384765624
 21
590.2219204902649
 12
0.0
 22
0.0
 32
0.0
 14
0.7612936004385347
 24
0.7559578922353012
 34
0.0
 15
832.7911693029754
 25
585.9562928245313
 35
0.0
146
0.0
 13
0.0
 23
0.0
 33
0.0
 16
1.0
 26
0.0
 36
0.0
 17
0.0
 27
1.0
 37
0.0
 76
     0
330
31D04
331
31D0B
1001
ACAD_PSEXT
1000
Canon iPF605
1000
Canon iPF605
1000
192.168.10.93
1000

1070
     0
  0
LAYOUT
  5
26
102
{ACAD_XDICTIONARY
360
59CC
102
}
102
{ACAD_REACTORS
330
1A
102
}
330
1A
100
AcDbPlotSettings
  1

  2
\\pc17\HP DeskJet 1220C A4
  4
A4
  6

 40
4.180416584014892
 41
12.562424659729
 42
4.180404663085937
 43
3.84173583984375
 44
209.9733276367187
 45
296.9259948730469
 46
0.0
 47
0.0
 48
0.0
 49
0.0
140
0.0
141
0.0
142
1.0
143
1.0
 70
 11952
 72
     1
 73
     0
 74
     0
  7
monochrome.ctb
 75
    16
147
1.0
 76
     0
 77
     2
 78
   300
148
121.7955125582991
149
19.45327258920656
100
AcDbLayout
  1
Model
 70
     1
 71
     0
 10
0.0
 20
0.0
 11
12.0
 21
9.0
 12
0.0
 22
0.0
 32
0.0
 14
0.0
 24
0.0
 34
0.0
 15
0.0
 25
0.0
 35
0.0
146
0.0
 13
0.0
 23
0.0
 33
0.0
 16
1.0
 26
0.0
 36
0.0
 17
0.0
 27
1.0
 37
0.0
 76
     0
330
23
331
1D8D
1001
ACAD_PSEXT
1000
\\pc17\HP DeskJet 1220C A4
1000
HP DeskJet 1220C
1000
Zeichenbüro
1000
A4
1070
     0
  0
MATERIAL
  5
1D90
102
{ACAD_REACTORS
330
1B
102
}
330
1B
100
AcDbMaterial
  1
ByBlock
 73
     1
 78
     1
172
     1
176
     1
270
     1
274
     1
 94
       63
  0
MATERIAL
  5
1D8F
102
{ACAD_REACTORS
330
1B
102
}
330
1B
100
AcDbMaterial
  1
ByLayer
 73
     1
 78
     1
172
     1
176
     1
270
     1
274
     1
 94
       63
  0
MATERIAL
  5
1D91
102
{ACAD_REACTORS
330
1B
102
}
330
1B
100
AcDbMaterial
  1
Global
 73
     1
 78
     1
172
     1
176
     1
270
     1
274
     1
 94
       63
  0
MLEADERSTYLE
  5
252E
102
{ACAD_REACTORS
330
252D
102
}
330
252D
100
AcDbMLeaderStyle
179
     2
170
     2
171
     1
172
     0
 90
        2
 40
0.0
 41
0.0
173
     1
 91
-1056964608
340
14
 92
       -2
290
     1
 42
2.0
291
     1
 43
0.36
  3
Standard
 44
4.0
300

342
11
174
     1
178
     6
175
     1
176
     0
 93
-1056964608
 45
4.0
292
     0
297
     0
 46
4.0
 94
-1056964608
 47
1.0
 49
1.0
140
1.0
293
     1
141
0.0
294
     1
177
     0
142
1.0
295
     0
296
     0
143
0.125
271
     0
272
     9
273
     9
  0
MLINESTYLE
  5
18
102
{ACAD_REACTORS
330
17
102
}
330
17
100
AcDbMlineStyle
  2
STANDARD
 70
     0
  3

 62
   256
 51
90.0
 52
90.0
 71
     2
 49
0.5
 62
   256
  6
BYLAYER
 49
-0.5
 62
   256
  6
BYLAYER
  0
ACDBPLACEHOLDER
  5
F
102
{ACAD_REACTORS
330
E
102
}
330
E
  0
SCALE
  5
250C
102
{ACAD_REACTORS
330
250B
102
}
330
250B
100
AcDbScale
 70
     0
300
1:1
140
1.0
141
1.0
290
     1
  0
ACDBSECTIONVIEWSTYLE
  5
31BF2
102
{ACAD_XDICTIONARY
360
531A3
102
}
102
{ACAD_REACTORS
330
31BF1
102
}
330
31BF1
100
AcDbModelDocViewStyle
 70
     0
  3
Metric50
290
     0
100
AcDbSectionViewStyle
 70
     0
 71
     0
 90
      102
 71
     1
340
11
 62
   256
 40
5.0
340
0
340
0
 62
   256
 40
5.0
300
I, O, Q, S, X, Z
 40
10.0
 90
        0
 40
2.5
 90
        0
 71
     2
340
16
 90
       25
 62
   256
340
16
 90
       50
 62
   256
 40
5.0
 40
2.5
 40
5.0
 71
     3
340
11
 62
   256
 40
5.0
 90
        0
 40
15.0
 90
        1
300
%<\AcVar ViewSectionStartId>%-%<\AcVar ViewSectionEndId>% (%<\AcVar ViewScale \f "%sn">%)
 71
     4
 62
   256
 62
   257
300
ANSI31
 40
1.0
 90
        0
290
     0
290
     0
 90
        6
 40
0.0
 40
1.570796326794896
 40
0.2617993877991494
 40
1.308996938995747
 40
-0.2617993877991494
 40
1.832595714594046
1001
ACAD
1000
AcRTDxfName
1000
ACDBSECTIONVIEWSTYLE
1000
AcRTDxfName
1000
ACDBSECTIONVIEWSTYLE
1000
AcRTDxfName
1000
ACDBSECTIONVIEWSTYLE
  0
TABLESTYLE
  5
1E
102
{ACAD_XDICTIONARY
360
2563
102
}
102
{ACAD_REACTORS
330
1D
102
}
330
1D
100
AcDbTableStyle
280
     0
  3
Standard
 70
     0
 71
     0
 40
1.5
 41
1.5
280
     0
281
     0
  7
Standard
140
4.5
170
     2
 62
     0
 63
     7
283
     0
 90
        4
 91
        0
  1

274
    -2
284
     1
 64
     0
275
    -2
285
     1
 65
     0
276
    -2
286
     1
 66
     0
277
    -2
287
     1
 67
     0
278
    -2
288
     1
 68
     0
279
    -2
289
     1
 69
     0
  7
Standard
140
6.0
170
     5
 62
     0
 63
     7
283
     0
 90
        4
 91
        0
  1

274
    -2
284
     1
 64
     0
275
    -2
285
     1
 65
     0
276
    -2
286
     1
 66
     0
277
    -2
287
     1
 67
     0
278
    -2
288
     1
 68
     0
279
    -2
289
     1
 69
     0
  7
Standard
140
4.5
170
     5
 62
     0
 63
     7
283
     0
 90
        4
 91
        0
  1

274
    -2
284
     1
 64
     0
275
    -2
285
     1
 65
     0
276
    -2
286
     1
 66
     0
277
    -2
287
     1
 67
     0
278
    -2
288
     1
 68
     0
279
    -2
289
     1
 69
     0
  0
VISUALSTYLE
  5
1D98
102
{ACAD_XDICTIONARY
360
531C6
102
}
102
{ACAD_REACTORS
330
1D92
102
}
330
1D92
100
AcDbVisualStyle
  2
2dWireframe
 70
     4
177
     2
291
     0
 71
     0
176
     1
 72
     2
176
     1
 73
     0
176
     1
 90
        0
176
     1
 40
0.6
176
     1
 41
30.0
176
     1
 63
     7
176
     1
 74
     1
176
     1
 91
        4
176
     1
 64
     7
176
     1
 65
   257
176
     1
 75
     1
176
     1
175
     1
176
     1
 42
1.0
176
     1
 92
        0
176
     1
 66
   257
176
     1
 43
1.0
176
     1
 76
     1
176
     1
 77
     6
176
     1
 78
     2
176
     1
 67
     7
176
     1
 79
     5
176
     1
170
     0
176
     1
171
     0
176
     1
290
     0
176
     1
 93
        1
176
     1
 44
0.0
176
     1
173
     0
176
     1
1001
ACAD
1000
AcDbSavedByObjectVersion
1070
     0
  0
VISUALSTYLE
  5
1D9A
102
{ACAD_XDICTIONARY
360
531CA
102
}
102
{ACAD_REACTORS
330
1D92
102
}
330
1D92
100
AcDbVisualStyle
  2
3D Hidden
 70
     6
177
     2
291
     0
 71
     1
176
     1
 72
     2
176
     1
 73
     2
176
     1
 90
        0
176
     1
 40
0.6
176
     1
 41
30.0
176
     1
 63
     7
176
     1
 74
     2
176
     1
 91
        2
176
     1
 64
     7
176
     1
 65
   257
176
     1
 75
     2
176
     1
175
     1
176
     1
 42
40.0
176
     1
 92
        0
176
     1
 66
   257
176
     1
 43
1.0
176
     1
 76
     1
176
     1
 77
     6
176
     1
 78
     2
176
     1
 67
     7
176
     1
 79
     3
176
     1
170
     0
176
     1
171
     0
176
     1
290
     0
176
     1
 93
        1
176
     1
 44
0.0
176
     1
173
     0
176
     1
1001
ACAD
1000
AcDbSavedByObjectVersion
1070
     0
  0
VISUALSTYLE
  5
1D99
102
{ACAD_XDICTIONARY
360
531C8
102
}
102
{ACAD_REACTORS
330
1D92
102
}
330
1D92
100
AcDbVisualStyle
  2
3dWireframe
 70
     5
177
     2
291
     0
 71
     0
176
     1
 72
     2
176
     1
 73
     0
176
     1
 90
        0
176
     1
 40
0.6
176
     1
 41
30.0
176
     1
 63
     7
176
     1
 74
     1
176
     1
 91
        4
176
     1
 64
     7
176
     1
 65
   257
176
     1
 75
     1
176
     1
175
     1
176
     1
 42
1.0
176
     1
 92
        0
176
     1
 66
   257
176
     1
 43
1.0
176
     1
 76
     1
176
     1
 77
     6
176
     1
 78
     2
176
     1
 67
     7
176
     1
 79
     5
176
     1
170
     0
176
     1
171
     0
176
     1
290
     0
176
     1
 93
        1
176
     1
 44
0.0
176
     1
173
     0
176
     1
1001
ACAD
1000
AcDbSavedByObjectVersion
1070
     0
  0
VISUALSTYLE
  5
1D97
102
{ACAD_XDICTIONARY
360
531C4
102
}
102
{ACAD_REACTORS
330
1D92
102
}
330
1D92
100
AcDbVisualStyle
  2
Basic
 70
     7
177
     2
291
     1
 71
     1
176
     1
 72
     0
176
     1
 73
     1
176
     1
 90
        0
176
     1
 40
0.6
176
     1
 41
30.0
176
     1
 63
     7
176
     1
 74
     0
176
     1
 91
        4
176
     1
 64
     7
176
     1
 65
   257
176
     1
 75
     1
176
     1
175
     1
176
     1
 42
1.0
176
     1
 92
        8
176
     1
 66
     7
176
     1
 43
1.0
176
     1
 76
     1
176
     1
 77
     6
176
     1
 78
     2
176
     1
 67
     7
176
     1
 79
     5
176
     1
170
     0
176
     1
171
     0
176
     1
290
     0
176
     1
 93
        1
176
     1
 44
0.0
176
     1
173
     0
176
     1
1001
ACAD
1000
AcDbSavedByObjectVersion
1070
     0
  0
VISUALSTYLE
  5
1D9E
102
{ACAD_XDICTIONARY
360
531D2
102
}
102
{ACAD_REACTORS
330
1D92
102
}
330
1D92
100
AcDbVisualStyle
  2
Brighten
 70
    12
177
     2
291
     1
 71
     2
176
     1
 72
     2
176
     1
 73
     0
176
     1
 90
        0
176
     1
 40
0.6
176
     1
 41
30.0
176
     1
 63
     7
176
     1
 74
     1
176
     1
 91
        4
176
     1
 64
     7
176
     1
 65
   257
176
     1
 75
     1
176
     1
175
     1
176
     1
 42
1.0
176
     1
 92
        8
176
     1
 66
     7
176
     1
 43
1.0
176
     1
 76
     1
176
     1
 77
     6
176
     1
 78
     2
176
     1
 67
     7
176
     1
 79
     5
176
     1
170
     0
176
     1
171
     0
176
     1
290
     0
176
     1
 93
        1
176
     1
 44
50.0
176
     1
173
     0
176
     1
1001
ACAD
1000
AcDbSavedByObjectVersion
1070
     0
  0
VISUALSTYLE
  5
1DA2
102
{ACAD_XDICTIONARY
360
531DA
102
}
102
{ACAD_REACTORS
330
1D92
102
}
330
1D92
100
AcDbVisualStyle
  2
ColorChange
 70
    16
177
     2
291
     1
 71
     2
176
     1
 72
     2
176
     1
 73
     3
176
     1
 90
        0
176
     1
 40
0.6
176
     1
 41
30.0
176
     1
 63
     8
176
     1
 74
     1
176
     1
 91
        4
176
     1
 64
     7
176
     1
 65
   257
176
     1
 75
     1
176
     1
175
     1
176
     1
 42
1.0
176
     1
 92
        8
176
     1
 66
     8
176
     1
 43
1.0
176
     1
 76
     1
176
     1
 77
     6
176
     1
 78
     2
176
     1
 67
     7
176
     1
 79
     5
176
     1
170
     0
176
     1
171
     0
176
     1
290
     0
176
     1
 93
        1
176
     1
 44
0.0
176
     1
173
     0
176
     1
1001
ACAD
1000
AcDbSavedByObjectVersion
1070
     0
  0
VISUALSTYLE
  5
1D9B
102
{ACAD_XDICTIONARY
360
531CC
102
}
102
{ACAD_REACTORS
330
1D92
102
}
330
1D92
100
AcDbVisualStyle
  2
Conceptual
 70
     9
177
     2
291
     0
 71
     3
176
     1
 72
     2
176
     1
 73
     0
176
     1
 90
        0
176
     1
 40
0.6
176
     1
 41
30.0
176
     1
 63
     7
176
     1
 74
     2
176
     1
 91
        2
176
     1
 64
     7
176
     1
 65
   257
176
     1
 75
     1
176
     1
175
     1
176
     1
 42
40.0
176
     1
 92
        8
176
     1
 66
     7
176
     1
 43
1.0
176
     1
 76
     1
176
     1
 77
     6
176
     1
 78
     2
176
     1
 67
     7
176
     1
 79
     3
176
     1
170
     0
176
     1
171
     0
176
     1
290
     0
176
     1
 93
        1
176
     1
 44
0.0
176
     1
173
     0
176
     1
1001
ACAD
1000
AcDbSavedByObjectVersion
1070
     0
  0
VISUALSTYLE
  5
1D9D
102
{ACAD_XDICTIONARY
360
531D0
102
}
102
{ACAD_REACTORS
330
1D92
102
}
330
1D92
100
AcDbVisualStyle
  2
Dim
 70
    11
177
     2
291
     1
 71
     2
176
     1
 72
     2
176
     1
 73
     0
176
     1
 90
        0
176
     1
 40
0.6
176
     1
 41
30.0
176
     1
 63
     7
176
     1
 74
     1
176
     1
 91
        4
176
     1
 64
     7
176
     1
 65
   257
176
     1
 75
     1
176
     1
175
     1
176
     1
 42
1.0
176
     1
 92
        8
176
     1
 66
     7
176
     1
 43
1.0
176
     1
 76
     1
176
     1
 77
     6
176
     1
 78
     2
176
     1
 67
     7
176
     1
 79
     5
176
     1
170
     0
176
     1
171
     0
176
     1
290
     0
176
     1
 93
        1
176
     1
 44
-50.0
176
     1
173
     0
176
     1
1001
ACAD
1000
AcDbSavedByObjectVersion
1070
     0
  0
VISUALSTYLE
  5
58CB
102
{ACAD_XDICTIONARY
360
531E0
102
}
102
{ACAD_REACTORS
330
1D92
102
}
330
1D92
100
AcDbVisualStyle
  2
EdgeColorOff
 70
    22
177
     2
291
     1
 71
     2
176
     0
 72
     2
176
     0
 73
     0
176
     0
 90
        0
176
     0
 40
0.6
176
     0
 41
30.0
176
     0
 63
     7
176
     0
 74
     1
176
     0
 91
        4
176
     0
 64
     7
176
     0
 65
   257
176
     0
 75
     1
176
     0
175
     1
176
     0
 42
1.0
176
     0
 92
        8
176
     2
 66
     7
176
     0
 43
1.0
176
     0
 76
     1
176
     0
 77
     6
176
     0
 78
     2
176
     0
 67
     7
176
     0
 79
     5
176
     0
170
     0
176
     0
171
     0
176
     0
290
     0
176
     0
 93
        1
176
     0
 44
0.0
176
     0
173
     0
176
     0
1001
ACAD
1000
AcDbSavedByObjectVersion
1070
     0
  0
VISUALSTYLE
  5
1DA1
102
{ACAD_XDICTIONARY
360
531D8
102
}
102
{ACAD_REACTORS
330
1D92
102
}
330
1D92
100
AcDbVisualStyle
  2
Facepattern
 70
    15
177
     2
291
     1
 71
     2
176
     1
 72
     2
176
     1
 73
     0
176
     1
 90
        0
176
     1
 40
0.6
176
     1
 41
30.0
176
     1
 63
     7
176
     1
 74
     1
176
     1
 91
        4
176
     1
 64
     7
176
     1
 65
   257
176
     1
 75
     1
176
     1
175
     1
176
     1
 42
1.0
176
     1
 92
        8
176
     1
 66
     7
176
     1
 43
1.0
176
     1
 76
     1
176
     1
 77
     6
176
     1
 78
     2
176
     1
 67
     7
176
     1
 79
     5
176
     1
170
     0
176
     1
171
     0
176
     1
290
     0
176
     1
 93
        1
176
     1
 44
0.0
176
     1
173
     0
176
     1
1001
ACAD
1000
AcDbSavedByObjectVersion
1070
     0
  0
VISUALSTYLE
  5
1D93
102
{ACAD_XDICTIONARY
360
531BC
102
}
102
{ACAD_REACTORS
330
1D92
102
}
330
1D92
100
AcDbVisualStyle
  2
Flat
 70
     0
177
     2
291
     1
 71
     2
176
     1
 72
     1
176
     1
 73
     1
176
     1
 90
        2
176
     1
 40
0.6
176
     1
 41
30.0
176
     1
 63
     7
176
     1
 74
     0
176
     1
 91
        4
176
     1
 64
     7
176
     1
 65
   257
176
     1
 75
     1
176
     1
175
     1
176
     1
 42
1.0
176
     1
 92
        8
176
     1
 66
     7
176
     1
 43
1.0
176
     1
 76
     1
176
     1
 77
     6
176
     1
 78
     2
176
     1
 67
     7
176
     1
 79
     5
176
     1
170
     0
176
     1
171
     0
176
     1
290
     0
176
     1
 93
       13
176
     1
 44
0.0
176
     1
173
     0
176
     1
1001
ACAD
1000
AcDbSavedByObjectVersion
1070
     0
  0
VISUALSTYLE
  5
1D94
102
{ACAD_XDICTIONARY
360
531BE
102
}
102
{ACAD_REACTORS
330
1D92
102
}
330
1D92
100
AcDbVisualStyle
  2
FlatWithEdges
 70
     1
177
     2
291
     1
 71
     2
176
     1
 72
     1
176
     1
 73
     1
176
     1
 90
        2
176
     1
 40
0.6
176
     1
 41
30.0
176
     1
 63
     7
176
     1
 74
     1
176
     1
 91
        4
176
     1
 64
     7
176
     1
 65
   257
176
     1
 75
     1
176
     1
175
     1
176
     1
 42
1.0
176
     1
 92
        0
176
     1
 66
   257
176
     1
 43
1.0
176
     1
 76
     1
176
     1
 77
     6
176
     1
 78
     2
176
     1
 67
     7
176
     1
 79
     5
176
     1
170
     0
176
     1
171
     0
176
     1
290
     0
176
     1
 93
       13
176
     1
 44
0.0
176
     1
173
     0
176
     1
1001
ACAD
1000
AcDbSavedByObjectVersion
1070
     0
  0
VISUALSTYLE
  5
1D95
102
{ACAD_XDICTIONARY
360
531C0
102
}
102
{ACAD_REACTORS
330
1D92
102
}
330
1D92
100
AcDbVisualStyle
  2
Gouraud
 70
     2
177
     2
291
     1
 71
     2
176
     1
 72
     2
176
     1
 73
     1
176
     1
 90
        2
176
     1
 40
0.6
176
     1
 41
30.0
176
     1
 63
     7
176
     1
 74
     0
176
     1
 91
        4
176
     1
 64
     7
176
     1
 65
   257
176
     1
 75
     1
176
     1
175
     1
176
     1
 42
1.0
176
     1
 92
        0
176
     1
 66
     7
176
     1
 43
1.0
176
     1
 76
     1
176
     1
 77
     6
176
     1
 78
     2
176
     1
 67
     7
176
     1
 79
     5
176
     1
170
     0
176
     1
171
     0
176
     1
290
     0
176
     1
 93
       13
176
     1
 44
0.0
176
     1
173
     0
176
     1
1001
ACAD
1000
AcDbSavedByObjectVersion
1070
     0
  0
VISUALSTYLE
  5
1D96
102
{ACAD_XDICTIONARY
360
531C2
102
}
102
{ACAD_REACTORS
330
1D92
102
}
330
1D92
100
AcDbVisualStyle
  2
GouraudWithEdges
 70
     3
177
     2
291
     1
 71
     2
176
     1
 72
     2
176
     1
 73
     1
176
     1
 90
        2
176
     1
 40
0.6
176
     1
 41
30.0
176
     1
 63
     7
176
     1
 74
     1
176
     1
 91
        4
176
     1
 64
     7
176
     1
 65
   257
176
     1
 75
     1
176
     1
175
     1
176
     1
 42
1.0
176
     1
 92
        0
176
     1
 66
   257
176
     1
 43
1.0
176
     1
 76
     1
176
     1
 77
     6
176
     1
 78
     2
176
     1
 67
     7
176
     1
 79
     5
176
     1
170
     0
176
     1
171
     0
176
     1
290
     0
176
     1
 93
       13
176
     1
 44
0.0
176
     1
173
     0
176
     1
1001
ACAD
1000
AcDbSavedByObjectVersion
1070
     0
  0
VISUALSTYLE
  5
A3B8
102
{ACAD_XDICTIONARY
360
531E4
102
}
102
{ACAD_REACTORS
330
1D92
102
}
330
1D92
100
AcDbVisualStyle
  2
Hidden
 70
     6
177
     2
291
     0
 71
     1
176
     1
 72
     2
176
     1
 73
     2
176
     1
 90
        0
176
     1
 40
0.6
176
     1
 41
30.0
176
     1
 63
     7
176
     1
 74
     2
176
     1
 91
        2
176
     1
 64
     7
176
     1
 65
   257
176
     1
 75
     2
176
     1
175
     1
176
     1
 42
40.0
176
     1
 92
        0
176
     1
 66
   257
176
     1
 43
1.0
176
     1
 76
     1
176
     1
 77
     6
176
     1
 78
     2
176
     1
 67
     7
176
     1
 79
     3
176
     1
170
     0
176
     1
171
     0
176
     1
290
     0
176
     1
 93
        1
176
     1
 44
0.0
176
     1
173
     0
176
     1
1001
ACAD
1000
AcDbSavedByObjectVersion
1070
     0
  0
VISUALSTYLE
  5
58C9
102
{ACAD_XDICTIONARY
360
531DC
102
}
102
{ACAD_REACTORS
330
1D92
102
}
330
1D92
100
AcDbVisualStyle
  2
JitterOff
 70
    20
177
     2
291
     1
 71
     2
176
     0
 72
     2
176
     0
 73
     0
176
     0
 90
        0
176
     0
 40
0.6
176
     0
 41
30.0
176
     0
 63
     7
176
     0
 74
     1
176
     0
 91
        4
176
     0
 64
     7
176
     0
 65
   257
176
     0
 75
     1
176
     0
175
     1
176
     0
 42
1.0
176
     0
 92
       10
176
     2
 66
     7
176
     0
 43
1.0
176
     0
 76
     1
176
     0
 77
     6
176
     0
 78
     2
176
     0
 67
     7
176
     0
 79
     5
176
     0
170
     0
176
     0
171
     0
176
     0
290
     0
176
     0
 93
        1
176
     0
 44
0.0
176
     0
173
     0
176
     0
1001
ACAD
1000
AcDbSavedByObjectVersion
1070
     0
  0
VISUALSTYLE
  5
1DA0
102
{ACAD_XDICTIONARY
360
531D6
102
}
102
{ACAD_REACTORS
330
1D92
102
}
330
1D92
100
AcDbVisualStyle
  2
Linepattern
 70
    14
177
     2
291
     1
 71
     2
176
     1
 72
     2
176
     1
 73
     0
176
     1
 90
        0
176
     1
 40
0.6
176
     1
 41
30.0
176
     1
 63
     7
176
     1
 74
     1
176
     1
 91
        4
176
     1
 64
     7
176
     1
 65
   257
176
     1
 75
     7
176
     1
175
     7
176
     1
 42
1.0
176
     1
 92
        8
176
     1
 66
     7
176
     1
 43
1.0
176
     1
 76
     1
176
     1
 77
     6
176
     1
 78
     2
176
     1
 67
     7
176
     1
 79
     5
176
     1
170
     0
176
     1
171
     0
176
     1
290
     0
176
     1
 93
        1
176
     1
 44
0.0
176
     1
173
     0
176
     1
1001
ACAD
1000
AcDbSavedByObjectVersion
1070
     0
  0
VISUALSTYLE
  5
58CA
102
{ACAD_XDICTIONARY
360
531DE
102
}
102
{ACAD_REACTORS
330
1D92
102
}
330
1D92
100
AcDbVisualStyle
  2
OverhangOff
 70
    21
177
     2
291
     1
 71
     2
176
     0
 72
     2
176
     0
 73
     0
176
     0
 90
        0
176
     0
 40
0.6
176
     0
 41
30.0
176
     0
 63
     7
176
     0
 74
     1
176
     0
 91
        4
176
     0
 64
     7
176
     0
 65
   257
176
     0
 75
     1
176
     0
175
     1
176
     0
 42
1.0
176
     0
 92
        9
176
     2
 66
     7
176
     0
 43
1.0
176
     0
 76
     1
176
     0
 77
     6
176
     0
 78
     2
176
     0
 67
     7
176
     0
 79
     5
176
     0
170
     0
176
     0
171
     0
176
     0
290
     0
176
     0
 93
        1
176
     0
 44
0.0
176
     0
173
     0
176
     0
1001
ACAD
1000
AcDbSavedByObjectVersion
1070
     0
  0
VISUALSTYLE
  5
1D9C
102
{ACAD_XDICTIONARY
360
531CE
102
}
102
{ACAD_REACTORS
330
1D92
102
}
330
1D92
100
AcDbVisualStyle
  2
Realistic
 70
     8
177
     2
291
     0
 71
     2
176
     1
 72
     2
176
     1
 73
     0
176
     1
 90
        0
176
     1
 40
0.6
176
     1
 41
30.0
176
     1
 63
     7
176
     1
 74
     1
176
     1
 91
        0
176
     1
 64
     7
176
     1
 65
   257
176
     1
 75
     1
176
     1
175
     1
176
     1
 42
1.0
176
     1
 92
        8
176
     1
 66
     8
176
     1
 43
1.0
176
     1
 76
     1
176
     1
 77
     6
176
     1
 78
     2
176
     1
 67
     7
176
     1
 79
     5
176
     1
170
     0
176
     1
171
     0
176
     1
290
     0
176
     1
 93
       13
176
     1
 44
0.0
176
     1
173
     0
176
     1
1001
ACAD
1000
AcDbSavedByObjectVersion
1070
     0
  0
VISUALSTYLE
  5
A3BD
102
{ACAD_XDICTIONARY
360
531EE
102
}
102
{ACAD_REACTORS
330
1D92
102
}
330
1D92
100
AcDbVisualStyle
  2
Shaded
 70
    27
177
     2
291
     0
 71
     2
176
     1
 72
     2
176
     1
 73
     1
176
     1
 90
        2
176
     1
 40
0.6
176
     1
 41
30.0
176
     1
 63
     7
176
     1
 74
     0
176
     1
 91
        4
176
     1
 64
     7
176
     1
 65
   257
176
     1
 75
     1
176
     1
175
     1
176
     1
 42
1.0
176
     1
 92
        8
176
     1
 66
   257
176
     1
 43
1.0
176
     1
 76
     1
176
     1
 77
     6
176
     1
 78
     2
176
     1
 67
     8
176
     1
 79
     3
176
     1
170
     0
176
     1
171
     0
176
     1
290
     0
176
     1
 93
        5
176
     1
 44
0.0
176
     1
173
     0
176
     1
1001
ACAD
1000
AcDbSavedByObjectVersion
1070
     0
  0
VISUALSTYLE
  5
A3BC
102
{ACAD_XDICTIONARY
360
531EC
102
}
102
{ACAD_REACTORS
330
1D92
102
}
330
1D92
100
AcDbVisualStyle
  2
Shaded with edges
 70
    26
177
     2
291
     0
 71
     2
176
     1
 72
     2
176
     1
 73
     1
176
     1
 90
        2
176
     1
 40
0.6
176
     1
 41
30.0
176
     1
 63
     7
176
     1
 74
     1
176
     1
 91
       10
176
     1
 64
     7
176
     1
 65
   257
176
     1
 75
     2
176
     1
175
     1
176
     1
 42
1.0
176
     1
 92
        8
176
     1
 66
   257
176
     1
 43
1.0
176
     1
 76
     1
176
     1
 77
     6
176
     1
 78
     2
176
     1
 67
     7
176
     1
 79
     3
176
     1
170
     0
176
     1
171
     0
176
     1
290
     0
176
     1
 93
        5
176
     1
 44
0.0
176
     1
173
     0
176
     1
1001
ACAD
1000
AcDbSavedByObjectVersion
1070
     0
  0
VISUALSTYLE
  5
A3B9
102
{ACAD_XDICTIONARY
360
531E6
102
}
102
{ACAD_REACTORS
330
1D92
102
}
330
1D92
100
AcDbVisualStyle
  2
Shades of Gray
 70
    23
177
     2
291
     0
 71
     2
176
     1
 72
     2
176
     1
 73
     3
176
     1
 90
        0
176
     1
 40
0.6
176
     1
 41
30.0
176
     1
 63
     7
176
     1
 74
     2
176
     1
 91
        2
176
     1
 64
     7
176
     1
 65
     7
176
     1
 75
     1
176
     1
175
     1
176
     1
 42
40.0
176
     1
 92
        8
176
     1
 66
     7
176
     1
 43
1.0
176
     1
 76
     1
176
     1
 77
     6
176
     1
 78
     2
176
     1
 67
     7
176
     1
 79
     3
176
     1
170
     0
176
     1
171
     0
176
     1
290
     0
176
     1
 93
        1
176
     1
 44
0.0
176
     1
173
     0
176
     1
1001
ACAD
1000
AcDbSavedByObjectVersion
1070
     0
  0
VISUALSTYLE
  5
A3BA
102
{ACAD_XDICTIONARY
360
531E8
102
}
102
{ACAD_REACTORS
330
1D92
102
}
330
1D92
100
AcDbVisualStyle
  2
Sketchy
 70
    24
177
     2
291
     0
 71
     1
176
     1
 72
     2
176
     1
 73
     2
176
     1
 90
        0
176
     1
 40
0.6
176
     1
 41
30.0
176
     1
 63
     7
176
     1
 74
     2
176
     1
 91
        2
176
     1
 64
     7
176
     1
 65
     7
176
     1
 75
     1
176
     1
175
     1
176
     1
 42
40.0
176
     1
 92
       11
176
     1
 66
     7
176
     1
 43
1.0
176
     1
 76
     1
176
     1
 77
     6
176
     1
 78
     2
176
     1
 67
     7
176
     1
 79
     6
176
     1
170
     0
176
     1
171
     0
176
     1
290
     0
176
     1
 93
        1
176
     1
 44
0.0
176
     1
173
     0
176
     1
1001
ACAD
1000
AcDbSavedByObjectVersion
1070
     0
  0
VISUALSTYLE
  5
1D9F
102
{ACAD_XDICTIONARY
360
531D4
102
}
102
{ACAD_REACTORS
330
1D92
102
}
330
1D92
100
AcDbVisualStyle
  2
Thicken
 70
    13
177
     2
291
     1
 71
     2
176
     1
 72
     2
176
     1
 73
     0
176
     1
 90
        0
176
     1
 40
0.6
176
     1
 41
30.0
176
     1
 63
     7
176
     1
 74
     1
176
     1
 91
        4
176
     1
 64
     7
176
     1
 65
   257
176
     1
 75
     1
176
     1
175
     1
176
     1
 42
1.0
176
     1
 92
       12
176
     1
 66
     7
176
     1
 43
1.0
176
     1
 76
     1
176
     1
 77
     6
176
     1
 78
     2
176
     1
 67
     7
176
     1
 79
     5
176
     1
170
     0
176
     1
171
     0
176
     1
290
     0
176
     1
 93
        1
176
     1
 44
0.0
176
     1
173
     0
176
     1
1001
ACAD
1000
AcDbSavedByObjectVersion
1070
     0
  0
VISUALSTYLE
  5
A3B7
102
{ACAD_XDICTIONARY
360
531E2
102
}
102
{ACAD_REACTORS
330
1D92
102
}
330
1D92
100
AcDbVisualStyle
  2
Wireframe
 70
     5
177
     2
291
     0
 71
     0
176
     1
 72
     2
176
     1
 73
     0
176
     1
 90
        0
176
     1
 40
0.6
176
     1
 41
30.0
176
     1
 63
     7
176
     1
 74
     1
176
     1
 91
        4
176
     1
 64
     7
176
     1
 65
   257
176
     1
 75
     1
176
     1
175
     1
176
     1
 42
1.0
176
     1
 92
        0
176
     1
 66
   257
176
     1
 43
1.0
176
     1
 76
     1
176
     1
 77
     6
176
     1
 78
     2
176
     1
 67
     7
176
     1
 79
     3
176
     1
170
     0
176
     1
171
     0
176
     1
290
     0
176
     1
 93
        1
176
     1
 44
0.0
176
     1
173
     0
176
     1
1001
ACAD
1000
AcDbSavedByObjectVersion
1070
     0
  0
VISUALSTYLE
  5
A3BB
102
{ACAD_XDICTIONARY
360
531EA
102
}
102
{ACAD_REACTORS
330
1D92
102
}
330
1D92
100
AcDbVisualStyle
  2
X-Ray
 70
    25
177
     2
291
     0
 71
     2
176
     1
 72
     2
176
     1
 73
     1
176
     1
 90
        1
176
     1
 40
0.5
176
     1
 41
30.0
176
     1
 63
     7
176
     1
 74
     1
176
     1
 91
        0
176
     1
 64
     7
176
     1
 65
   257
176
     1
 75
     1
176
     1
175
     1
176
     1
 42
1.0
176
     1
 92
        8
176
     1
 66
     7
176
     1
 43
1.0
176
     1
 76
     1
176
     1
 77
     6
176
     1
 78
     2
176
     1
 67
     7
176
     1
 79
     3
176
     1
170
     0
176
     1
171
     0
176
     1
290
     0
176
     1
 93
       13
176
     1
 44
0.0
176
     1
173
     0
176
     1
1001
ACAD
1000
AcDbSavedByObjectVersion
1070
     0
  0
DICTIONARYVAR
  5
32C7D
102
{ACAD_REACTORS
330
4C
102
}
330
4C
100
DictionaryVariables
280
     0
  1
0
  0
DICTIONARYVAR
  5
2569
102
{ACAD_REACTORS
330
4C
102
}
330
4C
100
DictionaryVariables
280
     0
  1
1:1
  0
DICTIONARYVAR
  5
2567
102
{ACAD_REACTORS
330
4C
102
}
330
4C
100
DictionaryVariables
280
     0
  1
STANDARD
  0
DICTIONARYVAR
  5
4D
102
{ACAD_REACTORS
330
4C
102
}
330
4C
100
DictionaryVariables
280
     0
  1
STANDARD
  0
DICTIONARYVAR
  5
31C1B
102
{ACAD_REACTORS
330
4C
102
}
330
4C
100
DictionaryVariables
280
     0
  1
Metric50
  0
DICTIONARYVAR
  5
31C1C
102
{ACAD_REACTORS
330
4C
102
}
330
4C
100
DictionaryVariables
280
     0
  1
Metric50
  0
DICTIONARYVAR
  5
83
102
{ACAD_REACTORS
330
4C
102
}
330
4C
100
DictionaryVariables
280
     0
  1
2
  0
DICTIONARYVAR
  5
82
102
{ACAD_REACTORS
330
4C
102
}
330
4C
100
DictionaryVariables
280
     0
  1
1
  0
DICTIONARYVAR
  5
597E
102
{ACAD_REACTORS
330
4C
102
}
330
4C
100
DictionaryVariables
280
     0
  1
0
  0
DICTIONARYVAR
  5
A45A
102
{ACAD_REACTORS
330
4C
102
}
330
4C
100
DictionaryVariables
280
     0
  1
1
  0
DICTIONARYVAR
  5
A45B
102
{ACAD_REACTORS
330
4C
102
}
330
4C
100
DictionaryVariables
280
     0
  1
15
  0
DICTIONARYVAR
  5
256A
102
{ACAD_REACTORS
330
4C
102
}
330
4C
100
DictionaryVariables
280
     0
  1
0
  0
DICTIONARYVAR
  5
597C
102
{ACAD_REACTORS
330
4C
102
}
330
4C
100
DictionaryVariables
280
     0
  1
1.000000
  0
DICTIONARYVAR
  5
2568
102
{ACAD_REACTORS
330
4C
102
}
330
4C
100
DictionaryVariables
280
     0
  1
0
  0
DICTIONARYVAR
  5
84
102
{ACAD_REACTORS
330
4C
102
}
330
4C
100
DictionaryVariables
280
     0
  1

  0
DICTIONARYVAR
  5
32C1C
102
{ACAD_REACTORS
330
4C
102
}
330
4C
100
DictionaryVariables
280
     0
  1
1
  0
DICTIONARYVAR
  5
597D
102
{ACAD_REACTORS
330
4C
102
}
330
4C
100
DictionaryVariables
280
     0
  1
127
  0
DICTIONARY
  5
531BB
102
{ACAD_REACTORS
330
531B9
102
}
330
531B9
100
AcDbDictionary
281
     1
  0
DICTIONARY
  5
531BA
102
{ACAD_REACTORS
330
531B9
102
}
330
531B9
100
AcDbDictionary
281
     1
  3
8796084395584
350
531B4
  3
8796084395600
350
531B5
  3
8796084395616
350
531B6
  3
8796084395632
350
531B7
  3
8796084395648
350
531B8
  0
DICTIONARY
  5
531A5
330
31BF4
100
AcDbDictionary
280
     1
281
     1
  3
ACAD_XREC_ROUNDTRIP
360
531F1
  0
DICTIONARY
  5
31D19
330
31D05
100
AcDbDictionary
280
     1
281
     1
  0
DICTIONARY
  5
59CC
330
26
100
AcDbDictionary
280
     1
281
     1
  0
DICTIONARY
  5
531A3
330
31BF2
100
AcDbDictionary
280
     1
281
     1
  3
ACAD_XREC_ROUNDTRIP
360
531F0
  0
DICTIONARY
  5
2563
330
1E
100
AcDbDictionary
280
     1
281
     1
  3
ACAD_ROUNDTRIP_2008_TABLESTYLE_CELLSTYLEMAP
360
531B2
  0
DICTIONARY
  5
531C6
330
1D98
100
AcDbDictionary
280
     1
281
     1
  3
ACAD_XREC_ROUNDTRIP
360
531C7
  0
DICTIONARY
  5
531CA
330
1D9A
100
AcDbDictionary
280
     1
281
     1
  3
ACAD_XREC_ROUNDTRIP
360
531CB
  0
DICTIONARY
  5
531C8
330
1D99
100
AcDbDictionary
280
     1
281
     1
  3
ACAD_XREC_ROUNDTRIP
360
531C9
  0
DICTIONARY
  5
531C4
330
1D97
100
AcDbDictionary
280
     1
281
     1
  3
ACAD_XREC_ROUNDTRIP
360
531C5
  0
DICTIONARY
  5
531D2
330
1D9E
100
AcDbDictionary
280
     1
281
     1
  3
ACAD_XREC_ROUNDTRIP
360
531D3
  0
DICTIONARY
  5
531DA
330
1DA2
100
AcDbDictionary
280
     1
281
     1
  3
ACAD_XREC_ROUNDTRIP
360
531DB
  0
DICTIONARY
  5
531CC
330
1D9B
100
AcDbDictionary
280
     1
281
     1
  3
ACAD_XREC_ROUNDTRIP
360
531CD
  0
DICTIONARY
  5
531D0
330
1D9D
100
AcDbDictionary
280
     1
281
     1
  3
ACAD_XREC_ROUNDTRIP
360
531D1
  0
DICTIONARY
  5
531E0
330
58CB
100
AcDbDictionary
280
     1
281
     1
  3
ACAD_XREC_ROUNDTRIP
360
531E1
  0
DICTIONARY
  5
531D8
330
1DA1
100
AcDbDictionary
280
     1
281
     1
  3
ACAD_XREC_ROUNDTRIP
360
531D9
  0
DICTIONARY
  5
531BC
330
1D93
100
AcDbDictionary
280
     1
281
     1
  3
ACAD_XREC_ROUNDTRIP
360
531BD
  0
DICTIONARY
  5
531BE
330
1D94
100
AcDbDictionary
280
     1
281
     1
  3
ACAD_XREC_ROUNDTRIP
360
531BF
  0
DICTIONARY
  5
531C0
330
1D95
100
AcDbDictionary
280
     1
281
     1
  3
ACAD_XREC_ROUNDTRIP
360
531C1
  0
DICTIONARY
  5
531C2
330
1D96
100
AcDbDictionary
280
     1
281
     1
  3
ACAD_XREC_ROUNDTRIP
360
531C3
  0
DICTIONARY
  5
531E4
330
A3B8
100
AcDbDictionary
280
     1
281
     1
  3
ACAD_XREC_ROUNDTRIP
360
531E5
  0
DICTIONARY
  5
531DC
330
58C9
100
AcDbDictionary
280
     1
281
     1
  3
ACAD_XREC_ROUNDTRIP
360
531DD
  0
DICTIONARY
  5
531D6
330
1DA0
100
AcDbDictionary
280
     1
281
     1
  3
ACAD_XREC_ROUNDTRIP
360
531D7
  0
DICTIONARY
  5
531DE
330
58CA
100
AcDbDictionary
280
     1
281
     1
  3
ACAD_XREC_ROUNDTRIP
360
531DF
  0
DICTIONARY
  5
531CE
330
1D9C
100
AcDbDictionary
280
     1
281
     1
  3
ACAD_XREC_ROUNDTRIP
360
531CF
  0
DICTIONARY
  5
531EE
330
A3BD
100
AcDbDictionary
280
     1
281
     1
  3
ACAD_XREC_ROUNDTRIP
360
531EF
  0
DICTIONARY
  5
531EC
330
A3BC
100
AcDbDictionary
280
     1
281
     1
  3
ACAD_XREC_ROUNDTRIP
360
531ED
  0
DICTIONARY
  5
531E6
330
A3B9
100
AcDbDictionary
280
     1
281
     1
  3
ACAD_XREC_ROUNDTRIP
360
531E7
  0
DICTIONARY
  5
531E8
330
A3BA
100
AcDbDictionary
280
     1
281
     1
  3
ACAD_XREC_ROUNDTRIP
360
531E9
  0
DICTIONARY
  5
531D4
330
1D9F
100
AcDbDictionary
280
     1
281
     1
  3
ACAD_XREC_ROUNDTRIP
360
531D5
  0
DICTIONARY
  5
531E2
330
A3B7
100
AcDbDictionary
280
     1
281
     1
  3
ACAD_XREC_ROUNDTRIP
360
531E3
  0
DICTIONARY
  5
531EA
330
A3BB
100
AcDbDictionary
280
     1
281
     1
  3
ACAD_XREC_ROUNDTRIP
360
531EB
  0
XRECORD
  5
531B4
102
{ACAD_REACTORS
330
531BA
102
}
330
531BA
100
AcDbXrecord
280
     1
  1
AcDb_Thumbnail_Schema
102
{ATTRRECORD
341
531B5
  2
AcDbDs::TreatedAsObjectData
280
     1
291
     1
102
ATTRRECORD}
102
{ATTRRECORD
341
531B6
  2
AcDbDs::Legacy
280
     1
291
     1
102
ATTRRECORD}
  2
AcDbDs::ID
280
    10
 91
        8
102
{ATTRRECORD
341
531B7
  2
AcDs:Indexable
280
     1
291
     1
102
ATTRRECORD}
102
{ATTRRECORD
341
531B8
  2
AcDbDs::HandleAttribute
280
     7
282
     1
102
ATTRRECORD}
  2
Thumbnail_Data
280
    15
 91
        0
  0
XRECORD
  5
531B5
102
{ACAD_REACTORS
330
531BA
102
}
330
531BA
100
AcDbXrecord
280
     1
  1
AcDbDs::TreatedAsObjectDataSchema
  2
AcDbDs::TreatedAsObjectData
280
     1
 91
        0
  0
XRECORD
  5
531B6
102
{ACAD_REACTORS
330
531BA
102
}
330
531BA
100
AcDbXrecord
280
     1
  1
AcDbDs::LegacySchema
  2
AcDbDs::Legacy
280
     1
 91
        0
  0
XRECORD
  5
531B7
102
{ACAD_REACTORS
330
531BA
102
}
330
531BA
100
AcDbXrecord
280
     1
  1
AcDbDs::IndexedPropertySchema
  2
AcDs:Indexable
280
     1
 91
        0
  0
XRECORD
  5
531B8
102
{ACAD_REACTORS
330
531BA
102
}
330
531BA
100
AcDbXrecord
280
     1
  1
AcDbDs::HandleAttributeSchema
  2
AcDbDs::HandleAttribute
280
     7
 91
        1
284
     1
  0
XRECORD
  5
531F1
102
{ACAD_REACTORS
330
531A5
102
}
330
531A5
100
AcDbXrecord
280
     1
102
DISPLAYNAME
  1
Metric50
102
FLAGS
 90
        0
  0
XRECORD
  5
531F0
102
{ACAD_REACTORS
330
531A3
102
}
330
531A3
100
AcDbXrecord
280
     1
102
DISPLAYNAME
  1
Metric50
102
FLAGS
 90
        0
  0
CELLSTYLEMAP
  5
531B2
102
{ACAD_REACTORS
330
2563
102
}
330
2563
100
AcDbCellStyleMap
 90
        3
300
CELLSTYLE
  1
TABLEFORMAT_BEGIN
 90
        5
170
     1
 91
        0
 92
    32768
 62
   257
 93
        1
300
CONTENTFORMAT
  1
CONTENTFORMAT_BEGIN
 90
        0
 91
        0
 92
        4
 93
        0
300

 40
0.0
140
1.0
 94
        5
 62
     0
340
11
144
6.0
309
CONTENTFORMAT_END
171
     1
301
MARGIN
  1
CELLMARGIN_BEGIN
 40
1.5
 40
1.5
 40
1.5
 40
1.5
 40
0.18
 40
0.18
309
CELLMARGIN_END
 94
        6
 95
        1
302
GRIDFORMAT
  1
GRIDFORMAT_BEGIN
 90
        0
 91
        1
 62
     0
 92
       -2
340
0
 93
        0
 40
0.045
309
GRIDFORMAT_END
 95
        2
302
GRIDFORMAT
  1
GRIDFORMAT_BEGIN
 90
        0
 91
        1
 62
     0
 92
       -2
340
0
 93
        0
 40
0.045
309
GRIDFORMAT_END
 95
        4
302
GRIDFORMAT
  1
GRIDFORMAT_BEGIN
 90
        0
 91
        1
 62
     0
 92
       -2
340
0
 93
        0
 40
0.045
309
GRIDFORMAT_END
 95
        8
302
GRIDFORMAT
  1
GRIDFORMAT_BEGIN
 90
        0
 91
        1
 62
     0
 92
       -2
340
0
 93
        0
 40
0.045
309
GRIDFORMAT_END
 95
       16
302
GRIDFORMAT
  1
GRIDFORMAT_BEGIN
 90
        0
 91
        1
 62
     0
 92
       -2
340
0
 93
        0
 40
0.045
309
GRIDFORMAT_END
 95
       32
302
GRIDFORMAT
  1
GRIDFORMAT_BEGIN
 90
        0
 91
        1
 62
     0
 92
       -2
340
0
 93
        0
 40
0.045
309
GRIDFORMAT_END
309
TABLEFORMAT_END
  1
CELLSTYLE_BEGIN
 90
        1
 91
        1
300
_TITLE
309
CELLSTYLE_END
300
CELLSTYLE
  1
TABLEFORMAT_BEGIN
 90
        5
170
     1
 91
        0
 92
        0
 62
   257
 93
        1
300
CONTENTFORMAT
  1
CONTENTFORMAT_BEGIN
 90
        0
 91
        0
 92
        4
 93
        0
300

 40
0.0
140
1.0
 94
        5
 62
     0
340
11
144
4.5
309
CONTENTFORMAT_END
171
     1
301
MARGIN
  1
CELLMARGIN_BEGIN
 40
1.5
 40
1.5
 40
1.5
 40
1.5
 40
0.18
 40
0.18
309
CELLMARGIN_END
 94
        6
 95
        1
302
GRIDFORMAT
  1
GRIDFORMAT_BEGIN
 90
        0
 91
        1
 62
     0
 92
       -2
340
0
 93
        0
 40
0.045
309
GRIDFORMAT_END
 95
        2
302
GRIDFORMAT
  1
GRIDFORMAT_BEGIN
 90
        0
 91
        1
 62
     0
 92
       -2
340
0
 93
        0
 40
0.045
309
GRIDFORMAT_END
 95
        4
302
GRIDFORMAT
  1
GRIDFORMAT_BEGIN
 90
        0
 91
        1
 62
     0
 92
       -2
340
0
 93
        0
 40
0.045
309
GRIDFORMAT_END
 95
        8
302
GRIDFORMAT
  1
GRIDFORMAT_BEGIN
 90
        0
 91
        1
 62
     0
 92
       -2
340
0
 93
        0
 40
0.045
309
GRIDFORMAT_END
 95
       16
302
GRIDFORMAT
  1
GRIDFORMAT_BEGIN
 90
        0
 91
        1
 62
     0
 92
       -2
340
0
 93
        0
 40
0.045
309
GRIDFORMAT_END
 95
       32
302
GRIDFORMAT
  1
GRIDFORMAT_BEGIN
 90
        0
 91
        1
 62
     0
 92
       -2
340
0
 93
        0
 40
0.045
309
GRIDFORMAT_END
309
TABLEFORMAT_END
  1
CELLSTYLE_BEGIN
 90
        2
 91
        1
300
_HEADER
309
CELLSTYLE_END
300
CELLSTYLE
  1
TABLEFORMAT_BEGIN
 90
        5
170
     1
 91
        0
 92
        0
 62
   257
 93
        1
300
CONTENTFORMAT
  1
CONTENTFORMAT_BEGIN
 90
        0
 91
        0
 92
        4
 93
        0
300

 40
0.0
140
1.0
 94
        2
 62
     0
340
11
144
4.5
309
CONTENTFORMAT_END
171
     1
301
MARGIN
  1
CELLMARGIN_BEGIN
 40
1.5
 40
1.5
 40
1.5
 40
1.5
 40
0.18
 40
0.18
309
CELLMARGIN_END
 94
        6
 95
        1
302
GRIDFORMAT
  1
GRIDFORMAT_BEGIN
 90
        0
 91
        1
 62
     0
 92
       -2
340
0
 93
        0
 40
0.045
309
GRIDFORMAT_END
 95
        2
302
GRIDFORMAT
  1
GRIDFORMAT_BEGIN
 90
        0
 91
        1
 62
     0
 92
       -2
340
0
 93
        0
 40
0.045
309
GRIDFORMAT_END
 95
        4
302
GRIDFORMAT
  1
GRIDFORMAT_BEGIN
 90
        0
 91
        1
 62
     0
 92
       -2
340
0
 93
        0
 40
0.045
309
GRIDFORMAT_END
 95
        8
302
GRIDFORMAT
  1
GRIDFORMAT_BEGIN
 90
        0
 91
        1
 62
     0
 92
       -2
340
0
 93
        0
 40
0.045
309
GRIDFORMAT_END
 95
       16
302
GRIDFORMAT
  1
GRIDFORMAT_BEGIN
 90
        0
 91
        1
 62
     0
 92
       -2
340
0
 93
        0
 40
0.045
309
GRIDFORMAT_END
 95
       32
302
GRIDFORMAT
  1
GRIDFORMAT_BEGIN
 90
        0
 91
        1
 62
     0
 92
       -2
340
0
 93
        0
 40
0.045
309
GRIDFORMAT_END
309
TABLEFORMAT_END
  1
CELLSTYLE_BEGIN
 90
        3
 91
        2
300
_DATA
309
CELLSTYLE_END
  0
XRECORD
  5
531C7
102
{ACAD_REACTORS
330
531C6
102
}
330
531C6
100
AcDbXrecord
280
     1
102
RTVSPost2010Prop28
280
     1
102
RTVSPost2010PropOp28
 70
     1
102
RTVSPost2010Prop29
280
     1
102
RTVSPost2010PropOp29
 70
     1
102
RTVSPost2010Prop30
280
     0
102
RTVSPost2010PropOp30
 70
     1
102
RTVSPost2010Prop31
280
     0
102
RTVSPost2010PropOp31
 70
     1
102
RTVSPost2010Prop32
280
     0
102
RTVSPost2010PropOp32
 70
     1
102
RTVSPost2010Prop33
280
     0
102
RTVSPost2010PropOp33
 70
     1
102
RTVSPost2010Prop34
280
     0
102
RTVSPost2010PropOp34
 70
     1
102
RTVSPost2010Prop35
280
     0
102
RTVSPost2010PropOp35
 70
     1
102
RTVSPost2010Prop36
280
     0
102
RTVSPost2010PropOp36
 70
     1
102
RTVSPost2010Prop37
 90
       50
102
RTVSPost2010PropOp37
 70
     1
102
RTVSPost2010Prop38
140
0.0
102
RTVSPost2010PropOp38
 70
     1
102
RTVSPost2010Prop39
140
1.0
102
RTVSPost2010PropOp39
 70
     1
102
RTVSPost2010Prop40
 90
        0
102
RTVSPost2010PropOp40
 70
     1
102
RTVSPost2010Prop41ColorIndex
 90
       18
102
RTVSPost2010Prop41ColorRGB
 90
        0
102
RTVSPost2010PropOp41
 70
     1
102
RTVSPost2010Prop42
 90
       50
102
RTVSPost2010PropOp42
 70
     1
102
RTVSPost2010Prop43
 90
        3
102
RTVSPost2010PropOp43
 70
     1
102
RTVSPost2010Prop44ColorIndex
 90
        5
102
RTVSPost2010Prop44ColorRGB
 90
      255
102
RTVSPost2010PropOp44
 70
     1
102
RTVSPost2010Prop45
280
     0
102
RTVSPost2010PropOp45
 70
     1
102
RTVSPost2010Prop46
 90
       50
102
RTVSPost2010PropOp46
 70
     1
102
RTVSPost2010Prop47
 90
       50
102
RTVSPost2010PropOp47
 70
     1
102
RTVSPost2010Prop48
 90
       50
102
RTVSPost2010PropOp48
 70
     1
102
RTVSPost2010Prop49
280
     0
102
RTVSPost2010PropOp49
 70
     1
102
RTVSPost2010Prop50
 90
       50
102
RTVSPost2010PropOp50
 70
     1
102
RTVSPost2010Prop51ColorIndex
 90
      256
102
RTVSPost2010Prop51ColorRGB
 90
-16777216
102
RTVSPost2010PropOp51
 70
     0
102
RTVSPost2010Prop52
140
1.0
102
RTVSPost2010PropOp52
 70
     0
102
RTVSPost2010Prop53
 90
        2
102
RTVSPost2010PropOp53
 70
     1
102
RTVSPost2010Prop54
  1
strokes_ogs.tif
102
RTVSPost2010PropOp54
 70
     1
102
RTVSPost2010Prop55
280
     0
102
RTVSPost2010PropOp55
 70
     1
102
RTVSPost2010Prop56
140
1.0
102
RTVSPost2010PropOp56
 70
     1
102
RTVSPost2010Prop57
140
1.0
102
RTVSPost2010PropOp57
 70
     1
  0
XRECORD
  5
531CB
102
{ACAD_REACTORS
330
531CA
102
}
330
531CA
100
AcDbXrecord
280
     1
102
RTVSPost2010Prop28
280
     0
102
RTVSPost2010PropOp28
 70
     1
102
RTVSPost2010Prop29
280
     1
102
RTVSPost2010PropOp29
 70
     1
102
RTVSPost2010Prop30
280
     1
102
RTVSPost2010PropOp30
 70
     1
102
RTVSPost2010Prop31
280
     0
102
RTVSPost2010PropOp31
 70
     1
102
RTVSPost2010Prop32
280
     0
102
RTVSPost2010PropOp32
 70
     1
102
RTVSPost2010Prop33
280
     0
102
RTVSPost2010PropOp33
 70
     1
102
RTVSPost2010Prop34
280
     0
102
RTVSPost2010PropOp34
 70
     1
102
RTVSPost2010Prop35
280
     0
102
RTVSPost2010PropOp35
 70
     1
102
RTVSPost2010Prop36
280
     0
102
RTVSPost2010PropOp36
 70
     1
102
RTVSPost2010Prop37
 90
       50
102
RTVSPost2010PropOp37
 70
     1
102
RTVSPost2010Prop38
140
0.0
102
RTVSPost2010PropOp38
 70
     1
102
RTVSPost2010Prop39
140
1.0
102
RTVSPost2010PropOp39
 70
     1
102
RTVSPost2010Prop40
 90
        0
102
RTVSPost2010PropOp40
 70
     1
102
RTVSPost2010Prop41ColorIndex
 90
       18
102
RTVSPost2010Prop41ColorRGB
 90
        0
102
RTVSPost2010PropOp41
 70
     1
102
RTVSPost2010Prop42
 90
       50
102
RTVSPost2010PropOp42
 70
     1
102
RTVSPost2010Prop43
 90
        3
102
RTVSPost2010PropOp43
 70
     1
102
RTVSPost2010Prop44ColorIndex
 90
        5
102
RTVSPost2010Prop44ColorRGB
 90
      255
102
RTVSPost2010PropOp44
 70
     1
102
RTVSPost2010Prop45
280
     0
102
RTVSPost2010PropOp45
 70
     1
102
RTVSPost2010Prop46
 90
       50
102
RTVSPost2010PropOp46
 70
     1
102
RTVSPost2010Prop47
 90
       50
102
RTVSPost2010PropOp47
 70
     1
102
RTVSPost2010Prop48
 90
       50
102
RTVSPost2010PropOp48
 70
     1
102
RTVSPost2010Prop49
280
     0
102
RTVSPost2010PropOp49
 70
     1
102
RTVSPost2010Prop50
 90
       50
102
RTVSPost2010PropOp50
 70
     1
102
RTVSPost2010Prop51ColorIndex
 90
      256
102
RTVSPost2010Prop51ColorRGB
 90
-16777216
102
RTVSPost2010PropOp51
 70
     0
102
RTVSPost2010Prop52
140
1.0
102
RTVSPost2010PropOp52
 70
     0
102
RTVSPost2010Prop53
 90
        2
102
RTVSPost2010PropOp53
 70
     1
102
RTVSPost2010Prop54
  1
strokes_ogs.tif
102
RTVSPost2010PropOp54
 70
     1
102
RTVSPost2010Prop55
280
     0
102
RTVSPost2010PropOp55
 70
     1
102
RTVSPost2010Prop56
140
1.0
102
RTVSPost2010PropOp56
 70
     1
102
RTVSPost2010Prop57
140
1.0
102
RTVSPost2010PropOp57
 70
     1
  0
XRECORD
  5
531C9
102
{ACAD_REACTORS
330
531C8
102
}
330
531C8
100
AcDbXrecord
280
     1
102
RTVSPost2010Prop28
280
     0
102
RTVSPost2010PropOp28
 70
     1
102
RTVSPost2010Prop29
280
     1
102
RTVSPost2010PropOp29
 70
     1
102
RTVSPost2010Prop30
280
     1
102
RTVSPost2010PropOp30
 70
     1
102
RTVSPost2010Prop31
280
     0
102
RTVSPost2010PropOp31
 70
     1
102
RTVSPost2010Prop32
280
     0
102
RTVSPost2010PropOp32
 70
     1
102
RTVSPost2010Prop33
280
     0
102
RTVSPost2010PropOp33
 70
     1
102
RTVSPost2010Prop34
280
     0
102
RTVSPost2010PropOp34
 70
     1
102
RTVSPost2010Prop35
280
     0
102
RTVSPost2010PropOp35
 70
     1
102
RTVSPost2010Prop36
280
     0
102
RTVSPost2010PropOp36
 70
     1
102
RTVSPost2010Prop37
 90
       50
102
RTVSPost2010PropOp37
 70
     1
102
RTVSPost2010Prop38
140
0.0
102
RTVSPost2010PropOp38
 70
     1
102
RTVSPost2010Prop39
140
1.0
102
RTVSPost2010PropOp39
 70
     1
102
RTVSPost2010Prop40
 90
        0
102
RTVSPost2010PropOp40
 70
     1
102
RTVSPost2010Prop41ColorIndex
 90
       18
102
RTVSPost2010Prop41ColorRGB
 90
        0
102
RTVSPost2010PropOp41
 70
     1
102
RTVSPost2010Prop42
 90
       50
102
RTVSPost2010PropOp42
 70
     1
102
RTVSPost2010Prop43
 90
        3
102
RTVSPost2010PropOp43
 70
     1
102
RTVSPost2010Prop44ColorIndex
 90
        5
102
RTVSPost2010Prop44ColorRGB
 90
      255
102
RTVSPost2010PropOp44
 70
     1
102
RTVSPost2010Prop45
280
     0
102
RTVSPost2010PropOp45
 70
     1
102
RTVSPost2010Prop46
 90
       50
102
RTVSPost2010PropOp46
 70
     1
102
RTVSPost2010Prop47
 90
       50
102
RTVSPost2010PropOp47
 70
     1
102
RTVSPost2010Prop48
 90
       50
102
RTVSPost2010PropOp48
 70
     1
102
RTVSPost2010Prop49
280
     0
102
RTVSPost2010PropOp49
 70
     1
102
RTVSPost2010Prop50
 90
       50
102
RTVSPost2010PropOp50
 70
     1
102
RTVSPost2010Prop51ColorIndex
 90
      256
102
RTVSPost2010Prop51ColorRGB
 90
-16777216
102
RTVSPost2010PropOp51
 70
     0
102
RTVSPost2010Prop52
140
1.0
102
RTVSPost2010PropOp52
 70
     0
102
RTVSPost2010Prop53
 90
        2
102
RTVSPost2010PropOp53
 70
     1
102
RTVSPost2010Prop54
  1
strokes_ogs.tif
102
RTVSPost2010PropOp54
 70
     1
102
RTVSPost2010Prop55
280
     0
102
RTVSPost2010PropOp55
 70
     1
102
RTVSPost2010Prop56
140
1.0
102
RTVSPost2010PropOp56
 70
     1
102
RTVSPost2010Prop57
140
1.0
102
RTVSPost2010PropOp57
 70
     1
  0
XRECORD
  5
531C5
102
{ACAD_REACTORS
330
531C4
102
}
330
531C4
100
AcDbXrecord
280
     1
102
RTVSPost2010Prop28
280
     0
102
RTVSPost2010PropOp28
 70
     1
102
RTVSPost2010Prop29
280
     1
102
RTVSPost2010PropOp29
 70
     1
102
RTVSPost2010Prop30
280
     1
102
RTVSPost2010PropOp30
 70
     1
102
RTVSPost2010Prop31
280
     0
102
RTVSPost2010PropOp31
 70
     1
102
RTVSPost2010Prop32
280
     0
102
RTVSPost2010PropOp32
 70
     1
102
RTVSPost2010Prop33
280
     0
102
RTVSPost2010PropOp33
 70
     1
102
RTVSPost2010Prop34
280
     0
102
RTVSPost2010PropOp34
 70
     1
102
RTVSPost2010Prop35
280
     0
102
RTVSPost2010PropOp35
 70
     1
102
RTVSPost2010Prop36
280
     0
102
RTVSPost2010PropOp36
 70
     1
102
RTVSPost2010Prop37
 90
       50
102
RTVSPost2010PropOp37
 70
     1
102
RTVSPost2010Prop38
140
0.0
102
RTVSPost2010PropOp38
 70
     1
102
RTVSPost2010Prop39
140
1.0
102
RTVSPost2010PropOp39
 70
     1
102
RTVSPost2010Prop40
 90
        0
102
RTVSPost2010PropOp40
 70
     1
102
RTVSPost2010Prop41ColorIndex
 90
       18
102
RTVSPost2010Prop41ColorRGB
 90
        0
102
RTVSPost2010PropOp41
 70
     1
102
RTVSPost2010Prop42
 90
       50
102
RTVSPost2010PropOp42
 70
     1
102
RTVSPost2010Prop43
 90
        3
102
RTVSPost2010PropOp43
 70
     1
102
RTVSPost2010Prop44ColorIndex
 90
        5
102
RTVSPost2010Prop44ColorRGB
 90
      255
102
RTVSPost2010PropOp44
 70
     1
102
RTVSPost2010Prop45
280
     0
102
RTVSPost2010PropOp45
 70
     1
102
RTVSPost2010Prop46
 90
       50
102
RTVSPost2010PropOp46
 70
     1
102
RTVSPost2010Prop47
 90
       50
102
RTVSPost2010PropOp47
 70
     1
102
RTVSPost2010Prop48
 90
       50
102
RTVSPost2010PropOp48
 70
     1
102
RTVSPost2010Prop49
280
     0
102
RTVSPost2010PropOp49
 70
     1
102
RTVSPost2010Prop50
 90
       50
102
RTVSPost2010PropOp50
 70
     1
102
RTVSPost2010Prop51ColorIndex
 90
      256
102
RTVSPost2010Prop51ColorRGB
 90
-16777216
102
RTVSPost2010PropOp51
 70
     0
102
RTVSPost2010Prop52
140
1.0
102
RTVSPost2010PropOp52
 70
     0
102
RTVSPost2010Prop53
 90
        2
102
RTVSPost2010PropOp53
 70
     1
102
RTVSPost2010Prop54
  1
strokes_ogs.tif
102
RTVSPost2010PropOp54
 70
     1
102
RTVSPost2010Prop55
280
     0
102
RTVSPost2010PropOp55
 70
     1
102
RTVSPost2010Prop56
140
1.0
102
RTVSPost2010PropOp56
 70
     1
102
RTVSPost2010Prop57
140
1.0
102
RTVSPost2010PropOp57
 70
     1
  0
XRECORD
  5
531D3
102
{ACAD_REACTORS
330
531D2
102
}
330
531D2
100
AcDbXrecord
280
     1
102
RTVSPost2010Prop28
280
     0
102
RTVSPost2010PropOp28
 70
     1
102
RTVSPost2010Prop29
280
     1
102
RTVSPost2010PropOp29
 70
     1
102
RTVSPost2010Prop30
280
     1
102
RTVSPost2010PropOp30
 70
     1
102
RTVSPost2010Prop31
280
     0
102
RTVSPost2010PropOp31
 70
     1
102
RTVSPost2010Prop32
280
     0
102
RTVSPost2010PropOp32
 70
     1
102
RTVSPost2010Prop33
280
     0
102
RTVSPost2010PropOp33
 70
     1
102
RTVSPost2010Prop34
280
     0
102
RTVSPost2010PropOp34
 70
     1
102
RTVSPost2010Prop35
280
     0
102
RTVSPost2010PropOp35
 70
     1
102
RTVSPost2010Prop36
280
     0
102
RTVSPost2010PropOp36
 70
     1
102
RTVSPost2010Prop37
 90
       50
102
RTVSPost2010PropOp37
 70
     1
102
RTVSPost2010Prop38
140
0.0
102
RTVSPost2010PropOp38
 70
     1
102
RTVSPost2010Prop39
140
1.0
102
RTVSPost2010PropOp39
 70
     1
102
RTVSPost2010Prop40
 90
        0
102
RTVSPost2010PropOp40
 70
     1
102
RTVSPost2010Prop41ColorIndex
 90
       18
102
RTVSPost2010Prop41ColorRGB
 90
        0
102
RTVSPost2010PropOp41
 70
     1
102
RTVSPost2010Prop42
 90
       50
102
RTVSPost2010PropOp42
 70
     1
102
RTVSPost2010Prop43
 90
        3
102
RTVSPost2010PropOp43
 70
     1
102
RTVSPost2010Prop44ColorIndex
 90
        5
102
RTVSPost2010Prop44ColorRGB
 90
      255
102
RTVSPost2010PropOp44
 70
     1
102
RTVSPost2010Prop45
280
     0
102
RTVSPost2010PropOp45
 70
     1
102
RTVSPost2010Prop46
 90
       50
102
RTVSPost2010PropOp46
 70
     1
102
RTVSPost2010Prop47
 90
       50
102
RTVSPost2010PropOp47
 70
     1
102
RTVSPost2010Prop48
 90
       50
102
RTVSPost2010PropOp48
 70
     1
102
RTVSPost2010Prop49
280
     0
102
RTVSPost2010PropOp49
 70
     1
102
RTVSPost2010Prop50
 90
       50
102
RTVSPost2010PropOp50
 70
     1
102
RTVSPost2010Prop51ColorIndex
 90
      256
102
RTVSPost2010Prop51ColorRGB
 90
-16777216
102
RTVSPost2010PropOp51
 70
     0
102
RTVSPost2010Prop52
140
1.0
102
RTVSPost2010PropOp52
 70
     0
102
RTVSPost2010Prop53
 90
        2
102
RTVSPost2010PropOp53
 70
     1
102
RTVSPost2010Prop54
  1
strokes_ogs.tif
102
RTVSPost2010PropOp54
 70
     1
102
RTVSPost2010Prop55
280
     0
102
RTVSPost2010PropOp55
 70
     1
102
RTVSPost2010Prop56
140
1.0
102
RTVSPost2010PropOp56
 70
     1
102
RTVSPost2010Prop57
140
1.0
102
RTVSPost2010PropOp57
 70
     1
  0
XRECORD
  5
531DB
102
{ACAD_REACTORS
330
531DA
102
}
330
531DA
100
AcDbXrecord
280
     1
102
RTVSPost2010Prop28
280
     0
102
RTVSPost2010PropOp28
 70
     1
102
RTVSPost2010Prop29
280
     1
102
RTVSPost2010PropOp29
 70
     1
102
RTVSPost2010Prop30
280
     1
102
RTVSPost2010PropOp30
 70
     1
102
RTVSPost2010Prop31
280
     0
102
RTVSPost2010PropOp31
 70
     1
102
RTVSPost2010Prop32
280
     0
102
RTVSPost2010PropOp32
 70
     1
102
RTVSPost2010Prop33
280
     0
102
RTVSPost2010PropOp33
 70
     1
102
RTVSPost2010Prop34
280
     0
102
RTVSPost2010PropOp34
 70
     1
102
RTVSPost2010Prop35
280
     0
102
RTVSPost2010PropOp35
 70
     1
102
RTVSPost2010Prop36
280
     0
102
RTVSPost2010PropOp36
 70
     1
102
RTVSPost2010Prop37
 90
       50
102
RTVSPost2010PropOp37
 70
     1
102
RTVSPost2010Prop38
140
0.0
102
RTVSPost2010PropOp38
 70
     1
102
RTVSPost2010Prop39
140
1.0
102
RTVSPost2010PropOp39
 70
     1
102
RTVSPost2010Prop40
 90
        0
102
RTVSPost2010PropOp40
 70
     1
102
RTVSPost2010Prop41ColorIndex
 90
       18
102
RTVSPost2010Prop41ColorRGB
 90
        0
102
RTVSPost2010PropOp41
 70
     1
102
RTVSPost2010Prop42
 90
       50
102
RTVSPost2010PropOp42
 70
     1
102
RTVSPost2010Prop43
 90
        3
102
RTVSPost2010PropOp43
 70
     1
102
RTVSPost2010Prop44ColorIndex
 90
        5
102
RTVSPost2010Prop44ColorRGB
 90
      255
102
RTVSPost2010PropOp44
 70
     1
102
RTVSPost2010Prop45
280
     0
102
RTVSPost2010PropOp45
 70
     1
102
RTVSPost2010Prop46
 90
       50
102
RTVSPost2010PropOp46
 70
     1
102
RTVSPost2010Prop47
 90
       50
102
RTVSPost2010PropOp47
 70
     1
102
RTVSPost2010Prop48
 90
       50
102
RTVSPost2010PropOp48
 70
     1
102
RTVSPost2010Prop49
280
     0
102
RTVSPost2010PropOp49
 70
     1
102
RTVSPost2010Prop50
 90
       50
102
RTVSPost2010PropOp50
 70
     1
102
RTVSPost2010Prop51ColorIndex
 90
      256
102
RTVSPost2010Prop51ColorRGB
 90
-16777216
102
RTVSPost2010PropOp51
 70
     0
102
RTVSPost2010Prop52
140
1.0
102
RTVSPost2010PropOp52
 70
     0
102
RTVSPost2010Prop53
 90
        2
102
RTVSPost2010PropOp53
 70
     1
102
RTVSPost2010Prop54
  1
strokes_ogs.tif
102
RTVSPost2010PropOp54
 70
     1
102
RTVSPost2010Prop55
280
     0
102
RTVSPost2010PropOp55
 70
     1
102
RTVSPost2010Prop56
140
1.0
102
RTVSPost2010PropOp56
 70
     1
102
RTVSPost2010Prop57
140
1.0
102
RTVSPost2010PropOp57
 70
     1
  0
XRECORD
  5
531CD
102
{ACAD_REACTORS
330
531CC
102
}
330
531CC
100
AcDbXrecord
280
     1
102
RTVSPost2010Prop28
280
     0
102
RTVSPost2010PropOp28
 70
     1
102
RTVSPost2010Prop29
280
     1
102
RTVSPost2010PropOp29
 70
     1
102
RTVSPost2010Prop30
280
     1
102
RTVSPost2010PropOp30
 70
     1
102
RTVSPost2010Prop31
280
     0
102
RTVSPost2010PropOp31
 70
     1
102
RTVSPost2010Prop32
280
     0
102
RTVSPost2010PropOp32
 70
     1
102
RTVSPost2010Prop33
280
     0
102
RTVSPost2010PropOp33
 70
     1
102
RTVSPost2010Prop34
280
     0
102
RTVSPost2010PropOp34
 70
     1
102
RTVSPost2010Prop35
280
     0
102
RTVSPost2010PropOp35
 70
     1
102
RTVSPost2010Prop36
280
     0
102
RTVSPost2010PropOp36
 70
     1
102
RTVSPost2010Prop37
 90
       50
102
RTVSPost2010PropOp37
 70
     1
102
RTVSPost2010Prop38
140
0.0
102
RTVSPost2010PropOp38
 70
     1
102
RTVSPost2010Prop39
140
1.0
102
RTVSPost2010PropOp39
 70
     1
102
RTVSPost2010Prop40
 90
        0
102
RTVSPost2010PropOp40
 70
     1
102
RTVSPost2010Prop41ColorIndex
 90
       18
102
RTVSPost2010Prop41ColorRGB
 90
        0
102
RTVSPost2010PropOp41
 70
     1
102
RTVSPost2010Prop42
 90
       50
102
RTVSPost2010PropOp42
 70
     1
102
RTVSPost2010Prop43
 90
        3
102
RTVSPost2010PropOp43
 70
     1
102
RTVSPost2010Prop44ColorIndex
 90
        5
102
RTVSPost2010Prop44ColorRGB
 90
      255
102
RTVSPost2010PropOp44
 70
     1
102
RTVSPost2010Prop45
280
     0
102
RTVSPost2010PropOp45
 70
     1
102
RTVSPost2010Prop46
 90
       50
102
RTVSPost2010PropOp46
 70
     1
102
RTVSPost2010Prop47
 90
       50
102
RTVSPost2010PropOp47
 70
     1
102
RTVSPost2010Prop48
 90
       50
102
RTVSPost2010PropOp48
 70
     1
102
RTVSPost2010Prop49
280
     0
102
RTVSPost2010PropOp49
 70
     1
102
RTVSPost2010Prop50
 90
       50
102
RTVSPost2010PropOp50
 70
     1
102
RTVSPost2010Prop51ColorIndex
 90
      256
102
RTVSPost2010Prop51ColorRGB
 90
-16777216
102
RTVSPost2010PropOp51
 70
     0
102
RTVSPost2010Prop52
140
1.0
102
RTVSPost2010PropOp52
 70
     0
102
RTVSPost2010Prop53
 90
        2
102
RTVSPost2010PropOp53
 70
     1
102
RTVSPost2010Prop54
  1
strokes_ogs.tif
102
RTVSPost2010PropOp54
 70
     1
102
RTVSPost2010Prop55
280
     0
102
RTVSPost2010PropOp55
 70
     1
102
RTVSPost2010Prop56
140
1.0
102
RTVSPost2010PropOp56
 70
     1
102
RTVSPost2010Prop57
140
1.0
102
RTVSPost2010PropOp57
 70
     1
  0
XRECORD
  5
531D1
102
{ACAD_REACTORS
330
531D0
102
}
330
531D0
100
AcDbXrecord
280
     1
102
RTVSPost2010Prop28
280
     0
102
RTVSPost2010PropOp28
 70
     1
102
RTVSPost2010Prop29
280
     1
102
RTVSPost2010PropOp29
 70
     1
102
RTVSPost2010Prop30
280
     1
102
RTVSPost2010PropOp30
 70
     1
102
RTVSPost2010Prop31
280
     0
102
RTVSPost2010PropOp31
 70
     1
102
RTVSPost2010Prop32
280
     0
102
RTVSPost2010PropOp32
 70
     1
102
RTVSPost2010Prop33
280
     0
102
RTVSPost2010PropOp33
 70
     1
102
RTVSPost2010Prop34
280
     0
102
RTVSPost2010PropOp34
 70
     1
102
RTVSPost2010Prop35
280
     0
102
RTVSPost2010PropOp35
 70
     1
102
RTVSPost2010Prop36
280
     0
102
RTVSPost2010PropOp36
 70
     1
102
RTVSPost2010Prop37
 90
       50
102
RTVSPost2010PropOp37
 70
     1
102
RTVSPost2010Prop38
140
0.0
102
RTVSPost2010PropOp38
 70
     1
102
RTVSPost2010Prop39
140
1.0
102
RTVSPost2010PropOp39
 70
     1
102
RTVSPost2010Prop40
 90
        0
102
RTVSPost2010PropOp40
 70
     1
102
RTVSPost2010Prop41ColorIndex
 90
       18
102
RTVSPost2010Prop41ColorRGB
 90
        0
102
RTVSPost2010PropOp41
 70
     1
102
RTVSPost2010Prop42
 90
       50
102
RTVSPost2010PropOp42
 70
     1
102
RTVSPost2010Prop43
 90
        3
102
RTVSPost2010PropOp43
 70
     1
102
RTVSPost2010Prop44ColorIndex
 90
        5
102
RTVSPost2010Prop44ColorRGB
 90
      255
102
RTVSPost2010PropOp44
 70
     1
102
RTVSPost2010Prop45
280
     0
102
RTVSPost2010PropOp45
 70
     1
102
RTVSPost2010Prop46
 90
       50
102
RTVSPost2010PropOp46
 70
     1
102
RTVSPost2010Prop47
 90
       50
102
RTVSPost2010PropOp47
 70
     1
102
RTVSPost2010Prop48
 90
       50
102
RTVSPost2010PropOp48
 70
     1
102
RTVSPost2010Prop49
280
     0
102
RTVSPost2010PropOp49
 70
     1
102
RTVSPost2010Prop50
 90
       50
102
RTVSPost2010PropOp50
 70
     1
102
RTVSPost2010Prop51ColorIndex
 90
      256
102
RTVSPost2010Prop51ColorRGB
 90
-16777216
102
RTVSPost2010PropOp51
 70
     0
102
RTVSPost2010Prop52
140
1.0
102
RTVSPost2010PropOp52
 70
     0
102
RTVSPost2010Prop53
 90
        2
102
RTVSPost2010PropOp53
 70
     1
102
RTVSPost2010Prop54
  1
strokes_ogs.tif
102
RTVSPost2010PropOp54
 70
     1
102
RTVSPost2010Prop55
280
     0
102
RTVSPost2010PropOp55
 70
     1
102
RTVSPost2010Prop56
140
1.0
102
RTVSPost2010PropOp56
 70
     1
102
RTVSPost2010Prop57
140
1.0
102
RTVSPost2010PropOp57
 70
     1
  0
XRECORD
  5
531E1
102
{ACAD_REACTORS
330
531E0
102
}
330
531E0
100
AcDbXrecord
280
     1
102
RTVSPost2010Prop28
280
     0
102
RTVSPost2010PropOp28
 70
     1
102
RTVSPost2010Prop29
280
     1
102
RTVSPost2010PropOp29
 70
     1
102
RTVSPost2010Prop30
280
     1
102
RTVSPost2010PropOp30
 70
     1
102
RTVSPost2010Prop31
280
     0
102
RTVSPost2010PropOp31
 70
     1
102
RTVSPost2010Prop32
280
     0
102
RTVSPost2010PropOp32
 70
     1
102
RTVSPost2010Prop33
280
     0
102
RTVSPost2010PropOp33
 70
     1
102
RTVSPost2010Prop34
280
     0
102
RTVSPost2010PropOp34
 70
     1
102
RTVSPost2010Prop35
280
     0
102
RTVSPost2010PropOp35
 70
     1
102
RTVSPost2010Prop36
280
     0
102
RTVSPost2010PropOp36
 70
     1
102
RTVSPost2010Prop37
 90
       50
102
RTVSPost2010PropOp37
 70
     1
102
RTVSPost2010Prop38
140
0.0
102
RTVSPost2010PropOp38
 70
     1
102
RTVSPost2010Prop39
140
1.0
102
RTVSPost2010PropOp39
 70
     1
102
RTVSPost2010Prop40
 90
        0
102
RTVSPost2010PropOp40
 70
     1
102
RTVSPost2010Prop41ColorIndex
 90
       18
102
RTVSPost2010Prop41ColorRGB
 90
        0
102
RTVSPost2010PropOp41
 70
     1
102
RTVSPost2010Prop42
 90
       50
102
RTVSPost2010PropOp42
 70
     1
102
RTVSPost2010Prop43
 90
        3
102
RTVSPost2010PropOp43
 70
     1
102
RTVSPost2010Prop44ColorIndex
 90
        5
102
RTVSPost2010Prop44ColorRGB
 90
      255
102
RTVSPost2010PropOp44
 70
     1
102
RTVSPost2010Prop45
280
     0
102
RTVSPost2010PropOp45
 70
     1
102
RTVSPost2010Prop46
 90
       50
102
RTVSPost2010PropOp46
 70
     1
102
RTVSPost2010Prop47
 90
       50
102
RTVSPost2010PropOp47
 70
     1
102
RTVSPost2010Prop48
 90
       50
102
RTVSPost2010PropOp48
 70
     1
102
RTVSPost2010Prop49
280
     0
102
RTVSPost2010PropOp49
 70
     1
102
RTVSPost2010Prop50
 90
       50
102
RTVSPost2010PropOp50
 70
     1
102
RTVSPost2010Prop51ColorIndex
 90
      256
102
RTVSPost2010Prop51ColorRGB
 90
-16777216
102
RTVSPost2010PropOp51
 70
     0
102
RTVSPost2010Prop52
140
1.0
102
RTVSPost2010PropOp52
 70
     0
102
RTVSPost2010Prop53
 90
        2
102
RTVSPost2010PropOp53
 70
     1
102
RTVSPost2010Prop54
  1
strokes_ogs.tif
102
RTVSPost2010PropOp54
 70
     1
102
RTVSPost2010Prop55
280
     0
102
RTVSPost2010PropOp55
 70
     1
102
RTVSPost2010Prop56
140
1.0
102
RTVSPost2010PropOp56
 70
     1
102
RTVSPost2010Prop57
140
1.0
102
RTVSPost2010PropOp57
 70
     1
  0
XRECORD
  5
531D9
102
{ACAD_REACTORS
330
531D8
102
}
330
531D8
100
AcDbXrecord
280
     1
102
RTVSPost2010Prop28
280
     0
102
RTVSPost2010PropOp28
 70
     1
102
RTVSPost2010Prop29
280
     1
102
RTVSPost2010PropOp29
 70
     1
102
RTVSPost2010Prop30
280
     1
102
RTVSPost2010PropOp30
 70
     1
102
RTVSPost2010Prop31
280
     0
102
RTVSPost2010PropOp31
 70
     1
102
RTVSPost2010Prop32
280
     0
102
RTVSPost2010PropOp32
 70
     1
102
RTVSPost2010Prop33
280
     0
102
RTVSPost2010PropOp33
 70
     1
102
RTVSPost2010Prop34
280
     0
102
RTVSPost2010PropOp34
 70
     1
102
RTVSPost2010Prop35
280
     0
102
RTVSPost2010PropOp35
 70
     1
102
RTVSPost2010Prop36
280
     0
102
RTVSPost2010PropOp36
 70
     1
102
RTVSPost2010Prop37
 90
       50
102
RTVSPost2010PropOp37
 70
     1
102
RTVSPost2010Prop38
140
0.0
102
RTVSPost2010PropOp38
 70
     1
102
RTVSPost2010Prop39
140
1.0
102
RTVSPost2010PropOp39
 70
     1
102
RTVSPost2010Prop40
 90
        0
102
RTVSPost2010PropOp40
 70
     1
102
RTVSPost2010Prop41ColorIndex
 90
       18
102
RTVSPost2010Prop41ColorRGB
 90
        0
102
RTVSPost2010PropOp41
 70
     1
102
RTVSPost2010Prop42
 90
       50
102
RTVSPost2010PropOp42
 70
     1
102
RTVSPost2010Prop43
 90
        3
102
RTVSPost2010PropOp43
 70
     1
102
RTVSPost2010Prop44ColorIndex
 90
        5
102
RTVSPost2010Prop44ColorRGB
 90
      255
102
RTVSPost2010PropOp44
 70
     1
102
RTVSPost2010Prop45
280
     0
102
RTVSPost2010PropOp45
 70
     1
102
RTVSPost2010Prop46
 90
       50
102
RTVSPost2010PropOp46
 70
     1
102
RTVSPost2010Prop47
 90
       50
102
RTVSPost2010PropOp47
 70
     1
102
RTVSPost2010Prop48
 90
       50
102
RTVSPost2010PropOp48
 70
     1
102
RTVSPost2010Prop49
280
     0
102
RTVSPost2010PropOp49
 70
     1
102
RTVSPost2010Prop50
 90
       50
102
RTVSPost2010PropOp50
 70
     1
102
RTVSPost2010Prop51ColorIndex
 90
      256
102
RTVSPost2010Prop51ColorRGB
 90
-16777216
102
RTVSPost2010PropOp51
 70
     0
102
RTVSPost2010Prop52
140
1.0
102
RTVSPost2010PropOp52
 70
     0
102
RTVSPost2010Prop53
 90
        2
102
RTVSPost2010PropOp53
 70
     1
102
RTVSPost2010Prop54
  1
strokes_ogs.tif
102
RTVSPost2010PropOp54
 70
     1
102
RTVSPost2010Prop55
280
     0
102
RTVSPost2010PropOp55
 70
     1
102
RTVSPost2010Prop56
140
1.0
102
RTVSPost2010PropOp56
 70
     1
102
RTVSPost2010Prop57
140
1.0
102
RTVSPost2010PropOp57
 70
     1
  0
XRECORD
  5
531BD
102
{ACAD_REACTORS
330
531BC
102
}
330
531BC
100
AcDbXrecord
280
     1
102
RTVSPost2010Prop28
280
     0
102
RTVSPost2010PropOp28
 70
     1
102
RTVSPost2010Prop29
280
     1
102
RTVSPost2010PropOp29
 70
     1
102
RTVSPost2010Prop30
280
     1
102
RTVSPost2010PropOp30
 70
     1
102
RTVSPost2010Prop31
280
     0
102
RTVSPost2010PropOp31
 70
     1
102
RTVSPost2010Prop32
280
     0
102
RTVSPost2010PropOp32
 70
     1
102
RTVSPost2010Prop33
280
     0
102
RTVSPost2010PropOp33
 70
     1
102
RTVSPost2010Prop34
280
     0
102
RTVSPost2010PropOp34
 70
     1
102
RTVSPost2010Prop35
280
     0
102
RTVSPost2010PropOp35
 70
     1
102
RTVSPost2010Prop36
280
     0
102
RTVSPost2010PropOp36
 70
     1
102
RTVSPost2010Prop37
 90
       50
102
RTVSPost2010PropOp37
 70
     1
102
RTVSPost2010Prop38
140
0.0
102
RTVSPost2010PropOp38
 70
     1
102
RTVSPost2010Prop39
140
1.0
102
RTVSPost2010PropOp39
 70
     1
102
RTVSPost2010Prop40
 90
        0
102
RTVSPost2010PropOp40
 70
     1
102
RTVSPost2010Prop41ColorIndex
 90
       18
102
RTVSPost2010Prop41ColorRGB
 90
        0
102
RTVSPost2010PropOp41
 70
     1
102
RTVSPost2010Prop42
 90
       50
102
RTVSPost2010PropOp42
 70
     1
102
RTVSPost2010Prop43
 90
        3
102
RTVSPost2010PropOp43
 70
     1
102
RTVSPost2010Prop44ColorIndex
 90
        5
102
RTVSPost2010Prop44ColorRGB
 90
      255
102
RTVSPost2010PropOp44
 70
     1
102
RTVSPost2010Prop45
280
     0
102
RTVSPost2010PropOp45
 70
     1
102
RTVSPost2010Prop46
 90
       50
102
RTVSPost2010PropOp46
 70
     1
102
RTVSPost2010Prop47
 90
       50
102
RTVSPost2010PropOp47
 70
     1
102
RTVSPost2010Prop48
 90
       50
102
RTVSPost2010PropOp48
 70
     1
102
RTVSPost2010Prop49
280
     0
102
RTVSPost2010PropOp49
 70
     1
102
RTVSPost2010Prop50
 90
       50
102
RTVSPost2010PropOp50
 70
     1
102
RTVSPost2010Prop51ColorIndex
 90
      256
102
RTVSPost2010Prop51ColorRGB
 90
-16777216
102
RTVSPost2010PropOp51
 70
     0
102
RTVSPost2010Prop52
140
1.0
102
RTVSPost2010PropOp52
 70
     0
102
RTVSPost2010Prop53
 90
        2
102
RTVSPost2010PropOp53
 70
     1
102
RTVSPost2010Prop54
  1
strokes_ogs.tif
102
RTVSPost2010PropOp54
 70
     1
102
RTVSPost2010Prop55
280
     0
102
RTVSPost2010PropOp55
 70
     1
102
RTVSPost2010Prop56
140
1.0
102
RTVSPost2010PropOp56
 70
     1
102
RTVSPost2010Prop57
140
1.0
102
RTVSPost2010PropOp57
 70
     1
  0
XRECORD
  5
531BF
102
{ACAD_REACTORS
330
531BE
102
}
330
531BE
100
AcDbXrecord
280
     1
102
RTVSPost2010Prop28
280
     0
102
RTVSPost2010PropOp28
 70
     1
102
RTVSPost2010Prop29
280
     1
102
RTVSPost2010PropOp29
 70
     1
102
RTVSPost2010Prop30
280
     1
102
RTVSPost2010PropOp30
 70
     1
102
RTVSPost2010Prop31
280
     0
102
RTVSPost2010PropOp31
 70
     1
102
RTVSPost2010Prop32
280
     0
102
RTVSPost2010PropOp32
 70
     1
102
RTVSPost2010Prop33
280
     0
102
RTVSPost2010PropOp33
 70
     1
102
RTVSPost2010Prop34
280
     0
102
RTVSPost2010PropOp34
 70
     1
102
RTVSPost2010Prop35
280
     0
102
RTVSPost2010PropOp35
 70
     1
102
RTVSPost2010Prop36
280
     0
102
RTVSPost2010PropOp36
 70
     1
102
RTVSPost2010Prop37
 90
       50
102
RTVSPost2010PropOp37
 70
     1
102
RTVSPost2010Prop38
140
0.0
102
RTVSPost2010PropOp38
 70
     1
102
RTVSPost2010Prop39
140
1.0
102
RTVSPost2010PropOp39
 70
     1
102
RTVSPost2010Prop40
 90
        0
102
RTVSPost2010PropOp40
 70
     1
102
RTVSPost2010Prop41ColorIndex
 90
       18
102
RTVSPost2010Prop41ColorRGB
 90
        0
102
RTVSPost2010PropOp41
 70
     1
102
RTVSPost2010Prop42
 90
       50
102
RTVSPost2010PropOp42
 70
     1
102
RTVSPost2010Prop43
 90
        3
102
RTVSPost2010PropOp43
 70
     1
102
RTVSPost2010Prop44ColorIndex
 90
        5
102
RTVSPost2010Prop44ColorRGB
 90
      255
102
RTVSPost2010PropOp44
 70
     1
102
RTVSPost2010Prop45
280
     0
102
RTVSPost2010PropOp45
 70
     1
102
RTVSPost2010Prop46
 90
       50
102
RTVSPost2010PropOp46
 70
     1
102
RTVSPost2010Prop47
 90
       50
102
RTVSPost2010PropOp47
 70
     1
102
RTVSPost2010Prop48
 90
       50
102
RTVSPost2010PropOp48
 70
     1
102
RTVSPost2010Prop49
280
     0
102
RTVSPost2010PropOp49
 70
     1
102
RTVSPost2010Prop50
 90
       50
102
RTVSPost2010PropOp50
 70
     1
102
RTVSPost2010Prop51ColorIndex
 90
      256
102
RTVSPost2010Prop51ColorRGB
 90
-16777216
102
RTVSPost2010PropOp51
 70
     0
102
RTVSPost2010Prop52
140
1.0
102
RTVSPost2010PropOp52
 70
     0
102
RTVSPost2010Prop53
 90
        2
102
RTVSPost2010PropOp53
 70
     1
102
RTVSPost2010Prop54
  1
strokes_ogs.tif
102
RTVSPost2010PropOp54
 70
     1
102
RTVSPost2010Prop55
280
     0
102
RTVSPost2010PropOp55
 70
     1
102
RTVSPost2010Prop56
140
1.0
102
RTVSPost2010PropOp56
 70
     1
102
RTVSPost2010Prop57
140
1.0
102
RTVSPost2010PropOp57
 70
     1
  0
XRECORD
  5
531C1
102
{ACAD_REACTORS
330
531C0
102
}
330
531C0
100
AcDbXrecord
280
     1
102
RTVSPost2010Prop28
280
     0
102
RTVSPost2010PropOp28
 70
     1
102
RTVSPost2010Prop29
280
     1
102
RTVSPost2010PropOp29
 70
     1
102
RTVSPost2010Prop30
280
     1
102
RTVSPost2010PropOp30
 70
     1
102
RTVSPost2010Prop31
280
     0
102
RTVSPost2010PropOp31
 70
     1
102
RTVSPost2010Prop32
280
     0
102
RTVSPost2010PropOp32
 70
     1
102
RTVSPost2010Prop33
280
     0
102
RTVSPost2010PropOp33
 70
     1
102
RTVSPost2010Prop34
280
     0
102
RTVSPost2010PropOp34
 70
     1
102
RTVSPost2010Prop35
280
     0
102
RTVSPost2010PropOp35
 70
     1
102
RTVSPost2010Prop36
280
     0
102
RTVSPost2010PropOp36
 70
     1
102
RTVSPost2010Prop37
 90
       50
102
RTVSPost2010PropOp37
 70
     1
102
RTVSPost2010Prop38
140
0.0
102
RTVSPost2010PropOp38
 70
     1
102
RTVSPost2010Prop39
140
1.0
102
RTVSPost2010PropOp39
 70
     1
102
RTVSPost2010Prop40
 90
        0
102
RTVSPost2010PropOp40
 70
     1
102
RTVSPost2010Prop41ColorIndex
 90
       18
102
RTVSPost2010Prop41ColorRGB
 90
        0
102
RTVSPost2010PropOp41
 70
     1
102
RTVSPost2010Prop42
 90
       50
102
RTVSPost2010PropOp42
 70
     1
102
RTVSPost2010Prop43
 90
        3
102
RTVSPost2010PropOp43
 70
     1
102
RTVSPost2010Prop44ColorIndex
 90
        5
102
RTVSPost2010Prop44ColorRGB
 90
      255
102
RTVSPost2010PropOp44
 70
     1
102
RTVSPost2010Prop45
280
     0
102
RTVSPost2010PropOp45
 70
     1
102
RTVSPost2010Prop46
 90
       50
102
RTVSPost2010PropOp46
 70
     1
102
RTVSPost2010Prop47
 90
       50
102
RTVSPost2010PropOp47
 70
     1
102
RTVSPost2010Prop48
 90
       50
102
RTVSPost2010PropOp48
 70
     1
102
RTVSPost2010Prop49
280
     0
102
RTVSPost2010PropOp49
 70
     1
102
RTVSPost2010Prop50
 90
       50
102
RTVSPost2010PropOp50
 70
     1
102
RTVSPost2010Prop51ColorIndex
 90
      256
102
RTVSPost2010Prop51ColorRGB
 90
-16777216
102
RTVSPost2010PropOp51
 70
     0
102
RTVSPost2010Prop52
140
1.0
102
RTVSPost2010PropOp52
 70
     0
102
RTVSPost2010Prop53
 90
        2
102
RTVSPost2010PropOp53
 70
     1
102
RTVSPost2010Prop54
  1
strokes_ogs.tif
102
RTVSPost2010PropOp54
 70
     1
102
RTVSPost2010Prop55
280
     0
102
RTVSPost2010PropOp55
 70
     1
102
RTVSPost2010Prop56
140
1.0
102
RTVSPost2010PropOp56
 70
     1
102
RTVSPost2010Prop57
140
1.0
102
RTVSPost2010PropOp57
 70
     1
  0
XRECORD
  5
531C3
102
{ACAD_REACTORS
330
531C2
102
}
330
531C2
100
AcDbXrecord
280
     1
102
RTVSPost2010Prop28
280
     0
102
RTVSPost2010PropOp28
 70
     1
102
RTVSPost2010Prop29
280
     1
102
RTVSPost2010PropOp29
 70
     1
102
RTVSPost2010Prop30
280
     1
102
RTVSPost2010PropOp30
 70
     1
102
RTVSPost2010Prop31
280
     0
102
RTVSPost2010PropOp31
 70
     1
102
RTVSPost2010Prop32
280
     0
102
RTVSPost2010PropOp32
 70
     1
102
RTVSPost2010Prop33
280
     0
102
RTVSPost2010PropOp33
 70
     1
102
RTVSPost2010Prop34
280
     0
102
RTVSPost2010PropOp34
 70
     1
102
RTVSPost2010Prop35
280
     0
102
RTVSPost2010PropOp35
 70
     1
102
RTVSPost2010Prop36
280
     0
102
RTVSPost2010PropOp36
 70
     1
102
RTVSPost2010Prop37
 90
       50
102
RTVSPost2010PropOp37
 70
     1
102
RTVSPost2010Prop38
140
0.0
102
RTVSPost2010PropOp38
 70
     1
102
RTVSPost2010Prop39
140
1.0
102
RTVSPost2010PropOp39
 70
     1
102
RTVSPost2010Prop40
 90
        0
102
RTVSPost2010PropOp40
 70
     1
102
RTVSPost2010Prop41ColorIndex
 90
       18
102
RTVSPost2010Prop41ColorRGB
 90
        0
102
RTVSPost2010PropOp41
 70
     1
102
RTVSPost2010Prop42
 90
       50
102
RTVSPost2010PropOp42
 70
     1
102
RTVSPost2010Prop43
 90
        3
102
RTVSPost2010PropOp43
 70
     1
102
RTVSPost2010Prop44ColorIndex
 90
        5
102
RTVSPost2010Prop44ColorRGB
 90
      255
102
RTVSPost2010PropOp44
 70
     1
102
RTVSPost2010Prop45
280
     0
102
RTVSPost2010PropOp45
 70
     1
102
RTVSPost2010Prop46
 90
       50
102
RTVSPost2010PropOp46
 70
     1
102
RTVSPost2010Prop47
 90
       50
102
RTVSPost2010PropOp47
 70
     1
102
RTVSPost2010Prop48
 90
       50
102
RTVSPost2010PropOp48
 70
     1
102
RTVSPost2010Prop49
280
     0
102
RTVSPost2010PropOp49
 70
     1
102
RTVSPost2010Prop50
 90
       50
102
RTVSPost2010PropOp50
 70
     1
102
RTVSPost2010Prop51ColorIndex
 90
      256
102
RTVSPost2010Prop51ColorRGB
 90
-16777216
102
RTVSPost2010PropOp51
 70
     0
102
RTVSPost2010Prop52
140
1.0
102
RTVSPost2010PropOp52
 70
     0
102
RTVSPost2010Prop53
 90
        2
102
RTVSPost2010PropOp53
 70
     1
102
RTVSPost2010Prop54
  1
strokes_ogs.tif
102
RTVSPost2010PropOp54
 70
     1
102
RTVSPost2010Prop55
280
     0
102
RTVSPost2010PropOp55
 70
     1
102
RTVSPost2010Prop56
140
1.0
102
RTVSPost2010PropOp56
 70
     1
102
RTVSPost2010Prop57
140
1.0
102
RTVSPost2010PropOp57
 70
     1
  0
XRECORD
  5
531E5
102
{ACAD_REACTORS
330
531E4
102
}
330
531E4
100
AcDbXrecord
280
     1
102
RTVSPost2010Prop28
280
     0
102
RTVSPost2010PropOp28
 70
     1
102
RTVSPost2010Prop29
280
     1
102
RTVSPost2010PropOp29
 70
     1
102
RTVSPost2010Prop30
280
     1
102
RTVSPost2010PropOp30
 70
     1
102
RTVSPost2010Prop31
280
     0
102
RTVSPost2010PropOp31
 70
     1
102
RTVSPost2010Prop32
280
     0
102
RTVSPost2010PropOp32
 70
     1
102
RTVSPost2010Prop33
280
     0
102
RTVSPost2010PropOp33
 70
     1
102
RTVSPost2010Prop34
280
     0
102
RTVSPost2010PropOp34
 70
     1
102
RTVSPost2010Prop35
280
     0
102
RTVSPost2010PropOp35
 70
     1
102
RTVSPost2010Prop36
280
     0
102
RTVSPost2010PropOp36
 70
     1
102
RTVSPost2010Prop37
 90
       50
102
RTVSPost2010PropOp37
 70
     1
102
RTVSPost2010Prop38
140
0.0
102
RTVSPost2010PropOp38
 70
     1
102
RTVSPost2010Prop39
140
1.0
102
RTVSPost2010PropOp39
 70
     1
102
RTVSPost2010Prop40
 90
        0
102
RTVSPost2010PropOp40
 70
     1
102
RTVSPost2010Prop41ColorIndex
 90
       18
102
RTVSPost2010Prop41ColorRGB
 90
        0
102
RTVSPost2010PropOp41
 70
     1
102
RTVSPost2010Prop42
 90
       50
102
RTVSPost2010PropOp42
 70
     1
102
RTVSPost2010Prop43
 90
        3
102
RTVSPost2010PropOp43
 70
     1
102
RTVSPost2010Prop44ColorIndex
 90
        5
102
RTVSPost2010Prop44ColorRGB
 90
      255
102
RTVSPost2010PropOp44
 70
     1
102
RTVSPost2010Prop45
280
     0
102
RTVSPost2010PropOp45
 70
     1
102
RTVSPost2010Prop46
 90
       50
102
RTVSPost2010PropOp46
 70
     1
102
RTVSPost2010Prop47
 90
       50
102
RTVSPost2010PropOp47
 70
     1
102
RTVSPost2010Prop48
 90
       50
102
RTVSPost2010PropOp48
 70
     1
102
RTVSPost2010Prop49
280
     0
102
RTVSPost2010PropOp49
 70
     1
102
RTVSPost2010Prop50
 90
       50
102
RTVSPost2010PropOp50
 70
     1
102
RTVSPost2010Prop51ColorIndex
 90
      256
102
RTVSPost2010Prop51ColorRGB
 90
-16777216
102
RTVSPost2010PropOp51
 70
     0
102
RTVSPost2010Prop52
140
1.0
102
RTVSPost2010PropOp52
 70
     0
102
RTVSPost2010Prop53
 90
        2
102
RTVSPost2010PropOp53
 70
     1
102
RTVSPost2010Prop54
  1
strokes_ogs.tif
102
RTVSPost2010PropOp54
 70
     1
102
RTVSPost2010Prop55
280
     0
102
RTVSPost2010PropOp55
 70
     1
102
RTVSPost2010Prop56
140
1.0
102
RTVSPost2010PropOp56
 70
     1
102
RTVSPost2010Prop57
140
1.0
102
RTVSPost2010PropOp57
 70
     1
  0
XRECORD
  5
531DD
102
{ACAD_REACTORS
330
531DC
102
}
330
531DC
100
AcDbXrecord
280
     1
102
RTVSPost2010Prop28
280
     0
102
RTVSPost2010PropOp28
 70
     1
102
RTVSPost2010Prop29
280
     1
102
RTVSPost2010PropOp29
 70
     1
102
RTVSPost2010Prop30
280
     1
102
RTVSPost2010PropOp30
 70
     1
102
RTVSPost2010Prop31
280
     0
102
RTVSPost2010PropOp31
 70
     1
102
RTVSPost2010Prop32
280
     0
102
RTVSPost2010PropOp32
 70
     1
102
RTVSPost2010Prop33
280
     0
102
RTVSPost2010PropOp33
 70
     1
102
RTVSPost2010Prop34
280
     0
102
RTVSPost2010PropOp34
 70
     1
102
RTVSPost2010Prop35
280
     0
102
RTVSPost2010PropOp35
 70
     1
102
RTVSPost2010Prop36
280
     0
102
RTVSPost2010PropOp36
 70
     1
102
RTVSPost2010Prop37
 90
       50
102
RTVSPost2010PropOp37
 70
     1
102
RTVSPost2010Prop38
140
0.0
102
RTVSPost2010PropOp38
 70
     1
102
RTVSPost2010Prop39
140
1.0
102
RTVSPost2010PropOp39
 70
     1
102
RTVSPost2010Prop40
 90
        0
102
RTVSPost2010PropOp40
 70
     1
102
RTVSPost2010Prop41ColorIndex
 90
       18
102
RTVSPost2010Prop41ColorRGB
 90
        0
102
RTVSPost2010PropOp41
 70
     1
102
RTVSPost2010Prop42
 90
       50
102
RTVSPost2010PropOp42
 70
     1
102
RTVSPost2010Prop43
 90
        3
102
RTVSPost2010PropOp43
 70
     1
102
RTVSPost2010Prop44ColorIndex
 90
        5
102
RTVSPost2010Prop44ColorRGB
 90
      255
102
RTVSPost2010PropOp44
 70
     1
102
RTVSPost2010Prop45
280
     0
102
RTVSPost2010PropOp45
 70
     1
102
RTVSPost2010Prop46
 90
       50
102
RTVSPost2010PropOp46
 70
     1
102
RTVSPost2010Prop47
 90
       50
102
RTVSPost2010PropOp47
 70
     1
102
RTVSPost2010Prop48
 90
       50
102
RTVSPost2010PropOp48
 70
     1
102
RTVSPost2010Prop49
280
     0
102
RTVSPost2010PropOp49
 70
     1
102
RTVSPost2010Prop50
 90
       50
102
RTVSPost2010PropOp50
 70
     1
102
RTVSPost2010Prop51ColorIndex
 90
      256
102
RTVSPost2010Prop51ColorRGB
 90
-16777216
102
RTVSPost2010PropOp51
 70
     0
102
RTVSPost2010Prop52
140
1.0
102
RTVSPost2010PropOp52
 70
     0
102
RTVSPost2010Prop53
 90
        2
102
RTVSPost2010PropOp53
 70
     1
102
RTVSPost2010Prop54
  1
strokes_ogs.tif
102
RTVSPost2010PropOp54
 70
     1
102
RTVSPost2010Prop55
280
     0
102
RTVSPost2010PropOp55
 70
     1
102
RTVSPost2010Prop56
140
1.0
102
RTVSPost2010PropOp56
 70
     1
102
RTVSPost2010Prop57
140
1.0
102
RTVSPost2010PropOp57
 70
     1
  0
XRECORD
  5
531D7
102
{ACAD_REACTORS
330
531D6
102
}
330
531D6
100
AcDbXrecord
280
     1
102
RTVSPost2010Prop28
280
     0
102
RTVSPost2010PropOp28
 70
     1
102
RTVSPost2010Prop29
280
     1
102
RTVSPost2010PropOp29
 70
     1
102
RTVSPost2010Prop30
280
     1
102
RTVSPost2010PropOp30
 70
     1
102
RTVSPost2010Prop31
280
     0
102
RTVSPost2010PropOp31
 70
     1
102
RTVSPost2010Prop32
280
     0
102
RTVSPost2010PropOp32
 70
     1
102
RTVSPost2010Prop33
280
     0
102
RTVSPost2010PropOp33
 70
     1
102
RTVSPost2010Prop34
280
     0
102
RTVSPost2010PropOp34
 70
     1
102
RTVSPost2010Prop35
280
     0
102
RTVSPost2010PropOp35
 70
     1
102
RTVSPost2010Prop36
280
     0
102
RTVSPost2010PropOp36
 70
     1
102
RTVSPost2010Prop37
 90
       50
102
RTVSPost2010PropOp37
 70
     1
102
RTVSPost2010Prop38
140
0.0
102
RTVSPost2010PropOp38
 70
     1
102
RTVSPost2010Prop39
140
1.0
102
RTVSPost2010PropOp39
 70
     1
102
RTVSPost2010Prop40
 90
        0
102
RTVSPost2010PropOp40
 70
     1
102
RTVSPost2010Prop41ColorIndex
 90
       18
102
RTVSPost2010Prop41ColorRGB
 90
        0
102
RTVSPost2010PropOp41
 70
     1
102
RTVSPost2010Prop42
 90
       50
102
RTVSPost2010PropOp42
 70
     1
102
RTVSPost2010Prop43
 90
        3
102
RTVSPost2010PropOp43
 70
     1
102
RTVSPost2010Prop44ColorIndex
 90
        5
102
RTVSPost2010Prop44ColorRGB
 90
      255
102
RTVSPost2010PropOp44
 70
     1
102
RTVSPost2010Prop45
280
     0
102
RTVSPost2010PropOp45
 70
     1
102
RTVSPost2010Prop46
 90
       50
102
RTVSPost2010PropOp46
 70
     1
102
RTVSPost2010Prop47
 90
       50
102
RTVSPost2010PropOp47
 70
     1
102
RTVSPost2010Prop48
 90
       50
102
RTVSPost2010PropOp48
 70
     1
102
RTVSPost2010Prop49
280
     0
102
RTVSPost2010PropOp49
 70
     1
102
RTVSPost2010Prop50
 90
       50
102
RTVSPost2010PropOp50
 70
     1
102
RTVSPost2010Prop51ColorIndex
 90
      256
102
RTVSPost2010Prop51ColorRGB
 90
-16777216
102
RTVSPost2010PropOp51
 70
     0
102
RTVSPost2010Prop52
140
1.0
102
RTVSPost2010PropOp52
 70
     0
102
RTVSPost2010Prop53
 90
        2
102
RTVSPost2010PropOp53
 70
     1
102
RTVSPost2010Prop54
  1
strokes_ogs.tif
102
RTVSPost2010PropOp54
 70
     1
102
RTVSPost2010Prop55
280
     0
102
RTVSPost2010PropOp55
 70
     1
102
RTVSPost2010Prop56
140
1.0
102
RTVSPost2010PropOp56
 70
     1
102
RTVSPost2010Prop57
140
1.0
102
RTVSPost2010PropOp57
 70
     1
  0
XRECORD
  5
531DF
102
{ACAD_REACTORS
330
531DE
102
}
330
531DE
100
AcDbXrecord
280
     1
102
RTVSPost2010Prop28
280
     0
102
RTVSPost2010PropOp28
 70
     1
102
RTVSPost2010Prop29
280
     1
102
RTVSPost2010PropOp29
 70
     1
102
RTVSPost2010Prop30
280
     1
102
RTVSPost2010PropOp30
 70
     1
102
RTVSPost2010Prop31
280
     0
102
RTVSPost2010PropOp31
 70
     1
102
RTVSPost2010Prop32
280
     0
102
RTVSPost2010PropOp32
 70
     1
102
RTVSPost2010Prop33
280
     0
102
RTVSPost2010PropOp33
 70
     1
102
RTVSPost2010Prop34
280
     0
102
RTVSPost2010PropOp34
 70
     1
102
RTVSPost2010Prop35
280
     0
102
RTVSPost2010PropOp35
 70
     1
102
RTVSPost2010Prop36
280
     0
102
RTVSPost2010PropOp36
 70
     1
102
RTVSPost2010Prop37
 90
       50
102
RTVSPost2010PropOp37
 70
     1
102
RTVSPost2010Prop38
140
0.0
102
RTVSPost2010PropOp38
 70
     1
102
RTVSPost2010Prop39
140
1.0
102
RTVSPost2010PropOp39
 70
     1
102
RTVSPost2010Prop40
 90
        0
102
RTVSPost2010PropOp40
 70
     1
102
RTVSPost2010Prop41ColorIndex
 90
       18
102
RTVSPost2010Prop41ColorRGB
 90
        0
102
RTVSPost2010PropOp41
 70
     1
102
RTVSPost2010Prop42
 90
       50
102
RTVSPost2010PropOp42
 70
     1
102
RTVSPost2010Prop43
 90
        3
102
RTVSPost2010PropOp43
 70
     1
102
RTVSPost2010Prop44ColorIndex
 90
        5
102
RTVSPost2010Prop44ColorRGB
 90
      255
102
RTVSPost2010PropOp44
 70
     1
102
RTVSPost2010Prop45
280
     0
102
RTVSPost2010PropOp45
 70
     1
102
RTVSPost2010Prop46
 90
       50
102
RTVSPost2010PropOp46
 70
     1
102
RTVSPost2010Prop47
 90
       50
102
RTVSPost2010PropOp47
 70
     1
102
RTVSPost2010Prop48
 90
       50
102
RTVSPost2010PropOp48
 70
     1
102
RTVSPost2010Prop49
280
     0
102
RTVSPost2010PropOp49
 70
     1
102
RTVSPost2010Prop50
 90
       50
102
RTVSPost2010PropOp50
 70
     1
102
RTVSPost2010Prop51ColorIndex
 90
      256
102
RTVSPost2010Prop51ColorRGB
 90
-16777216
102
RTVSPost2010PropOp51
 70
     0
102
RTVSPost2010Prop52
140
1.0
102
RTVSPost2010PropOp52
 70
     0
102
RTVSPost2010Prop53
 90
        2
102
RTVSPost2010PropOp53
 70
     1
102
RTVSPost2010Prop54
  1
strokes_ogs.tif
102
RTVSPost2010PropOp54
 70
     1
102
RTVSPost2010Prop55
280
     0
102
RTVSPost2010PropOp55
 70
     1
102
RTVSPost2010Prop56
140
1.0
102
RTVSPost2010PropOp56
 70
     1
102
RTVSPost2010Prop57
140
1.0
102
RTVSPost2010PropOp57
 70
     1
  0
XRECORD
  5
531CF
102
{ACAD_REACTORS
330
531CE
102
}
330
531CE
100
AcDbXrecord
280
     1
102
RTVSPost2010Prop28
280
     0
102
RTVSPost2010PropOp28
 70
     1
102
RTVSPost2010Prop29
280
     1
102
RTVSPost2010PropOp29
 70
     1
102
RTVSPost2010Prop30
280
     1
102
RTVSPost2010PropOp30
 70
     1
102
RTVSPost2010Prop31
280
     0
102
RTVSPost2010PropOp31
 70
     1
102
RTVSPost2010Prop32
280
     0
102
RTVSPost2010PropOp32
 70
     1
102
RTVSPost2010Prop33
280
     0
102
RTVSPost2010PropOp33
 70
     1
102
RTVSPost2010Prop34
280
     0
102
RTVSPost2010PropOp34
 70
     1
102
RTVSPost2010Prop35
280
     0
102
RTVSPost2010PropOp35
 70
     1
102
RTVSPost2010Prop36
280
     0
102
RTVSPost2010PropOp36
 70
     1
102
RTVSPost2010Prop37
 90
       50
102
RTVSPost2010PropOp37
 70
     1
102
RTVSPost2010Prop38
140
0.0
102
RTVSPost2010PropOp38
 70
     1
102
RTVSPost2010Prop39
140
1.0
102
RTVSPost2010PropOp39
 70
     1
102
RTVSPost2010Prop40
 90
        0
102
RTVSPost2010PropOp40
 70
     1
102
RTVSPost2010Prop41ColorIndex
 90
       18
102
RTVSPost2010Prop41ColorRGB
 90
        0
102
RTVSPost2010PropOp41
 70
     1
102
RTVSPost2010Prop42
 90
       50
102
RTVSPost2010PropOp42
 70
     1
102
RTVSPost2010Prop43
 90
        3
102
RTVSPost2010PropOp43
 70
     1
102
RTVSPost2010Prop44ColorIndex
 90
        5
102
RTVSPost2010Prop44ColorRGB
 90
      255
102
RTVSPost2010PropOp44
 70
     1
102
RTVSPost2010Prop45
280
     0
102
RTVSPost2010PropOp45
 70
     1
102
RTVSPost2010Prop46
 90
       50
102
RTVSPost2010PropOp46
 70
     1
102
RTVSPost2010Prop47
 90
       50
102
RTVSPost2010PropOp47
 70
     1
102
RTVSPost2010Prop48
 90
       50
102
RTVSPost2010PropOp48
 70
     1
102
RTVSPost2010Prop49
280
     0
102
RTVSPost2010PropOp49
 70
     1
102
RTVSPost2010Prop50
 90
       50
102
RTVSPost2010PropOp50
 70
     1
102
RTVSPost2010Prop51ColorIndex
 90
      256
102
RTVSPost2010Prop51ColorRGB
 90
-16777216
102
RTVSPost2010PropOp51
 70
     0
102
RTVSPost2010Prop52
140
1.0
102
RTVSPost2010PropOp52
 70
     0
102
RTVSPost2010Prop53
 90
        2
102
RTVSPost2010PropOp53
 70
     1
102
RTVSPost2010Prop54
  1
strokes_ogs.tif
102
RTVSPost2010PropOp54
 70
     1
102
RTVSPost2010Prop55
280
     0
102
RTVSPost2010PropOp55
 70
     1
102
RTVSPost2010Prop56
140
1.0
102
RTVSPost2010PropOp56
 70
     1
102
RTVSPost2010Prop57
140
1.0
102
RTVSPost2010PropOp57
 70
     1
  0
XRECORD
  5
531EF
102
{ACAD_REACTORS
330
531EE
102
}
330
531EE
100
AcDbXrecord
280
     1
102
RTVSPost2010Prop28
280
     0
102
RTVSPost2010PropOp28
 70
     1
102
RTVSPost2010Prop29
280
     1
102
RTVSPost2010PropOp29
 70
     1
102
RTVSPost2010Prop30
280
     1
102
RTVSPost2010PropOp30
 70
     1
102
RTVSPost2010Prop31
280
     0
102
RTVSPost2010PropOp31
 70
     1
102
RTVSPost2010Prop32
280
     0
102
RTVSPost2010PropOp32
 70
     1
102
RTVSPost2010Prop33
280
     0
102
RTVSPost2010PropOp33
 70
     1
102
RTVSPost2010Prop34
280
     0
102
RTVSPost2010PropOp34
 70
     1
102
RTVSPost2010Prop35
280
     0
102
RTVSPost2010PropOp35
 70
     1
102
RTVSPost2010Prop36
280
     0
102
RTVSPost2010PropOp36
 70
     1
102
RTVSPost2010Prop37
 90
       50
102
RTVSPost2010PropOp37
 70
     1
102
RTVSPost2010Prop38
140
0.0
102
RTVSPost2010PropOp38
 70
     1
102
RTVSPost2010Prop39
140
1.0
102
RTVSPost2010PropOp39
 70
     1
102
RTVSPost2010Prop40
 90
        0
102
RTVSPost2010PropOp40
 70
     1
102
RTVSPost2010Prop41ColorIndex
 90
       18
102
RTVSPost2010Prop41ColorRGB
 90
        0
102
RTVSPost2010PropOp41
 70
     1
102
RTVSPost2010Prop42
 90
       50
102
RTVSPost2010PropOp42
 70
     1
102
RTVSPost2010Prop43
 90
        3
102
RTVSPost2010PropOp43
 70
     1
102
RTVSPost2010Prop44ColorIndex
 90
        5
102
RTVSPost2010Prop44ColorRGB
 90
      255
102
RTVSPost2010PropOp44
 70
     1
102
RTVSPost2010Prop45
280
     0
102
RTVSPost2010PropOp45
 70
     1
102
RTVSPost2010Prop46
 90
       50
102
RTVSPost2010PropOp46
 70
     1
102
RTVSPost2010Prop47
 90
       50
102
RTVSPost2010PropOp47
 70
     1
102
RTVSPost2010Prop48
 90
       50
102
RTVSPost2010PropOp48
 70
     1
102
RTVSPost2010Prop49
280
     0
102
RTVSPost2010PropOp49
 70
     1
102
RTVSPost2010Prop50
 90
       50
102
RTVSPost2010PropOp50
 70
     1
102
RTVSPost2010Prop51ColorIndex
 90
      256
102
RTVSPost2010Prop51ColorRGB
 90
-16777216
102
RTVSPost2010PropOp51
 70
     0
102
RTVSPost2010Prop52
140
1.0
102
RTVSPost2010PropOp52
 70
     0
102
RTVSPost2010Prop53
 90
        2
102
RTVSPost2010PropOp53
 70
     1
102
RTVSPost2010Prop54
  1
strokes_ogs.tif
102
RTVSPost2010PropOp54
 70
     1
102
RTVSPost2010Prop55
280
     0
102
RTVSPost2010PropOp55
 70
     1
102
RTVSPost2010Prop56
140
1.0
102
RTVSPost2010PropOp56
 70
     1
102
RTVSPost2010Prop57
140
1.0
102
RTVSPost2010PropOp57
 70
     1
  0
XRECORD
  5
531ED
102
{ACAD_REACTORS
330
531EC
102
}
330
531EC
100
AcDbXrecord
280
     1
102
RTVSPost2010Prop28
280
     0
102
RTVSPost2010PropOp28
 70
     1
102
RTVSPost2010Prop29
280
     1
102
RTVSPost2010PropOp29
 70
     1
102
RTVSPost2010Prop30
280
     1
102
RTVSPost2010PropOp30
 70
     1
102
RTVSPost2010Prop31
280
     0
102
RTVSPost2010PropOp31
 70
     1
102
RTVSPost2010Prop32
280
     0
102
RTVSPost2010PropOp32
 70
     1
102
RTVSPost2010Prop33
280
     0
102
RTVSPost2010PropOp33
 70
     1
102
RTVSPost2010Prop34
280
     0
102
RTVSPost2010PropOp34
 70
     1
102
RTVSPost2010Prop35
280
     0
102
RTVSPost2010PropOp35
 70
     1
102
RTVSPost2010Prop36
280
     0
102
RTVSPost2010PropOp36
 70
     1
102
RTVSPost2010Prop37
 90
       50
102
RTVSPost2010PropOp37
 70
     1
102
RTVSPost2010Prop38
140
0.0
102
RTVSPost2010PropOp38
 70
     1
102
RTVSPost2010Prop39
140
1.0
102
RTVSPost2010PropOp39
 70
     1
102
RTVSPost2010Prop40
 90
        0
102
RTVSPost2010PropOp40
 70
     1
102
RTVSPost2010Prop41ColorIndex
 90
       18
102
RTVSPost2010Prop41ColorRGB
 90
        0
102
RTVSPost2010PropOp41
 70
     1
102
RTVSPost2010Prop42
 90
       50
102
RTVSPost2010PropOp42
 70
     1
102
RTVSPost2010Prop43
 90
        3
102
RTVSPost2010PropOp43
 70
     1
102
RTVSPost2010Prop44ColorIndex
 90
        5
102
RTVSPost2010Prop44ColorRGB
 90
      255
102
RTVSPost2010PropOp44
 70
     1
102
RTVSPost2010Prop45
280
     0
102
RTVSPost2010PropOp45
 70
     1
102
RTVSPost2010Prop46
 90
       50
102
RTVSPost2010PropOp46
 70
     1
102
RTVSPost2010Prop47
 90
       50
102
RTVSPost2010PropOp47
 70
     1
102
RTVSPost2010Prop48
 90
       50
102
RTVSPost2010PropOp48
 70
     1
102
RTVSPost2010Prop49
280
     0
102
RTVSPost2010PropOp49
 70
     1
102
RTVSPost2010Prop50
 90
       50
102
RTVSPost2010PropOp50
 70
     1
102
RTVSPost2010Prop51ColorIndex
 90
      256
102
RTVSPost2010Prop51ColorRGB
 90
-16777216
102
RTVSPost2010PropOp51
 70
     0
102
RTVSPost2010Prop52
140
1.0
102
RTVSPost2010PropOp52
 70
     0
102
RTVSPost2010Prop53
 90
        2
102
RTVSPost2010PropOp53
 70
     1
102
RTVSPost2010Prop54
  1
strokes_ogs.tif
102
RTVSPost2010PropOp54
 70
     1
102
RTVSPost2010Prop55
280
     0
102
RTVSPost2010PropOp55
 70
     1
102
RTVSPost2010Prop56
140
1.0
102
RTVSPost2010PropOp56
 70
     1
102
RTVSPost2010Prop57
140
1.0
102
RTVSPost2010PropOp57
 70
     1
  0
XRECORD
  5
531E7
102
{ACAD_REACTORS
330
531E6
102
}
330
531E6
100
AcDbXrecord
280
     1
102
RTVSPost2010Prop28
280
     0
102
RTVSPost2010PropOp28
 70
     1
102
RTVSPost2010Prop29
280
     1
102
RTVSPost2010PropOp29
 70
     1
102
RTVSPost2010Prop30
280
     1
102
RTVSPost2010PropOp30
 70
     1
102
RTVSPost2010Prop31
280
     0
102
RTVSPost2010PropOp31
 70
     1
102
RTVSPost2010Prop32
280
     0
102
RTVSPost2010PropOp32
 70
     1
102
RTVSPost2010Prop33
280
     0
102
RTVSPost2010PropOp33
 70
     1
102
RTVSPost2010Prop34
280
     0
102
RTVSPost2010PropOp34
 70
     1
102
RTVSPost2010Prop35
280
     0
102
RTVSPost2010PropOp35
 70
     1
102
RTVSPost2010Prop36
280
     0
102
RTVSPost2010PropOp36
 70
     1
102
RTVSPost2010Prop37
 90
       50
102
RTVSPost2010PropOp37
 70
     1
102
RTVSPost2010Prop38
140
0.0
102
RTVSPost2010PropOp38
 70
     1
102
RTVSPost2010Prop39
140
1.0
102
RTVSPost2010PropOp39
 70
     1
102
RTVSPost2010Prop40
 90
        0
102
RTVSPost2010PropOp40
 70
     1
102
RTVSPost2010Prop41ColorIndex
 90
       18
102
RTVSPost2010Prop41ColorRGB
 90
        0
102
RTVSPost2010PropOp41
 70
     1
102
RTVSPost2010Prop42
 90
       50
102
RTVSPost2010PropOp42
 70
     1
102
RTVSPost2010Prop43
 90
        3
102
RTVSPost2010PropOp43
 70
     1
102
RTVSPost2010Prop44ColorIndex
 90
        5
102
RTVSPost2010Prop44ColorRGB
 90
      255
102
RTVSPost2010PropOp44
 70
     1
102
RTVSPost2010Prop45
280
     0
102
RTVSPost2010PropOp45
 70
     1
102
RTVSPost2010Prop46
 90
       50
102
RTVSPost2010PropOp46
 70
     1
102
RTVSPost2010Prop47
 90
       50
102
RTVSPost2010PropOp47
 70
     1
102
RTVSPost2010Prop48
 90
       50
102
RTVSPost2010PropOp48
 70
     1
102
RTVSPost2010Prop49
280
     0
102
RTVSPost2010PropOp49
 70
     1
102
RTVSPost2010Prop50
 90
       50
102
RTVSPost2010PropOp50
 70
     1
102
RTVSPost2010Prop51ColorIndex
 90
      256
102
RTVSPost2010Prop51ColorRGB
 90
-16777216
102
RTVSPost2010PropOp51
 70
     0
102
RTVSPost2010Prop52
140
1.0
102
RTVSPost2010PropOp52
 70
     0
102
RTVSPost2010Prop53
 90
        2
102
RTVSPost2010PropOp53
 70
     1
102
RTVSPost2010Prop54
  1
strokes_ogs.tif
102
RTVSPost2010PropOp54
 70
     1
102
RTVSPost2010Prop55
280
     0
102
RTVSPost2010PropOp55
 70
     1
102
RTVSPost2010Prop56
140
1.0
102
RTVSPost2010PropOp56
 70
     1
102
RTVSPost2010Prop57
140
1.0
102
RTVSPost2010PropOp57
 70
     1
  0
XRECORD
  5
531E9
102
{ACAD_REACTORS
330
531E8
102
}
330
531E8
100
AcDbXrecord
280
     1
102
RTVSPost2010Prop28
280
     0
102
RTVSPost2010PropOp28
 70
     1
102
RTVSPost2010Prop29
280
     1
102
RTVSPost2010PropOp29
 70
     1
102
RTVSPost2010Prop30
280
     1
102
RTVSPost2010PropOp30
 70
     1
102
RTVSPost2010Prop31
280
     0
102
RTVSPost2010PropOp31
 70
     1
102
RTVSPost2010Prop32
280
     0
102
RTVSPost2010PropOp32
 70
     1
102
RTVSPost2010Prop33
280
     0
102
RTVSPost2010PropOp33
 70
     1
102
RTVSPost2010Prop34
280
     0
102
RTVSPost2010PropOp34
 70
     1
102
RTVSPost2010Prop35
280
     0
102
RTVSPost2010PropOp35
 70
     1
102
RTVSPost2010Prop36
280
     0
102
RTVSPost2010PropOp36
 70
     1
102
RTVSPost2010Prop37
 90
       50
102
RTVSPost2010PropOp37
 70
     1
102
RTVSPost2010Prop38
140
0.0
102
RTVSPost2010PropOp38
 70
     1
102
RTVSPost2010Prop39
140
1.0
102
RTVSPost2010PropOp39
 70
     1
102
RTVSPost2010Prop40
 90
        0
102
RTVSPost2010PropOp40
 70
     1
102
RTVSPost2010Prop41ColorIndex
 90
       18
102
RTVSPost2010Prop41ColorRGB
 90
        0
102
RTVSPost2010PropOp41
 70
     1
102
RTVSPost2010Prop42
 90
       50
102
RTVSPost2010PropOp42
 70
     1
102
RTVSPost2010Prop43
 90
        3
102
RTVSPost2010PropOp43
 70
     1
102
RTVSPost2010Prop44ColorIndex
 90
        5
102
RTVSPost2010Prop44ColorRGB
 90
      255
102
RTVSPost2010PropOp44
 70
     1
102
RTVSPost2010Prop45
280
     0
102
RTVSPost2010PropOp45
 70
     1
102
RTVSPost2010Prop46
 90
       50
102
RTVSPost2010PropOp46
 70
     1
102
RTVSPost2010Prop47
 90
       50
102
RTVSPost2010PropOp47
 70
     1
102
RTVSPost2010Prop48
 90
       50
102
RTVSPost2010PropOp48
 70
     1
102
RTVSPost2010Prop49
280
     0
102
RTVSPost2010PropOp49
 70
     1
102
RTVSPost2010Prop50
 90
       50
102
RTVSPost2010PropOp50
 70
     1
102
RTVSPost2010Prop51ColorIndex
 90
      256
102
RTVSPost2010Prop51ColorRGB
 90
-16777216
102
RTVSPost2010PropOp51
 70
     0
102
RTVSPost2010Prop52
140
1.0
102
RTVSPost2010PropOp52
 70
     0
102
RTVSPost2010Prop53
 90
        2
102
RTVSPost2010PropOp53
 70
     1
102
RTVSPost2010Prop54
  1
strokes_ogs.tif
102
RTVSPost2010PropOp54
 70
     1
102
RTVSPost2010Prop55
280
     0
102
RTVSPost2010PropOp55
 70
     1
102
RTVSPost2010Prop56
140
1.0
102
RTVSPost2010PropOp56
 70
     1
102
RTVSPost2010Prop57
140
1.0
102
RTVSPost2010PropOp57
 70
     1
  0
XRECORD
  5
531D5
102
{ACAD_REACTORS
330
531D4
102
}
330
531D4
100
AcDbXrecord
280
     1
102
RTVSPost2010Prop28
280
     0
102
RTVSPost2010PropOp28
 70
     1
102
RTVSPost2010Prop29
280
     1
102
RTVSPost2010PropOp29
 70
     1
102
RTVSPost2010Prop30
280
     1
102
RTVSPost2010PropOp30
 70
     1
102
RTVSPost2010Prop31
280
     0
102
RTVSPost2010PropOp31
 70
     1
102
RTVSPost2010Prop32
280
     0
102
RTVSPost2010PropOp32
 70
     1
102
RTVSPost2010Prop33
280
     0
102
RTVSPost2010PropOp33
 70
     1
102
RTVSPost2010Prop34
280
     0
102
RTVSPost2010PropOp34
 70
     1
102
RTVSPost2010Prop35
280
     0
102
RTVSPost2010PropOp35
 70
     1
102
RTVSPost2010Prop36
280
     0
102
RTVSPost2010PropOp36
 70
     1
102
RTVSPost2010Prop37
 90
       50
102
RTVSPost2010PropOp37
 70
     1
102
RTVSPost2010Prop38
140
0.0
102
RTVSPost2010PropOp38
 70
     1
102
RTVSPost2010Prop39
140
1.0
102
RTVSPost2010PropOp39
 70
     1
102
RTVSPost2010Prop40
 90
        0
102
RTVSPost2010PropOp40
 70
     1
102
RTVSPost2010Prop41ColorIndex
 90
       18
102
RTVSPost2010Prop41ColorRGB
 90
        0
102
RTVSPost2010PropOp41
 70
     1
102
RTVSPost2010Prop42
 90
       50
102
RTVSPost2010PropOp42
 70
     1
102
RTVSPost2010Prop43
 90
        3
102
RTVSPost2010PropOp43
 70
     1
102
RTVSPost2010Prop44ColorIndex
 90
        5
102
RTVSPost2010Prop44ColorRGB
 90
      255
102
RTVSPost2010PropOp44
 70
     1
102
RTVSPost2010Prop45
280
     0
102
RTVSPost2010PropOp45
 70
     1
102
RTVSPost2010Prop46
 90
       50
102
RTVSPost2010PropOp46
 70
     1
102
RTVSPost2010Prop47
 90
       50
102
RTVSPost2010PropOp47
 70
     1
102
RTVSPost2010Prop48
 90
       50
102
RTVSPost2010PropOp48
 70
     1
102
RTVSPost2010Prop49
280
     0
102
RTVSPost2010PropOp49
 70
     1
102
RTVSPost2010Prop50
 90
       50
102
RTVSPost2010PropOp50
 70
     1
102
RTVSPost2010Prop51ColorIndex
 90
      256
102
RTVSPost2010Prop51ColorRGB
 90
-16777216
102
RTVSPost2010PropOp51
 70
     0
102
RTVSPost2010Prop52
140
1.0
102
RTVSPost2010PropOp52
 70
     0
102
RTVSPost2010Prop53
 90
        2
102
RTVSPost2010PropOp53
 70
     1
102
RTVSPost2010Prop54
  1
strokes_ogs.tif
102
RTVSPost2010PropOp54
 70
     1
102
RTVSPost2010Prop55
280
     0
102
RTVSPost2010PropOp55
 70
     1
102
RTVSPost2010Prop56
140
1.0
102
RTVSPost2010PropOp56
 70
     1
102
RTVSPost2010Prop57
140
1.0
102
RTVSPost2010PropOp57
 70
     1
  0
XRECORD
  5
531E3
102
{ACAD_REACTORS
330
531E2
102
}
330
531E2
100
AcDbXrecord
280
     1
102
RTVSPost2010Prop28
280
     0
102
RTVSPost2010PropOp28
 70
     1
102
RTVSPost2010Prop29
280
     1
102
RTVSPost2010PropOp29
 70
     1
102
RTVSPost2010Prop30
280
     1
102
RTVSPost2010PropOp30
 70
     1
102
RTVSPost2010Prop31
280
     0
102
RTVSPost2010PropOp31
 70
     1
102
RTVSPost2010Prop32
280
     0
102
RTVSPost2010PropOp32
 70
     1
102
RTVSPost2010Prop33
280
     0
102
RTVSPost2010PropOp33
 70
     1
102
RTVSPost2010Prop34
280
     0
102
RTVSPost2010PropOp34
 70
     1
102
RTVSPost2010Prop35
280
     0
102
RTVSPost2010PropOp35
 70
     1
102
RTVSPost2010Prop36
280
     0
102
RTVSPost2010PropOp36
 70
     1
102
RTVSPost2010Prop37
 90
       50
102
RTVSPost2010PropOp37
 70
     1
102
RTVSPost2010Prop38
140
0.0
102
RTVSPost2010PropOp38
 70
     1
102
RTVSPost2010Prop39
140
1.0
102
RTVSPost2010PropOp39
 70
     1
102
RTVSPost2010Prop40
 90
        0
102
RTVSPost2010PropOp40
 70
     1
102
RTVSPost2010Prop41ColorIndex
 90
       18
102
RTVSPost2010Prop41ColorRGB
 90
        0
102
RTVSPost2010PropOp41
 70
     1
102
RTVSPost2010Prop42
 90
       50
102
RTVSPost2010PropOp42
 70
     1
102
RTVSPost2010Prop43
 90
        3
102
RTVSPost2010PropOp43
 70
     1
102
RTVSPost2010Prop44ColorIndex
 90
        5
102
RTVSPost2010Prop44ColorRGB
 90
      255
102
RTVSPost2010PropOp44
 70
     1
102
RTVSPost2010Prop45
280
     0
102
RTVSPost2010PropOp45
 70
     1
102
RTVSPost2010Prop46
 90
       50
102
RTVSPost2010PropOp46
 70
     1
102
RTVSPost2010Prop47
 90
       50
102
RTVSPost2010PropOp47
 70
     1
102
RTVSPost2010Prop48
 90
       50
102
RTVSPost2010PropOp48
 70
     1
102
RTVSPost2010Prop49
280
     0
102
RTVSPost2010PropOp49
 70
     1
102
RTVSPost2010Prop50
 90
       50
102
RTVSPost2010PropOp50
 70
     1
102
RTVSPost2010Prop51ColorIndex
 90
      256
102
RTVSPost2010Prop51ColorRGB
 90
-16777216
102
RTVSPost2010PropOp51
 70
     0
102
RTVSPost2010Prop52
140
1.0
102
RTVSPost2010PropOp52
 70
     0
102
RTVSPost2010Prop53
 90
        2
102
RTVSPost2010PropOp53
 70
     1
102
RTVSPost2010Prop54
  1
strokes_ogs.tif
102
RTVSPost2010PropOp54
 70
     1
102
RTVSPost2010Prop55
280
     0
102
RTVSPost2010PropOp55
 70
     1
102
RTVSPost2010Prop56
140
1.0
102
RTVSPost2010PropOp56
 70
     1
102
RTVSPost2010Prop57
140
1.0
102
RTVSPost2010PropOp57
 70
     1
  0
XRECORD
  5
531EB
102
{ACAD_REACTORS
330
531EA
102
}
330
531EA
100
AcDbXrecord
280
     1
102
RTVSPost2010Prop28
280
     0
102
RTVSPost2010PropOp28
 70
     1
102
RTVSPost2010Prop29
280
     1
102
RTVSPost2010PropOp29
 70
     1
102
RTVSPost2010Prop30
280
     1
102
RTVSPost2010PropOp30
 70
     1
102
RTVSPost2010Prop31
280
     0
102
RTVSPost2010PropOp31
 70
     1
102
RTVSPost2010Prop32
280
     0
102
RTVSPost2010PropOp32
 70
     1
102
RTVSPost2010Prop33
280
     0
102
RTVSPost2010PropOp33
 70
     1
102
RTVSPost2010Prop34
280
     0
102
RTVSPost2010PropOp34
 70
     1
102
RTVSPost2010Prop35
280
     0
102
RTVSPost2010PropOp35
 70
     1
102
RTVSPost2010Prop36
280
     0
102
RTVSPost2010PropOp36
 70
     1
102
RTVSPost2010Prop37
 90
       50
102
RTVSPost2010PropOp37
 70
     1
102
RTVSPost2010Prop38
140
0.0
102
RTVSPost2010PropOp38
 70
     1
102
RTVSPost2010Prop39
140
1.0
102
RTVSPost2010PropOp39
 70
     1
102
RTVSPost2010Prop40
 90
        0
102
RTVSPost2010PropOp40
 70
     1
102
RTVSPost2010Prop41ColorIndex
 90
       18
102
RTVSPost2010Prop41ColorRGB
 90
        0
102
RTVSPost2010PropOp41
 70
     1
102
RTVSPost2010Prop42
 90
       50
102
RTVSPost2010PropOp42
 70
     1
102
RTVSPost2010Prop43
 90
        3
102
RTVSPost2010PropOp43
 70
     1
102
RTVSPost2010Prop44ColorIndex
 90
        5
102
RTVSPost2010Prop44ColorRGB
 90
      255
102
RTVSPost2010PropOp44
 70
     1
102
RTVSPost2010Prop45
280
     0
102
RTVSPost2010PropOp45
 70
     1
102
RTVSPost2010Prop46
 90
       50
102
RTVSPost2010PropOp46
 70
     1
102
RTVSPost2010Prop47
 90
       50
102
RTVSPost2010PropOp47
 70
     1
102
RTVSPost2010Prop48
 90
       50
102
RTVSPost2010PropOp48
 70
     1
102
RTVSPost2010Prop49
280
     0
102
RTVSPost2010PropOp49
 70
     1
102
RTVSPost2010Prop50
 90
       50
102
RTVSPost2010PropOp50
 70
     1
102
RTVSPost2010Prop51ColorIndex
 90
      256
102
RTVSPost2010Prop51ColorRGB
 90
-16777216
102
RTVSPost2010PropOp51
 70
     0
102
RTVSPost2010Prop52
140
1.0
102
RTVSPost2010PropOp52
 70
     0
102
RTVSPost2010Prop53
 90
        2
102
RTVSPost2010PropOp53
 70
     1
102
RTVSPost2010Prop54
  1
strokes_ogs.tif
102
RTVSPost2010PropOp54
 70
     1
102
RTVSPost2010Prop55
280
     0
102
RTVSPost2010PropOp55
 70
     1
102
RTVSPost2010Prop56
140
1.0
102
RTVSPost2010PropOp56
 70
     1
102
RTVSPost2010Prop57
140
1.0
102
RTVSPost2010PropOp57
 70
     1
  0
ENDSEC
  0
EOF
