  0
SECTION
  2
HEADER
  9
$ACADVER
  1
AC1027
  9
$ACADMAINTVER
 70
   125
  9
$DWGCODEPAGE
  3
ANSI_1252
  9
$LASTSAVEDBY
  1
clastring
  9
$REQUIREDVERSIONS
160
                 0
  9
$INSBASE
 10
0.0
 20
0.0
 30
0.0
  9
$EXTMIN
 10
-541.2155945932801
 20
40.32227015426989
 30
0.0
  9
$EXTMAX
 10
-531.146436769237
 20
54.64498994306609
 30
0.0
  9
$LIMMIN
 10
0.0
 20
0.0
  9
$LIMMAX
 10
210.0
 20
297.0
  9
$ORTHOMODE
 70
     1
  9
$REGENMODE
 70
     1
  9
$FILLMODE
 70
     1
  9
$QTEXTMODE
 70
     0
  9
$MIRRTEXT
 70
     0
  9
$LTSCALE
 40
1.0
  9
$ATTMODE
 70
     1
  9
$TEXTSIZE
 40
150.0
  9
$TRACEWID
 40
1.0
  9
$TEXTSTYLE
  7
100
  9
$CLAYER
  8
Kontur 18
  9
$CELTYPE
  6
ByLayer
  9
$CECOLOR
 62
   256
  9
$CELTSCALE
 40
1.0
  9
$DISPSILH
 70
     0
  9
$DIMSCALE
 40
1.0
  9
$DIMASZ
 40
100.0
  9
$DIMEXO
 40
30.0
  9
$DIMDLI
 40
100.0
  9
$DIMRND
 40
0.0
  9
$DIMDLE
 40
0.0
  9
$DIMEXE
 40
20.0
  9
$DIMTP
 40
0.0
  9
$DIMTM
 40
0.0
  9
$DIMTXT
 40
100.0
  9
$DIMCEN
 40
100.0
  9
$DIMTSZ
 40
0.0
  9
$DIMTOL
 70
     0
  9
$DIMLIM
 70
     0
  9
$DIMTIH
 70
     0
  9
$DIMTOH
 70
     0
  9
$DIMSE1
 70
     0
  9
$DIMSE2
 70
     0
  9
$DIMTAD
 70
     1
  9
$DIMZIN
 70
     8
  9
$DIMBLK
  1

  9
$DIMASO
 70
     1
  9
$DIMSHO
 70
     1
  9
$DIMPOST
  1

  9
$DIMAPOST
  1

  9
$DIMALT
 70
     0
  9
$DIMALTD
 70
     3
  9
$DIMALTF
 40
0.03937007874016
  9
$DIMLFAC
 40
1.0
  9
$DIMTOFL
 70
     1
  9
$DIMTVP
 40
0.0
  9
$DIMTIX
 70
     0
  9
$DIMSOXD
 70
     0
  9
$DIMSAH
 70
     0
  9
$DIMBLK1
  1

  9
$DIMBLK2
  1

  9
$DIMSTYLE
  2
100
  9
$DIMCLRD
 70
     0
  9
$DIMCLRE
 70
     0
  9
$DIMCLRT
 70
     0
  9
$DIMTFAC
 40
1.0
  9
$DIMGAP
 40
20.0
  9
$DIMJUST
 70
     0
  9
$DIMSD1
 70
     0
  9
$DIMSD2
 70
     0
  9
$DIMTOLJ
 70
     0
  9
$DIMTZIN
 70
     8
  9
$DIMALTZ
 70
     0
  9
$DIMALTTZ
 70
     0
  9
$DIMUPT
 70
     0
  9
$DIMDEC
 70
     2
  9
$DIMTDEC
 70
     2
  9
$DIMALTU
 70
     2
  9
$DIMALTTD
 70
     3
  9
$DIMTXSTY
  7
Standard
  9
$DIMAUNIT
 70
     0
  9
$DIMADEC
 70
     2
  9
$DIMALTRND
 40
0.0
  9
$DIMAZIN
 70
     0
  9
$DIMDSEP
 70
    44
  9
$DIMATFIT
 70
     3
  9
$DIMFRAC
 70
     0
  9
$DIMLDRBLK
  1

  9
$DIMLUNIT
 70
     2
  9
$DIMLWD
 70
    -2
  9
$DIMLWE
 70
    -2
  9
$DIMTMOVE
 70
     0
  9
$DIMFXL
 40
1.0
  9
$DIMFXLON
 70
     0
  9
$DIMJOGANG
 40
0.7853981633974483
  9
$DIMTFILL
 70
     0
  9
$DIMTFILLCLR
 70
     0
  9
$DIMARCSYM
 70
     0
  9
$DIMLTYPE
  6

  9
$DIMLTEX1
  6

  9
$DIMLTEX2
  6

  9
$DIMTXTDIRECTION
 70
     0
  9
$LUNITS
 70
     2
  9
$LUPREC
 70
     4
  9
$SKETCHINC
 40
1.0
  9
$FILLETRAD
 40
0.0
  9
$AUNITS
 70
     0
  9
$AUPREC
 70
     0
  9
$MENU
  1
.
  9
$ELEVATION
 40
0.0
  9
$PELEVATION
 40
0.0
  9
$THICKNESS
 40
0.0
  9
$LIMCHECK
 70
     0
  9
$CHAMFERA
 40
0.0
  9
$CHAMFERB
 40
0.0
  9
$CHAMFERC
 40
0.0
  9
$CHAMFERD
 40
0.0
  9
$SKPOLY
 70
     0
  9
$TDCREATE
 40
2453325.357152777
  9
$TDUCREATE
 40
2453325.315497315
  9
$TDUPDATE
 40
2458972.544375000
  9
$TDUUPDATE
 40
2458972.461041667
  9
$TDINDWG
 40
4.5502101157
  9
$TDUSRTIMER
 40
4.5502083102
  9
$USRTIMER
 70
     1
  9
$ANGBASE
 50
0.0
  9
$ANGDIR
 70
     0
  9
$PDMODE
 70
     0
  9
$PDSIZE
 40
0.0
  9
$PLINEWID
 40
0.0
  9
$SPLFRAME
 70
     0
  9
$SPLINETYPE
 70
     6
  9
$SPLINESEGS
 70
     8
  9
$HANDSEED
  5
33DC3
  9
$SURFTAB1
 70
     6
  9
$SURFTAB2
 70
     6
  9
$SURFTYPE
 70
     6
  9
$SURFU
 70
     6
  9
$SURFV
 70
     6
  9
$UCSBASE
  2

  9
$UCSNAME
  2

  9
$UCSORG
 10
0.0
 20
0.0
 30
0.0
  9
$UCSXDIR
 10
1.0
 20
0.0
 30
0.0
  9
$UCSYDIR
 10
0.0
 20
1.0
 30
0.0
  9
$UCSORTHOREF
  2

  9
$UCSORTHOVIEW
 70
     0
  9
$UCSORGTOP
 10
0.0
 20
0.0
 30
0.0
  9
$UCSORGBOTTOM
 10
0.0
 20
0.0
 30
0.0
  9
$UCSORGLEFT
 10
0.0
 20
0.0
 30
0.0
  9
$UCSORGRIGHT
 10
0.0
 20
0.0
 30
0.0
  9
$UCSORGFRONT
 10
0.0
 20
0.0
 30
0.0
  9
$UCSORGBACK
 10
0.0
 20
0.0
 30
0.0
  9
$PUCSBASE
  2

  9
$PUCSNAME
  2

  9
$PUCSORG
 10
0.0
 20
0.0
 30
0.0
  9
$PUCSXDIR
 10
1.0
 20
0.0
 30
0.0
  9
$PUCSYDIR
 10
0.0
 20
1.0
 30
0.0
  9
$PUCSORTHOREF
  2

  9
$PUCSORTHOVIEW
 70
     0
  9
$PUCSORGTOP
 10
0.0
 20
0.0
 30
0.0
  9
$PUCSORGBOTTOM
 10
0.0
 20
0.0
 30
0.0
  9
$PUCSORGLEFT
 10
0.0
 20
0.0
 30
0.0
  9
$PUCSORGRIGHT
 10
0.0
 20
0.0
 30
0.0
  9
$PUCSORGFRONT
 10
0.0
 20
0.0
 30
0.0
  9
$PUCSORGBACK
 10
0.0
 20
0.0
 30
0.0
  9
$USERI1
 70
     0
  9
$USERI2
 70
     0
  9
$USERI3
 70
     0
  9
$USERI4
 70
     0
  9
$USERI5
 70
     0
  9
$USERR1
 40
0.0
  9
$USERR2
 40
0.0
  9
$USERR3
 40
0.0
  9
$USERR4
 40
0.0
  9
$USERR5
 40
0.0
  9
$WORLDVIEW
 70
     1
  9
$SHADEDGE
 70
     3
  9
$SHADEDIF
 70
    70
  9
$TILEMODE
 70
     1
  9
$MAXACTVP
 70
    64
  9
$PINSBASE
 10
0.0
 20
0.0
 30
0.0
  9
$PLIMCHECK
 70
     0
  9
$PEXTMIN
 10
28.68718261718749
 20
19.99191808700561
 30
0.0
  9
$PEXTMAX
 10
258.1846435546875
 20
179.9272627830505
 30
0.0
  9
$PLIMMIN
 10
-4.9847412109375
 20
-4.984749794006346
  9
$PLIMMAX
 10
292.0259094238281
 20
205.0309209823609
  9
$UNITMODE
 70
     0
  9
$VISRETAIN
 70
     1
  9
$PLINEGEN
 70
     0
  9
$PSLTSCALE
 70
     1
  9
$TREEDEPTH
 70
  3020
  9
$CMLSTYLE
  2
Standard
  9
$CMLJUST
 70
     0
  9
$CMLSCALE
 40
20.0
  9
$PROXYGRAPHICS
 70
     1
  9
$MEASUREMENT
 70
     1
  9
$CELWEIGHT
370
    -1
  9
$ENDCAPS
280
     0
  9
$JOINSTYLE
280
     0
  9
$LWDISPLAY
290
     0
  9
$INSUNITS
 70
     4
  9
$HYPERLINKBASE
  1

  9
$STYLESHEET
  1
MONOCHROME.CTB
  9
$XEDIT
290
     1
  9
$CEPSNTYPE
380
     0
  9
$PSTYLEMODE
290
     1
  9
$FINGERPRINTGUID
  2
{84C6DA88-BD7E-44D7-AD8D-086D7E86F6BE}
  9
$VERSIONGUID
  2
{1C2FD6F2-A106-BB43-B5E5-57056F5EEB3C}
  9
$EXTNAMES
290
     1
  9
$PSVPSCALE
 40
0.0
  9
$OLESTARTUP
290
     0
  9
$SORTENTS
280
   127
  9
$INDEXCTL
280
     0
  9
$HIDETEXT
280
     1
  9
$XCLIPFRAME
280
     2
  9
$HALOGAP
280
     0
  9
$OBSCOLOR
 70
   257
  9
$OBSLTYPE
280
     0
  9
$INTERSECTIONDISPLAY
280
     0
  9
$INTERSECTIONCOLOR
 70
   257
  9
$DIMASSOC
280
     2
  9
$PROJECTNAME
  1

  9
$CAMERADISPLAY
290
     0
  9
$LENSLENGTH
 40
50.0
  9
$CAMERAHEIGHT
 40
0.0
  9
$STEPSPERSEC
 40
2.0
  9
$STEPSIZE
 40
6.0
  9
$3DDWFPREC
 40
2.0
  9
$PSOLWIDTH
 40
0.25
  9
$PSOLHEIGHT
 40
4.0
  9
$LOFTANG1
 40
1.570796326794896
  9
$LOFTANG2
 40
1.570796326794896
  9
$LOFTMAG1
 40
0.0
  9
$LOFTMAG2
 40
0.0
  9
$LOFTPARAM
 70
     7
  9
$LOFTNORMALS
280
     1
  9
$LATITUDE
 40
37.795
  9
$LONGITUDE
 40
-122.394
  9
$NORTHDIRECTION
 40
0.0
  9
$TIMEZONE
 70
 -8000
  9
$LIGHTGLYPHDISPLAY
280
     1
  9
$TILEMODELIGHTSYNCH
280
     1
  9
$CMATERIAL
347
1D8F
  9
$SOLIDHIST
280
     1
  9
$SHOWHIST
280
     1
  9
$DWFFRAME
280
     2
  9
$DGNFRAME
280
     0
  9
$REALWORLDSCALE
290
     1
  9
$INTERFERECOLOR
 62
     1
  9
$INTERFEREOBJVS
345
1D9C
  9
$INTERFEREVPVS
346
1D99
  9
$CSHADOW
280
     0
  9
$SHADOWPLANELOCATION
 40
0.0
  0
ENDSEC
  0
SECTION
  2
CLASSES
  0
CLASS
  1
ACDBDICTIONARYWDFLT
  2
AcDbDictionaryWithDefault
  3
ObjectDBX Classes
 90
        0
 91
        1
280
     0
281
     0
  0
CLASS
  1
TABLESTYLE
  2
AcDbTableStyle
  3
ObjectDBX Classes
 90
     4095
 91
        1
280
     0
281
     0
  0
CLASS
  1
DICTIONARYVAR
  2
AcDbDictionaryVar
  3
ObjectDBX Classes
 90
        0
 91
       16
280
     0
281
     0
  0
CLASS
  1
DIMASSOC
  2
AcDbDimAssoc
  3
"AcDbDimAssoc|Product Desc:     AcDim ARX App For Dimension|Company:          Autodesk, Inc.|WEB Address:      www.autodesk.com"
 90
        0
 91
        0
280
     0
281
     0
  0
CLASS
  1
SORTENTSTABLE
  2
AcDbSortentsTable
  3
ObjectDBX Classes
 90
        0
 91
        2
280
     0
281
     0
  0
CLASS
  1
MATERIAL
  2
AcDbMaterial
  3
ObjectDBX Classes
 90
     1153
 91
        3
280
     0
281
     0
  0
CLASS
  1
VISUALSTYLE
  2
AcDbVisualStyle
  3
ObjectDBX Classes
 90
     4095
 91
       26
280
     0
281
     0
  0
CLASS
  1
ACAD_EVALUATION_GRAPH
  2
AcDbEvalGraph
  3
ObjectDBX Classes
 90
     1153
 91
        0
280
     0
281
     0
  0
CLASS
  1
ACAECUSTOBJ
  2
AcAeEditorObj
  3
AcAeEditorObj
 90
     1024
 91
        0
280
     0
281
     0
  0
CLASS
  1
ACDB_DYNAMICBLOCKPURGEPREVENTER_VERSION
  2
AcDbDynamicBlockPurgePreventer
  3
ObjectDBX Classes
 90
     1153
 91
        0
280
     0
281
     0
  0
CLASS
  1
SCALE
  2
AcDbScale
  3
ObjectDBX Classes
 90
     1153
 91
       23
280
     0
281
     0
  0
CLASS
  1
MLEADERSTYLE
  2
AcDbMLeaderStyle
  3
ACDB_MLEADERSTYLE_CLASS
 90
     4095
 91
        1
280
     0
281
     0
  0
CLASS
  1
CELLSTYLEMAP
  2
AcDbCellStyleMap
  3
ObjectDBX Classes
 90
     1152
 91
        2
280
     0
281
     0
  0
CLASS
  1
MULTILEADER
  2
AcDbMLeader
  3
ACDB_MLEADER_CLASS
 90
     1025
 91
        0
280
     0
281
     1
  0
CLASS
  1
AEC_REFEDIT_STATUS_TRACKER
  2
AecDbRefEditStatusTracker
  3
AecArchBase80|Product Desc: Autodesk Architectural Desktop 2007 |Company: Autodesk,Inc. |WEB Address: www.autodesk.com
 90
      129
 91
        0
280
     0
281
     0
  0
CLASS
  1
NPOCOLLECTION
  2
AcDbImpNonPersistentObjectsCollection
  3
ObjectDBX Classes
 90
     1153
 91
        1
280
     0
281
     0
  0
CLASS
  1
IMAGEDEF
  2
AcDbRasterImageDef
  3
ISM
 90
        0
 91
        0
280
     0
281
     0
  0
CLASS
  1
RASTERVARIABLES
  2
AcDbRasterVariables
  3
ISM
 90
        0
 91
        1
280
     0
281
     0
  0
CLASS
  1
IMAGEDEF_REACTOR
  2
AcDbRasterImageDefReactor
  3
ISM
 90
        1
 91
        0
280
     0
281
     0
  0
CLASS
  1
IMAGE
  2
AcDbRasterImage
  3
ISM
 90
     2175
 91
        0
280
     0
281
     1
  0
CLASS
  1
ACDB_BLOCKREPRESENTATION_DATA
  2
AcDbBlockRepresentationData
  3
ObjectDBX Classes
 90
     1153
 91
        0
280
     0
281
     0
  0
CLASS
  1
SOLID_BACKGROUND
  2
AcDbSolidBackground
  3
SCENEOE
 90
     4095
 91
        0
280
     0
281
     0
  0
CLASS
  1
EXACXREFPANELOBJECT
  2
ExAcXREFPanelObject
  3
EXAC_ESW
 90
     1025
 91
        1
280
     0
281
     0
  0
CLASS
  1
WIPEOUT
  2
AcDbWipeout
  3
WipeOut|Product Desc: Object Enabler for WipeOut entity | Company: Autodesk, Inc. | WEB Address: www.autodesk.com
 90
     2175
 91
        0
280
     0
281
     1
  0
CLASS
  1
WIPEOUTVARIABLES
  2
AcDbWipeoutVariables
  3
"WipeOut|Product Desc:     WipeOut Dbx Application|Company:          Autodesk, Inc.|WEB Address:      www.autodesk.com"
 90
        0
 91
        1
280
     0
281
     0
  0
CLASS
  1
ARC_DIMENSION
  2
AcDbArcDimension
  3
ObjectDBX Classes
 90
     1025
 91
        0
280
     0
281
     1
  0
CLASS
  1
PDFDEFINITION
  2
AcDbPdfDefinition
  3
ObjectDBX Classes
 90
     1153
 91
        0
280
     0
281
     0
  0
CLASS
  1
PDFUNDERLAY
  2
AcDbPdfReference
  3
ObjectDBX Classes
 90
     4095
 91
        0
280
     0
281
     1
  0
CLASS
  1
ACDBSECTIONVIEWSTYLE
  2
AcDbSectionViewStyle
  3
ObjectDBX Classes
 90
     1025
 91
        1
280
     0
281
     0
  0
CLASS
  1
ACDBDETAILVIEWSTYLE
  2
AcDbDetailViewStyle
  3
ObjectDBX Classes
 90
     1025
 91
        1
280
     0
281
     0
  0
CLASS
  1
DBCOLOR
  2
AcDbColor
  3
ObjectDBX Classes
 90
        0
 91
        0
280
     0
281
     0
  0
ENDSEC
  0
SECTION
  2
TABLES
  0
TABLE
  2
VPORT
  5
8
102
{ACAD_XDICTIONARY
360
592E
102
}
330
0
100
AcDbSymbolTable
 70
     1
1001
ACAD
1000
DbSaveVer
1071
      207
  0
VPORT
  5
1D8D
330
8
100
AcDbSymbolTableRecord
100
AcDbViewportTableRecord
  2
*Active
 70
     0
 10
0.0
 20
0.0
 11
1.0
 21
1.0
 12
-534.1272385891598
 22
46.22416616595225
 13
0.0
 23
0.0
 14
10.0
 24
10.0
 15
10.0
 25
10.0
 16
0.0
 26
0.0
 36
1.0
 17
0.0
 27
0.0
 37
0.0
 40
23.90214507543436
 41
2.133561643835616
 42
50.0
 43
0.0
 44
0.0
 50
0.0
 51
0.0
 71
     0
 72
  1000
 73
     1
 74
     3
 75
     0
 76
     0
 77
     0
 78
     0
281
     0
 65
     1
110
0.0
120
0.0
130
0.0
111
1.0
121
0.0
131
0.0
112
0.0
122
1.0
132
0.0
 79
     0
146
0.0
348
1D98
 60
     3
 61
     5
292
     1
282
     1
141
0.0
142
0.0
 63
   250
421
  3355443
1001
ACAD_NAV_VCDISPLAY
1070
     3
  0
ENDTAB
  0
TABLE
  2
LTYPE
  5
5
330
0
100
AcDbSymbolTable
 70
     3
  0
LTYPE
  5
14
330
5
100
AcDbSymbolTableRecord
100
AcDbLinetypeTableRecord
  2
ByBlock
 70
     0
  3

 72
    65
 73
     0
 40
0.0
  0
LTYPE
  5
15
330
5
100
AcDbSymbolTableRecord
100
AcDbLinetypeTableRecord
  2
ByLayer
 70
     0
  3

 72
    65
 73
     0
 40
0.0
  0
LTYPE
  5
16
330
5
100
AcDbSymbolTableRecord
100
AcDbLinetypeTableRecord
  2
Continuous
 70
     0
  3
Solid line
 72
    65
 73
     0
 40
0.0
  0
LTYPE
  5
32AF2
330
5
100
AcDbSymbolTableRecord
100
AcDbLinetypeTableRecord
  2
HIDDEN2
 70
     0
  3
Hidden (.5x) _ _ _ _ _ _ _ _ _ _ _ _ _ _ _ _ _
 72
    65
 73
     2
 40
4.762499999999998
 49
3.174999999999998
 74
     0
 49
-1.587499999999999
 74
     0
  0
LTYPE
  5
32DCB
330
5
100
AcDbSymbolTableRecord
100
AcDbLinetypeTableRecord
  2
ACAD_ISO10W100
 70
     0
  3
ISO Strichpunktlinie __ . __ . __ . __ . __ . _
 72
    65
 73
     4
 40
18.0
 49
12.0
 74
     0
 49
-3.0
 74
     0
 49
0.0
 74
     0
 49
-3.0
 74
     0
  0
ENDTAB
  0
TABLE
  2
LAYER
  5
2
102
{ACAD_XDICTIONARY
360
48
102
}
330
0
100
AcDbSymbolTable
 70
    10
  0
LAYER
  5
10
102
{ACAD_XDICTIONARY
360
253B
102
}
330
2
100
AcDbSymbolTableRecord
100
AcDbLayerTableRecord
  2
0
 70
     0
 62
     7
  6
Continuous
370
    -3
390
F
347
1D91
348
0
  0
LAYER
  5
3F
102
{ACAD_XDICTIONARY
360
2549
102
}
330
2
100
AcDbSymbolTableRecord
100
AcDbLayerTableRecord
  2
Kontur 18
 70
     0
 62
     1
  6
Continuous
370
    18
390
F
347
1D91
348
0
1001
AcAecLayerStandard
1000

1000

  0
LAYER
  5
32A88
102
{ACAD_XDICTIONARY
360
32A89
102
}
330
2
100
AcDbSymbolTableRecord
100
AcDbLayerTableRecord
  2
Text
 70
     0
 62
     3
  6
Continuous
370
    25
390
F
347
1D91
348
0
1001
AcAecLayerStandard
1000

1000

  0
LAYER
  5
32A8C
330
2
100
AcDbSymbolTableRecord
100
AcDbLayerTableRecord
  2
dünne Linie
 70
     0
 62
   143
  6
Continuous
370
     5
390
F
347
1D91
348
0
1001
AcAecLayerStandard
1000

1000

  0
LAYER
  5
32AF3
102
{ACAD_XDICTIONARY
360
32AF4
102
}
330
2
100
AcDbSymbolTableRecord
100
AcDbLayerTableRecord
  2
Bemaßung
 70
     0
 62
     9
  6
Continuous
370
     5
390
F
347
1D91
348
0
1001
AcAecLayerStandard
1000

1000

  0
LAYER
  5
32AF5
102
{ACAD_XDICTIONARY
360
32AF6
102
}
330
2
100
AcDbSymbolTableRecord
100
AcDbLayerTableRecord
  2
Strichlinien
 70
     0
 62
   201
  6
HIDDEN2
370
    13
390
F
347
1D91
348
0
1001
AcAecLayerStandard
1000

1000

  0
LAYER
  5
32AF7
330
2
100
AcDbSymbolTableRecord
100
AcDbLayerTableRecord
  2
Defpoints
 70
     0
 62
     7
  6
Continuous
290
     0
370
    -3
390
F
347
1D91
348
0
  0
LAYER
  5
32DCE
330
2
100
AcDbSymbolTableRecord
100
AcDbLayerTableRecord
  2
Sicherheitsbereich
 70
     0
 62
    31
  6
HIDDEN2
370
    13
390
F
347
1D91
348
0
1001
AcAecLayerStandard
1000

1000

1001
AcCmTransparency
1071
        0
  0
LAYER
  5
32DCF
330
2
100
AcDbSymbolTableRecord
100
AcDbLayerTableRecord
  2
Umlaufraum
 70
     0
 62
    54
  6
ACAD_ISO10W100
370
     9
390
F
347
1D91
348
0
1001
AcAecLayerStandard
1000

1000

1001
AcCmTransparency
1071
        0
  0
LAYER
  5
3399A
330
2
100
AcDbSymbolTableRecord
100
AcDbLayerTableRecord
  2
ESF_Spielgeraet
 70
     0
 62
     7
  6
Continuous
370
    15
390
F
347
1D91
348
0
1001
AcAecLayerStandard
1000

1000

1001
AcCmTransparency
1071
        0
  0
ENDTAB
  0
TABLE
  2
STYLE
  5
3
330
0
100
AcDbSymbolTable
 70
     3
  0
STYLE
  5
11
330
3
100
AcDbSymbolTableRecord
100
AcDbTextStyleTableRecord
  2
Standard
 70
     0
 40
0.0
 41
1.0
 50
0.0
 71
     0
 42
150.0
  3
tahoma.ttf
  4

1001
ACAD
1000
Tahoma
1071
       34
  0
STYLE
  5
BA8
330
3
100
AcDbSymbolTableRecord
100
AcDbTextStyleTableRecord
  2
100
 70
     0
 40
100.0
 41
1.0
 50
0.0
 71
     0
 42
150.0
  3
tahoma.ttf
  4

1001
ACAD
1000
Tahoma
1071
       34
  0
STYLE
  5
339AC
330
3
100
AcDbSymbolTableRecord
100
AcDbTextStyleTableRecord
  2
2.5
 70
     0
 40
2.5
 41
1.0
 50
0.0
 71
     0
 42
2.5
  3
arial.ttf
  4

1001
ACAD
1000
Arial
1071
       34
  0
ENDTAB
  0
TABLE
  2
VIEW
  5
6
330
0
100
AcDbSymbolTable
 70
     0
  0
ENDTAB
  0
TABLE
  2
UCS
  5
7
330
0
100
AcDbSymbolTable
 70
     0
  0
ENDTAB
  0
TABLE
  2
APPID
  5
9
330
0
100
AcDbSymbolTable
 70
    23
  0
APPID
  5
12
330
9
100
AcDbSymbolTableRecord
100
AcDbRegAppTableRecord
  2
ACAD
 70
     0
  0
APPID
  5
2F
330
9
100
AcDbSymbolTableRecord
100
AcDbRegAppTableRecord
  2
ACAD_PSEXT
 70
     0
  0
APPID
  5
39
330
9
100
AcDbSymbolTableRecord
100
AcDbRegAppTableRecord
  2
AcAecLayerStandard
 70
     0
  0
APPID
  5
1DB7
330
9
100
AcDbSymbolTableRecord
100
AcDbRegAppTableRecord
  2
ACAD_EXEMPT_FROM_CAD_STANDARDS
 70
     0
  0
APPID
  5
2091
330
9
100
AcDbSymbolTableRecord
100
AcDbRegAppTableRecord
  2
ACAUTHENVIRON
 70
     0
  0
APPID
  5
2096
330
9
100
AcDbSymbolTableRecord
100
AcDbRegAppTableRecord
  2
AcDbDynamicBlockTrueName
 70
     0
  0
APPID
  5
2097
330
9
100
AcDbSymbolTableRecord
100
AcDbRegAppTableRecord
  2
AcDbDynamicBlockGUID
 70
     0
  0
APPID
  5
2099
330
9
100
AcDbSymbolTableRecord
100
AcDbRegAppTableRecord
  2
AcDbBlockRepETag
 70
     0
  0
APPID
  5
2115
330
9
100
AcDbSymbolTableRecord
100
AcDbRegAppTableRecord
  2
ACAD_DSTYLE_DIMTEXT_FILL
 70
     0
  0
APPID
  5
2116
330
9
100
AcDbSymbolTableRecord
100
AcDbRegAppTableRecord
  2
AcDbBlockRepBTag
 70
     0
  0
APPID
  5
252F
330
9
100
AcDbSymbolTableRecord
100
AcDbRegAppTableRecord
  2
ACAD_MLEADERVER
 70
     0
  0
APPID
  5
257F
330
9
100
AcDbSymbolTableRecord
100
AcDbRegAppTableRecord
  2
ACAD_DSTYLE_DIMJAG
 70
     0
  0
APPID
  5
2580
330
9
100
AcDbSymbolTableRecord
100
AcDbRegAppTableRecord
  2
ACAD_DSTYLE_DIMTALN
 70
     0
  0
APPID
  5
26EC
330
9
100
AcDbSymbolTableRecord
100
AcDbRegAppTableRecord
  2
AcadAnnoAV
 70
     0
  0
APPID
  5
2738
330
9
100
AcDbSymbolTableRecord
100
AcDbRegAppTableRecord
  2
ACAD_DSTYLE_DIMBREAK
 70
     0
  0
APPID
  5
273B
330
9
100
AcDbSymbolTableRecord
100
AcDbRegAppTableRecord
  2
AcadAnnoPO
 70
     0
  0
APPID
  5
828C
330
9
100
AcDbSymbolTableRecord
100
AcDbRegAppTableRecord
  2
AcadAnnotative
 70
     0
  0
APPID
  5
C44A
330
9
100
AcDbSymbolTableRecord
100
AcDbRegAppTableRecord
  2
ACAD_DSTYLE_DIMRADIAL_EXTENSION
 70
     0
  0
APPID
  5
CB35
330
9
100
AcDbSymbolTableRecord
100
AcDbRegAppTableRecord
  2
GradientColor1ACI
 70
     0
  0
APPID
  5
CB36
330
9
100
AcDbSymbolTableRecord
100
AcDbRegAppTableRecord
  2
GradientColor2ACI
 70
     0
  0
APPID
  5
12C71
330
9
100
AcDbSymbolTableRecord
100
AcDbRegAppTableRecord
  2
AcCmTransparency
 70
     0
  0
APPID
  5
2268C
330
9
100
AcDbSymbolTableRecord
100
AcDbRegAppTableRecord
  2
AdeskUnderlayLayerOverrideData
 70
     0
  0
APPID
  5
31C07
330
9
100
AcDbSymbolTableRecord
100
AcDbRegAppTableRecord
  2
ACAD_NAV_VCDISPLAY
 70
     0
  0
ENDTAB
  0
TABLE
  2
DIMSTYLE
  5
A
330
0
100
AcDbSymbolTable
 70
     1
100
AcDbDimStyleTable
 71
     1
340
BA4
  0
DIMSTYLE
105
BA4
102
{ACAD_REACTORS
330
33D6C
102
}
330
A
100
AcDbSymbolTableRecord
100
AcDbDimStyleTableRecord
  2
100
 70
     0
 41
100.0
 42
30.0
 43
100.0
 44
20.0
 73
     0
 74
     0
 77
     1
 78
     8
140
100.0
141
100.0
143
0.03937007874016
147
20.0
171
     3
172
     1
179
     2
271
     2
272
     2
274
     3
278
    44
283
     0
284
     8
340
11
1001
ACAD_DSTYLE_DIMJAG
1070
   388
1040
1.5
1001
ACAD_DSTYLE_DIMTALN
1070
   392
1070
     0
  0
ENDTAB
  0
TABLE
  2
BLOCK_RECORD
  5
1
330
0
100
AcDbSymbolTable
 70
     3
  0
BLOCK_RECORD
  5
23
102
{ACAD_XDICTIONARY
360
1FDD
102
}
330
1
100
AcDbSymbolTableRecord
100
AcDbBlockTableRecord
  2
*Model_Space
340
26
 70
     0
280
     1
281
     0
  0
BLOCK_RECORD
  5
31D04
330
1
100
AcDbSymbolTableRecord
100
AcDbBlockTableRecord
  2
*Paper_Space
340
31D05
 70
     0
280
     1
281
     0
  0
BLOCK_RECORD
  5
32C81
330
1
100
AcDbSymbolTableRecord
100
AcDbBlockTableRecord
  2
Spielhäuschen Hummel
340
0
310
28000000200000002000000001002000000000000010000001000000010000000000000000000000302821FF302821FF302821FF302821FF302821FF302821FF302821FF302821FF302821FF302821FF302821FF302821FF302821FF302821FF302821FF302821FF302821FF302821FF302821FF302821FF302821FF302821
310
FF302821FF302821FF302821FF302821FF302821FF302821FF302821FF302821FF302821FF302821FF302821FF302821FF302821FF302821FF302821FF302821FF302821FF302821FF302821FF302821FF302821FF302821FFFFFFFFFFFFFFFFFFFFFFFFFF302821FF302821FF302821FF302821FF302821FF302821FF3028
310
21FF302821FF302821FF302821FF302821FF302821FF302821FF302821FF302821FF302821FF302821FF302821FF302821FF302821FF302821FF302821FF302821FF302821FF302821FFFFFFFFFFFFFFFFFFFFFFFFFFFFFFFFFF302821FF302821FF302821FFFFFFFFFFFFFFFFFFFFFFFFFF302821FF302821FF302821FF30
310
2821FF302821FF302821FF302821FF302821FF302821FF302821FF302821FF302821FF302821FF302821FF302821FF302821FF302821FF302821FF302821FF302821FF302821FFFFFFFFFF302821FF302821FF302821FF302821FF302821FF302821FF302821FF302821FF302821FF302821FFFFFFFFFF302821FF302821FF
310
302821FF302821FF302821FF302821FF302821FF302821FF302821FF302821FF302821FF302821FF302821FF302821FF302821FF302821FF302821FF302821FF302821FFFFFFFFFF302821FF302821FF302821FF302821FF302821FF302821FF302821FF302821FF302821FF302821FF302821FF302821FFFFFFFFFF302821
310
FF302821FF302821FF302821FF302821FF302821FF302821FF302821FF302821FF302821FF302821FF302821FF302821FF302821FF302821FF302821FF302821FF302821FFFFFFFFFF302821FF302821FF302821FF302821FF302821FF302821FF302821FF302821FF302821FF302821FF302821FF302821FF302821FFFFFF
310
FFFF302821FF302821FF302821FF302821FF302821FF302821FF302821FF302821FF302821FF302821FF302821FF302821FF302821FF302821FF302821FF302821FF302821FFFFFFFFFF302821FF302821FF302821FF302821FF302821FF302821FF302821FF302821FF302821FF302821FF302821FF302821FF302821FFFF
310
FFFFFF302821FF302821FF302821FF302821FF302821FF302821FF302821FF302821FF302821FF302821FF302821FF302821FF302821FF302821FF302821FF302821FF302821FFFFFFFFFF302821FF302821FF302821FF302821FF302821FF302821FF302821FF302821FF302821FF302821FF302821FF302821FF302821FF
310
FFFFFFFF302821FF302821FF302821FF302821FF302821FF302821FF302821FF302821FF302821FF302821FF302821FF302821FF302821FF302821FF302821FF302821FFFFFFFFFF302821FF302821FF302821FF302821FF302821FF302821FFFFFFFFFFFFFFFFFFFFFFFFFF302821FF302821FF302821FF302821FF302821
310
FF302821FFFFFFFFFF302821FF302821FF302821FF302821FF302821FF302821FF302821FF302821FF302821FF302821FF302821FF302821FF302821FF302821FF302821FFFFFFFFFF302821FF302821FF302821FF302821FF302821FF302821FFFFFFFFFFFFFFFFFFFFFFFFFF302821FF302821FF302821FF302821FF3028
310
21FF302821FFFFFFFFFF302821FF302821FF302821FF302821FF302821FF302821FF302821FF302821FF302821FF302821FF302821FF302821FF302821FF302821FF302821FFFFFFFFFF302821FF302821FF302821FF302821FF302821FF302821FFFFFFFFFFFFFFFFFFFFFFFFFF302821FF302821FF302821FF302821FF30
310
2821FF302821FFFFFFFFFF302821FF302821FF302821FF302821FF302821FF302821FF302821FF302821FF302821FF302821FF302821FF302821FF302821FF302821FFFFFFFFFF302821FF302821FF302821FF302821FF302821FF302821FF302821FFFFFFFFFFFFFFFFFFFFFFFFFF302821FF302821FF302821FF302821FF
310
302821FF302821FFFFFFFFFFFFFFFFFF302821FF302821FF302821FF302821FF302821FF302821FF302821FF302821FF302821FF302821FF302821FF302821FFFFFFFFFF302821FF302821FF302821FF302821FF302821FF302821FF302821FF302821FFFFFFFFFFFFFFFFFFFFFFFFFFFFFFFFFFFFFFFFFFFFFFFFFFFFFFFF
310
FFFFFFFFFFFFFFFFFFFFFFFFFFFFFFFFFFFFFFFFFFFFFFFFFFFFFFFFFF302821FF302821FF302821FF302821FF302821FF302821FF302821FF302821FF302821FFFFFFFFFF302821FF302821FF302821FF302821FF302821FF302821FF302821FF302821FFFFFFFFFFFFFFFFFFFFFFFFFFFFFFFFFF302821FF302821FF3028
310
21FF302821FF302821FF302821FF302821FF302821FF302821FF302821FFFFFFFFFFFFFFFFFF302821FF302821FF302821FF302821FF302821FF302821FF302821FFFFFFFFFF302821FF302821FF302821FF302821FF302821FF302821FF302821FF302821FFFFFFFFFFFFFFFFFFFFFFFFFFFFFFFFFF302821FF302821FF30
310
2821FF302821FF302821FF302821FF302821FF302821FF302821FF302821FF302821FF302821FFFFFFFFFF302821FF302821FF302821FF302821FF302821FF302821FFFFFFFFFF302821FF302821FF302821FF302821FF302821FFFFFFFFFFFFFFFFFFFFFFFFFFFFFFFFFFFFFFFFFFFFFFFFFFFFFFFFFFFFFFFFFF302821FF
310
302821FF302821FF302821FF302821FF302821FF302821FF302821FF302821FF302821FF302821FF302821FFFFFFFFFF302821FF302821FF302821FF302821FF302821FFFFFFFFFF302821FF302821FF302821FF302821FF302821FFFFFFFFFFFFFFFFFFFFFFFFFFFFFFFFFFFFFFFFFFFFFFFFFFFFFFFFFFFFFFFFFFFFFFFF
310
FFFFFFFFFFFFFFFFFFFFFFFFFF302821FF302821FF302821FF302821FF302821FF302821FF302821FF302821FFFFFFFFFF302821FF302821FF302821FF302821FFFFFFFFFF302821FF302821FF302821FF302821FF302821FF302821FFFFFFFFFFFFFFFFFFFFFFFFFFFFFFFFFFFFFFFFFFFFFFFFFFFFFFFFFFFFFFFFFFFFFF
310
FFFFFFFFFFFFFFFFFFFFFFFFFFFFFFFFFFFF302821FF302821FF302821FF302821FF302821FF302821FF302821FFFFFFFFFF302821FF302821FF302821FF302821FFFFFFFFFF302821FF302821FF302821FF302821FF302821FFFFFFFFFFFFFFFFFFFFFFFFFFFFFFFFFFFFFFFFFFFFFFFFFFFFFFFFFFFFFFFFFFFFFFFFFFFF
310
FFFFFFFFFFFFFFFFFFFFFFFFFFFFFFFFFFFFFFFFFFFFFFFFFFFFFFFFFFFFFFFFFFFFFFFFFFFFFFFFFFFFFFFFFFFFFFFFFFFFFF302821FF302821FF302821FF302821FFFFFFFFFF302821FF302821FF302821FF302821FF302821FFFFFFFFFFFFFFFFFFFFFFFFFFFFFFFFFFFFFFFFFFFFFFFFFFFFFFFFFFFFFFFFFFFFFFFFFF
310
FFFFFFFFFFFFFFFFFFFFFFFFFFFFFFFFFFFFFFFF302821FF302821FF302821FF302821FF302821FF302821FF302821FFFFFFFFFF302821FF302821FF302821FF302821FFFFFFFFFF302821FF302821FF302821FF302821FF302821FF302821FFFFFFFFFFFFFFFFFFFFFFFFFFFFFFFFFFFFFFFFFFFFFFFFFFFFFFFFFFFFFFFF
310
FF302821FF302821FF302821FF302821FF302821FF302821FF302821FF302821FF302821FF302821FF302821FF302821FFFFFFFFFF302821FF302821FF302821FF302821FFFFFFFFFF302821FF302821FF302821FF302821FF302821FFFFFFFFFFFFFFFFFFFFFFFFFFFFFFFFFFFFFFFFFFFFFFFFFFFFFFFFFFFFFFFFFFFFFF
310
FFFF302821FF302821FF302821FF302821FF302821FF302821FF302821FF302821FF302821FF302821FF302821FFFFFFFFFF302821FF302821FF302821FF302821FF302821FFFFFFFFFF302821FF302821FF302821FF302821FF302821FF302821FFFFFFFFFFFFFFFFFFFFFFFFFFFFFFFFFFFFFFFFFFFFFFFFFFFFFFFFFFFF
310
FFFFFF302821FF302821FF302821FF302821FF302821FF302821FF302821FF302821FF302821FF302821FFFFFFFFFF302821FF302821FF302821FF302821FF302821FF302821FFFFFFFFFF302821FF302821FF302821FF302821FF302821FF302821FFFFFFFFFFFFFFFFFFFFFFFFFFFFFFFFFFFFFFFFFFFFFFFFFFFFFFFFFF
310
FFFFFFFFFFFFFFFFFFFFFFFFFFFFFFFFFFFFFFFFFFFFFFFFFFFFFFFFFFFFFFFFFFFFFFFFFFFFFFFFFFFFFFFF302821FF302821FF302821FF302821FF302821FF302821FF302821FFFFFFFFFF302821FF302821FF302821FF302821FF302821FF302821FF302821FF302821FF302821FF302821FF302821FF302821FF302821
310
FF302821FF302821FF302821FF302821FF302821FF302821FF302821FFFFFFFFFF302821FF302821FF302821FF302821FF302821FF302821FF302821FF302821FF302821FF302821FF302821FFFFFFFFFF302821FF302821FF302821FF302821FF302821FF302821FF302821FF302821FF302821FF302821FF302821FF3028
310
21FF302821FF302821FF302821FF302821FF302821FF302821FFFFFFFFFF302821FF302821FF302821FF302821FF302821FF302821FF302821FF302821FF302821FF302821FF302821FF302821FFFFFFFFFF302821FF302821FF302821FF302821FF302821FF302821FF302821FF302821FF302821FF302821FF302821FF30
310
2821FF302821FF302821FF302821FF302821FF302821FF302821FFFFFFFFFF302821FF302821FF302821FF302821FF302821FF302821FF302821FF302821FF302821FF302821FF302821FF302821FF302821FFFFFFFFFF302821FF302821FF302821FF302821FF302821FF302821FF302821FF302821FF302821FF302821FF
310
302821FF302821FF302821FF302821FF302821FF302821FFFFFFFFFF302821FF302821FF302821FF302821FF302821FF302821FF302821FF302821FF302821FF302821FF302821FF302821FF302821FF302821FF302821FFFFFFFFFFFFFFFFFF302821FF302821FF302821FF302821FF302821FF302821FF302821FF302821
310
FF302821FF302821FF302821FF302821FF302821FFFFFFFFFF302821FF302821FF302821FF302821FF302821FF302821FF302821FF302821FF302821FF302821FF302821FF302821FF302821FF302821FF302821FF302821FF302821FF302821FFFFFFFFFFFFFFFFFFFFFFFFFFFFFFFFFF302821FF302821FF302821FF3028
310
21FFFFFFFFFFFFFFFFFFFFFFFFFFFFFFFFFFFFFFFFFF302821FF302821FF302821FF302821FF302821FF302821FF302821FF302821FF302821FF302821FF302821FF302821FF302821FF302821FF302821FF302821FF302821FF302821FF302821FF302821FF302821FF302821FF302821FFFFFFFFFFFFFFFFFFFFFFFFFFFF
310
FFFFFF302821FF302821FF302821FF302821FF302821FF302821FF302821FF302821FF302821FF302821FF302821FF302821FF302821FF302821FF302821FF302821FF302821FF302821FF302821FF302821FF302821FF302821FF302821FF302821FF302821FF302821FF302821FF302821FF302821FF302821FF302821FF
310
302821FF302821FF302821FF302821FF302821FF302821FF302821FF302821FF302821FF302821FF302821FF302821FF302821FF302821FF302821FF302821FF302821FF302821FF
102
{BLKREFS
331
33D7E
102
}
 70
     4
280
     1
281
     0
  0
BLOCK_RECORD
  5
339A6
102
{ACAD_XDICTIONARY
360
339A7
102
}
330
1
100
AcDbSymbolTableRecord
100
AcDbBlockTableRecord
  2
Eigentum
340
0
102
{BLKREFS
331
339B8
102
}
 70
     4
280
     1
281
     0
  0
BLOCK_RECORD
  5
33B23
330
1
100
AcDbSymbolTableRecord
100
AcDbBlockTableRecord
  2
*D2
340
0
 70
     0
280
     1
281
     0
  0
ENDTAB
  0
ENDSEC
  0
SECTION
  2
BLOCKS
  0
BLOCK
  5
24
330
23
100
AcDbEntity
  8
0
100
AcDbBlockBegin
  2
*Model_Space
 70
     0
 10
0.0
 20
0.0
 30
0.0
  3
*Model_Space
  1

  0
ENDBLK
  5
25
330
23
100
AcDbEntity
  8
0
100
AcDbBlockEnd
  0
BLOCK
  5
31D06
330
31D04
100
AcDbEntity
 67
     1
  8
0
100
AcDbBlockBegin
  2
*Paper_Space
 70
     0
 10
0.0
 20
0.0
 30
0.0
  3
*Paper_Space
  1

  0
ENDBLK
  5
31D07
330
31D04
100
AcDbEntity
 67
     1
  8
0
100
AcDbBlockEnd
  0
BLOCK
  5
32C82
330
32C81
100
AcDbEntity
  8
0
100
AcDbBlockBegin
  2
Spielhäuschen Hummel
 70
     0
 10
0.0
 20
0.0
 30
0.0
  3
Spielhäuschen Hummel
  1

  0
LINE
  5
33C5D
330
32C81
100
AcDbEntity
  8
Kontur 18
 62
     7
100
AcDbLine
 10
0.5806133500309443
 20
3.320621455377605
 30
0.0
 11
0.5806133500313992
 21
3.180915297879073
 31
0.0
  0
LINE
  5
33C5E
330
32C81
100
AcDbEntity
  8
Kontur 18
 62
     7
100
AcDbLine
 10
0.5806133500309443
 20
3.106302489328371
 30
0.0
 11
0.5806133500319675
 21
2.893613568695434
 31
0.0
  0
LINE
  5
33C5F
330
32C81
100
AcDbEntity
  8
Kontur 18
 62
     7
100
AcDbLine
 10
0.5806133500309443
 20
2.789424113717565
 30
0.0
 11
0.5806133500319675
 21
2.599546175743156
 31
0.0
  0
LINE
  5
33C60
330
32C81
100
AcDbEntity
  8
Kontur 18
 62
     7
100
AcDbLine
 10
0.5806133500319675
 20
2.491582889453212
 30
0.0
 11
0.5806133500319675
 21
2.304823143140581
 31
0.0
  0
LINE
  5
33C61
330
32C81
100
AcDbEntity
  8
Kontur 18
 62
     7
100
AcDbLine
 10
0.5806133500313992
 20
2.209291593070779
 30
0.0
 11
0.5806133500313992
 21
2.087080217568839
 31
0.0
  0
LINE
  5
33C62
330
32C81
100
AcDbEntity
  8
Kontur 18
 62
     7
100
AcDbLine
 10
0.5806133500309443
 20
2.023610136145896
 30
0.0
 11
0.5806133500309443
 21
1.955711012191776
 31
0.0
  0
LINE
  5
33C63
330
32C81
100
AcDbEntity
  8
Kontur 18
 62
     7
100
AcDbLine
 10
0.5506133500314263
 20
3.399632868703626
 30
0.0
 11
0.5506133500309716
 21
1.944252031854054
 31
0.0
  0
LINE
  5
33C64
330
32C81
100
AcDbEntity
  8
Kontur 18
 62
     7
100
AcDbLine
 10
0.5506133500309716
 20
1.857584069529251
 30
0.0
 11
0.5506133500309716
 21
1.7306214553776
 31
0.0
  0
LINE
  5
33C65
330
32C81
100
AcDbEntity
  8
Kontur 18
 62
     7
100
AcDbLine
 10
0.5806133500309443
 20
1.780764238739088
 30
0.0
 11
0.5806133500313992
 21
1.7306214553776
 31
0.0
  0
LINE
  5
33C66
330
32C81
100
AcDbEntity
  8
Kontur 18
 62
     7
100
AcDbLine
 10
0.5678987937617423
 20
1.7006214553776
 30
0.0
 11
0.4451127756890402
 21
1.7006214553776
 31
0.0
  0
LINE
  5
33C67
330
32C81
100
AcDbEntity
  8
Kontur 18
 62
     7
100
AcDbLine
 10
0.3774699223018842
 20
1.700621455378068
 30
0.0
 11
0.1699482929298028
 21
1.70062145537853
 31
0.0
  0
LINE
  5
33C68
330
32C81
100
AcDbEntity
  8
Kontur 18
 62
     7
100
AcDbLine
 10
0.0538954987805482
 20
1.70062145537853
 30
0.0
 11
-0.0410765034607721
 21
1.700621455378068
 31
0.0
  0
LINE
  5
33C69
330
32C81
100
AcDbEntity
  8
Kontur 18
 62
     7
100
AcDbLine
 10
-0.1247026503816642
 20
1.70062145537853
 30
0.0
 11
-0.2368805674449277
 21
1.700621455379469
 31
0.0
  0
LINE
  5
33C6A
330
32C81
100
AcDbEntity
  8
Kontur 18
 62
     7
100
AcDbLine
 10
-0.3121811429988384
 20
1.70062145537853
 30
0.0
 11
-0.4437333102141566
 21
1.700621455378068
 31
0.0
  0
LINE
  5
33C6B
330
32C81
100
AcDbEntity
  8
Kontur 18
 62
     7
100
AcDbLine
 10
-0.5275703694824188
 20
1.700621455378068
 30
0.0
 11
-0.6963317678961403
 21
1.700621455378068
 31
0.0
  0
LINE
  5
33C6C
330
32C81
100
AcDbEntity
  8
Kontur 18
 62
     7
100
AcDbLine
 10
0.5806133500309443
 20
1.7306214553776
 30
0.0
 11
-0.7193866499690103
 21
1.7306214553776
 31
0.0
  0
LINE
  5
33C6D
330
32C81
100
AcDbEntity
  8
Kontur 18
 62
     7
100
AcDbLine
 10
0.2999999999997271
 20
0.0000000000002274
 30
0.0
 11
-0.2999999999997271
 21
-0.0000000000002345
 31
0.0
  0
LINE
  5
33C6E
330
32C81
100
AcDbEntity
  8
dünne Linie
 62
     7
100
AcDbLine
 10
0.2968147651047275
 20
0.129999999999761
 30
0.0
 11
-0.3098012931484391
 21
0.1299999999992991
 31
0.0
  0
LINE
  5
33C6F
330
32C81
100
AcDbEntity
  8
dünne Linie
 62
     7
100
AcDbLine
 10
0.2949721350812524
 20
0.2599999999997635
 30
0.0
 11
-0.3035241137802132
 21
0.2599999999992946
 31
0.0
  0
LINE
  5
33C70
330
32C81
100
AcDbEntity
  8
dünne Linie
 62
     7
100
AcDbLine
 10
0.2959716890391064
 20
0.3899999999997661
 30
0.0
 11
-0.3006368884334734
 21
0.3899999999992971
 31
0.0
  0
LINE
  5
33C71
330
32C81
100
AcDbEntity
  8
dünne Linie
 62
     7
100
AcDbLine
 10
0.300809322122177
 20
0.5199999999997617
 30
0.0
 11
-0.3102735262790475
 21
0.5199999999992997
 31
0.0
  0
LINE
  5
33C72
330
32C81
100
AcDbEntity
  8
dünne Linie
 62
     7
100
AcDbLine
 10
0.3036520096718505
 20
0.6499999999997641
 30
0.0
 11
-0.2913894765109717
 21
0.6499999999992953
 31
0.0
  0
LINE
  5
33C73
330
32C81
100
AcDbEntity
  8
dünne Linie
 62
     7
100
AcDbLine
 10
0.299282032981182
 20
0.7799999999997596
 30
0.0
 11
-0.2851850307167751
 21
0.7799999999992977
 31
0.0
  0
LINE
  5
33C74
330
32C81
100
AcDbEntity
  8
dünne Linie
 62
     7
100
AcDbLine
 10
0.2836706774013464
 20
0.9099999999997619
 30
0.0
 11
-0.297209007866968
 21
0.9099999999993
 31
0.0
  0
LINE
  5
33C75
330
32C81
100
AcDbEntity
  8
dünne Linie
 62
     7
100
AcDbLine
 10
0.2661526066607394
 20
1.039999999999764
 30
0.0
 11
-0.3160401345974151
 21
1.039999999999295
 31
0.0
  0
LINE
  5
33C76
330
32C81
100
AcDbEntity
  8
dünne Linie
 62
     7
100
AcDbLine
 10
0.2620105316525496
 20
1.169999999999759
 30
0.0
 11
-0.3249420324910943
 21
1.169999999999297
 31
0.0
  0
LINE
  5
33C77
330
32C81
100
AcDbEntity
  8
dünne Linie
 62
     7
100
AcDbLine
 10
0.2731579936353228
 20
1.299999999999762
 30
0.0
 11
-0.3194946774135587
 21
1.299999999999292
 31
0.0
  0
LINE
  5
33C78
330
32C81
100
AcDbEntity
  8
dünne Linie
 62
     7
100
AcDbLine
 10
0.2855541392348186
 20
1.429999999999764
 30
0.0
 11
-0.3137451354184577
 21
1.429999999999295
 31
0.0
  0
LINE
  5
33C79
330
32C81
100
AcDbEntity
  8
dünne Linie
 62
     7
100
AcDbLine
 10
0.2860768786554217
 20
1.559999999999759
 30
0.0
 11
-0.3129894156006685
 21
1.559999999999298
 31
0.0
  0
LINE
  5
33C7A
330
32C81
100
AcDbEntity
  8
Kontur 18
 62
     7
100
AcDbLine
 10
-0.8220217217296974
 20
2.007480670289303
 30
0.0
 11
-0.8220217217301524
 21
2.189798237106934
 31
0.0
  0
LINE
  5
33C7B
330
32C81
100
AcDbEntity
  8
Kontur 18
 62
     7
100
AcDbLine
 10
-0.8220217217306069
 20
2.297997902243102
 30
0.0
 11
-0.8220217217306069
 21
2.537763396836985
 31
0.0
  0
LINE
  5
33C7C
330
32C81
100
AcDbEntity
  8
Kontur 18
 62
     7
100
AcDbLine
 10
-0.8220217217306069
 20
2.6555971038143
 30
0.0
 11
-0.8220217217306069
 21
2.906179260702038
 31
0.0
  0
LINE
  5
33C7D
330
32C81
100
AcDbEntity
  8
Kontur 18
 62
     7
100
AcDbLine
 10
-0.6893866499690377
 20
1.7306214553776
 30
0.0
 11
-0.6893866499648312
 21
3.039681409327776
 31
0.0
  0
LINE
  5
33C7E
330
32C81
100
AcDbEntity
  8
Kontur 18
 62
     7
100
AcDbLine
 10
-0.6893866499642627
 20
3.239681409327743
 30
0.0
 11
-0.6893866499636943
 21
3.400621455377488
 31
0.0
  0
LINE
  5
33C7F
330
32C81
100
AcDbEntity
  8
Kontur 18
 62
     7
100
AcDbLine
 10
-0.7410489700417884
 20
3.400621455377424
 30
0.0
 11
-0.5723441049358371
 21
3.400621455377141
 31
0.0
  0
LINE
  5
33C80
330
32C81
100
AcDbEntity
  8
Kontur 18
 62
     7
100
AcDbLine
 10
-0.4960454663018937
 20
3.400621455377141
 30
0.0
 11
-0.3526239534151045
 21
3.400621455376672
 31
0.0
  0
LINE
  5
33C81
330
32C81
100
AcDbEntity
  8
Kontur 18
 62
     7
100
AcDbLine
 10
-0.2722374616353136
 20
3.400621455377141
 30
0.0
 11
-0.1801231102178917
 21
3.400621455377141
 31
0.0
  0
LINE
  5
33C82
330
32C81
100
AcDbEntity
  8
Kontur 18
 62
     7
100
AcDbLine
 10
-0.0990319014758825
 20
3.400621455377141
 30
0.0
 11
0.0672186584706651
 21
3.400621455377141
 31
0.0
  0
LINE
  5
33C83
330
32C81
100
AcDbEntity
  8
Kontur 18
 62
     7
100
AcDbLine
 10
0.138001655949779
 20
3.400621455377603
 30
0.0
 11
0.3060243424499731
 21
3.400621455377141
 31
0.0
  0
LINE
  5
33C84
330
32C81
100
AcDbEntity
  8
Kontur 18
 62
     7
100
AcDbLine
 10
0.395601760679483
 20
3.400621455377603
 30
0.0
 11
0.5501315722406162
 21
3.400621455377603
 31
0.0
  0
LINE
  5
33C85
330
32C81
100
AcDbEntity
  8
dünne Linie
 62
     7
100
AcDbLine
 10
-0.6393866499699925
 20
3.320621455377896
 30
0.0
 11
0.5006133500319267
 21
3.320621455378506
 31
0.0
  0
LINE
  5
33C86
330
32C81
100
AcDbEntity
  8
dünne Linie
 62
     7
100
AcDbLine
 10
0.5805143521745322
 20
3.320621455377605
 30
0.0
 11
0.5806133500309443
 21
3.320621455377605
 31
0.0
  0
LINE
  5
33C87
330
32C81
100
AcDbEntity
  8
dünne Linie
 62
     7
100
AcDbLine
 10
-0.6065829249064337
 20
3.210621455377483
 30
0.0
 11
-0.4993661289780677
 21
3.210621455377412
 31
0.0
  0
LINE
  5
33C88
330
32C81
100
AcDbEntity
  8
dünne Linie
 62
     7
100
AcDbLine
 10
-0.4193661289780266
 20
3.210621455377363
 30
0.0
 11
0.5006133500314718
 21
3.21062145537668
 31
0.0
  0
LINE
  5
33C89
330
32C81
100
AcDbEntity
  8
dünne Linie
 62
     7
100
AcDbLine
 10
-0.4193661289780266
 20
3.10062145537904
 30
0.0
 11
0.5006133500310172
 21
3.100621455377136
 31
0.0
  0
LINE
  5
33C8A
330
32C81
100
AcDbEntity
  8
dünne Linie
 62
     7
100
AcDbLine
 10
-0.6393866499699925
 20
2.990621455377136
 30
0.0
 11
0.5006133500310172
 21
2.990621455378068
 31
0.0
  0
LINE
  5
33C8B
330
32C81
100
AcDbEntity
  8
dünne Linie
 62
     7
100
AcDbLine
 10
-0.6393866499697653
 20
2.880621455377776
 30
0.0
 11
0.5006133500310172
 21
2.880621455379291
 31
0.0
  0
LINE
  5
33C8C
330
32C81
100
AcDbEntity
  8
dünne Linie
 62
     7
100
AcDbLine
 10
-0.6393866499697653
 20
2.7706214553776
 30
0.0
 11
0.5006133500310172
 21
2.7706214553776
 31
0.0
  0
LINE
  5
33C8D
330
32C81
100
AcDbEntity
  8
dünne Linie
 62
     7
100
AcDbLine
 10
-0.6320711534967815
 20
2.660621455377486
 30
0.0
 11
0.5006133500310172
 21
2.660621455377721
 31
0.0
  0
LINE
  5
33C8E
330
32C81
100
AcDbEntity
  8
dünne Linie
 62
     7
100
AcDbLine
 10
-0.6393866499697653
 20
2.550621455376848
 30
0.0
 11
0.4130441342447285
 21
2.55062145537824
 31
0.0
  0
LINE
  5
33C8F
330
32C81
100
AcDbEntity
  8
dünne Linie
 62
     7
100
AcDbLine
 10
-0.6393866499697653
 20
2.44062145537778
 30
0.0
 11
0.4130441342447285
 21
2.440621455379171
 31
0.0
  0
LINE
  5
33C90
330
32C81
100
AcDbEntity
  8
dünne Linie
 62
     7
100
AcDbLine
 10
-0.6393866499696516
 20
2.330621455378654
 30
0.0
 11
0.4130441342447285
 21
2.330621455377951
 31
0.0
  0
LINE
  5
33C91
330
32C81
100
AcDbEntity
  8
dünne Linie
 62
     7
100
AcDbLine
 10
-0.6393866499696516
 20
2.220621455378712
 30
0.0
 11
0.4130441342447285
 21
2.220621455377951
 31
0.0
  0
LINE
  5
33C92
330
32C81
100
AcDbEntity
  8
dünne Linie
 62
     7
100
AcDbLine
 10
-0.6393866499695378
 20
2.110621455378356
 30
0.0
 11
0.4130441342447285
 21
2.110621455376964
 31
0.0
  0
LINE
  5
33C93
330
32C81
100
AcDbEntity
  8
dünne Linie
 62
     7
100
AcDbLine
 10
-0.6393866499695378
 20
2.000621455378357
 30
0.0
 11
0.4130441342447285
 21
2.000621455376965
 31
0.0
  0
LINE
  5
33C94
330
32C81
100
AcDbEntity
  8
dünne Linie
 62
     7
100
AcDbLine
 10
-0.6393866499695378
 20
1.890621455377605
 30
0.0
 11
0.5006133500305623
 21
1.890621455377605
 31
0.0
  0
LINE
  5
33C95
330
32C81
100
AcDbEntity
  8
dünne Linie
 62
     7
100
AcDbLine
 10
0.5395792352305762
 20
1.890621455377605
 30
0.0
 11
0.5403466180181339
 21
1.890621455377605
 31
0.0
  0
LINE
  5
33C96
330
32C81
100
AcDbEntity
  8
dünne Linie
 62
     7
100
AcDbLine
 10
-0.6393866499689695
 20
1.780621455376675
 30
0.0
 11
0.5006133500310172
 21
1.780621455378066
 31
0.0
  0
ARC
  5
33C97
330
32C81
100
AcDbEntity
  8
Kontur 18
 62
     7
100
AcDbCircle
 10
0.6256133500310172
 20
3.330024744521998
 30
0.0
 40
0.0450000000001968
100
AcDbArc
 50
200.6633614607386
 51
26.21261289297216
  0
ARC
  5
33C98
330
32C81
100
AcDbEntity
  8
Kontur 18
 62
     7
100
AcDbCircle
 10
0.6256133500310172
 20
1.791391268321951
 30
0.0
 40
0.045
100
AcDbArc
 50
200.6633614607386
 51
34.84231636690914
  0
ARC
  5
33C99
330
32C81
100
AcDbEntity
  8
Kontur 18
 62
     7
100
AcDbCircle
 10
-0.7643866499699925
 20
3.320621455377605
 30
0.0
 40
0.045
100
AcDbArc
 50
196.9006238628379
 51
16.90062386283792
  0
ARC
  5
33C9A
330
32C81
100
AcDbEntity
  8
Kontur 18
 62
     7
100
AcDbCircle
 10
-0.7643866499699925
 20
1.780621455377604
 30
0.0
 40
0.045
100
AcDbArc
 50
190.1965844584928
 51
23.6497160387544
  0
CIRCLE
  5
33C9B
330
32C81
100
AcDbEntity
  8
Kontur 18
 62
     7
100
AcDbCircle
 10
-0.8011895292488587
 20
3.441749252755363
 30
0.0
 40
0.045
  0
CIRCLE
  5
33C9C
330
32C81
100
AcDbEntity
  8
Kontur 18
 62
     7
100
AcDbCircle
 10
-0.8011895292488587
 20
1.901749252755364
 30
0.0
 40
0.045
  0
CIRCLE
  5
33C9D
330
32C81
100
AcDbEntity
  8
Kontur 18
 62
     7
100
AcDbCircle
 10
0.5806133500309443
 20
3.449344488391353
 30
0.0
 40
0.045
  0
CIRCLE
  5
33C9E
330
32C81
100
AcDbEntity
  8
Kontur 18
 62
     7
100
AcDbCircle
 10
0.5806133500309443
 20
1.910711012191774
 30
0.0
 40
0.045
  0
SPLINE
  5
33C9F
330
32C81
100
AcDbEntity
  8
Kontur 18
 62
     7
100
AcDbSpline
210
0.0
220
0.0
230
1.0
 70
  1064
 71
     3
 72
    12
 73
     8
 74
     6
 42
0.000000001
 43
0.0000000001
 44
0.00001
 40
0.0
 40
0.0
 40
0.0
 40
0.0
 40
0.0339459366480343
 40
0.0509889015739043
 40
0.0618775946491154
 40
0.082923509965161
 40
0.1270679272956177
 40
0.1270679272956177
 40
0.1270679272956177
 40
0.1270679272956177
 10
0.6227184943431894
 20
3.465223934932318
 30
0.0
 10
0.6257000768655745
 20
3.454227515560141
 30
0.0
 10
0.6301785986793825
 20
3.437710211859057
 30
0.0
 10
0.6408465774896528
 20
3.419927296505252
 30
0.0
 10
0.6468200726337964
 20
3.404689200569446
 30
0.0
 10
0.6526867354273139
 20
3.379946349100564
 30
0.0
 10
0.6615080590621263
 20
3.360015367622704
 30
0.0
 10
0.6674815243925423
 20
3.346518863947301
 30
0.0
 11
0.6227184943431894
 21
3.465223934932318
 31
0.0
 11
0.6335745154647157
 21
3.433060704057274
 31
0.0
 11
0.6413830670686595
 21
3.417911803921853
 31
0.0
 11
0.6454147395049859
 21
3.407797000203919
 31
0.0
 11
0.6513010068051699
 21
3.387591000877953
 31
0.0
 11
0.6674815243925423
 21
3.346518863947301
 31
0.0
  0
SPLINE
  5
33CA0
330
32C81
100
AcDbEntity
  8
Kontur 18
 62
     7
100
AcDbSpline
210
0.0
220
0.0
230
1.0
 70
  1064
 71
     3
 72
    11
 73
     7
 74
     5
 42
0.000000001
 43
0.0000000001
 44
0.00001
 40
0.0
 40
0.0
 40
0.0
 40
0.0
 40
0.0340857325669272
 40
0.054224169823658
 40
0.0894852652089569
 40
0.1277282841217984
 40
0.1277282841217984
 40
0.1277282841217984
 40
0.1277282841217984
 10
0.5385082057189266
 20
3.433465041850396
 30
0.0
 10
0.541724906008769
 20
3.422517618786372
 30
0.0
 10
0.546842088174232
 20
3.405102269822123
 30
0.0
 10
0.5621624373486837
 20
3.379213817119439
 30
0.0
 10
0.5677867831547987
 20
3.348015839573392
 30
0.0
 10
0.5781278917620166
 20
3.325736752056417
 30
0.0
 10
0.5835082057188857
 20
3.314145297980573
 30
0.0
 11
0.5385082057189266
 21
3.433465041850396
 31
0.0
 11
0.5498046031073045
 21
3.401305617560339
 31
0.0
 11
0.5587597244204972
 21
3.383267811224498
 31
0.0
 11
0.5689714906052359
 21
3.349517778940671
 31
0.0
 11
0.5835082057188857
 21
3.314145297980573
 31
0.0
  0
SPLINE
  5
33CA1
330
32C81
100
AcDbEntity
  8
Kontur 18
 62
     7
100
AcDbSpline
210
0.0
220
0.0
230
1.0
 70
     8
 71
     3
 72
    11
 73
     7
 74
     0
 42
0.000000001
 43
0.0000000001
 40
11.01657154866917
 40
11.01657154866917
 40
11.01657154866917
 40
11.01657154866917
 40
33.44165291598131
 40
60.94453475981858
 40
117.0309822616085
 40
127.923515458173
 40
127.923515458173
 40
127.923515458173
 40
127.923515458173
 10
0.6625460865889182
 20
1.817100662916138
 30
0.0
 10
0.6591396139124301
 20
1.823804234077393
 30
0.0
 10
0.6522564784727365
 20
1.838958379730286
 30
0.0
 10
0.6477031780248126
 20
1.874423447453587
 30
0.0
 10
0.6338924432016029
 20
1.903182907790117
 30
0.0
 10
0.6242814870574877
 20
1.923316250836649
 30
0.0
 10
0.6227184943431894
 20
1.926590458732732
 30
0.0
  0
SPLINE
  5
33CA2
330
32C81
100
AcDbEntity
  8
Kontur 18
 62
     7
100
AcDbSpline
210
0.0
220
0.0
230
1.0
 70
  1064
 71
     3
 72
    11
 73
     7
 74
     5
 42
0.000000001
 43
0.0000000001
 44
0.00001
 40
0.0
 40
0.0
 40
0.0
 40
0.0
 40
0.027513425128924
 40
0.0402485800350997
 40
0.0818210333788084
 40
0.1292127678501096
 40
0.1292127678501096
 40
0.1292127678501096
 40
0.1292127678501096
 10
0.5835082057188857
 20
1.775511821780986
 30
0.0
 10
0.5789674176654916
 20
1.783664486134397
 30
0.0
 10
0.5723248324354421
 20
1.795590778923825
 30
0.0
 10
0.570423100991925
 20
1.823229774680552
 30
0.0
 10
0.5502347504464323
 20
1.852178305239817
 30
0.0
 10
0.5422977556662225
 20
1.880799987450061
 30
0.0
 10
0.5380696729021111
 20
1.896046922163279
 30
0.0
 11
0.5835082057188857
 21
1.775511821780986
 31
0.0
 11
0.5725527249412608
 21
1.800750007200227
 31
0.0
 11
0.5705699352184867
 21
1.813329860752616
 31
0.0
 11
0.5535131542552563
 21
1.851242063276174
 31
0.0
 11
0.5380696729021111
 21
1.896046922163279
 31
0.0
  0
SPLINE
  5
33CA3
330
32C81
100
AcDbEntity
  8
Kontur 18
 62
     7
100
AcDbSpline
210
0.0
220
0.0
230
1.0
 70
  1064
 71
     3
 72
    11
 73
     7
 74
     5
 42
0.000000001
 43
0.0000000001
 44
0.00001
 40
0.0
 40
0.0
 40
0.0
 40
0.0
 40
0.0363016283081379
 40
0.0807072413233053
 40
0.100838234335458
 40
0.1267664144421801
 40
0.1267664144421801
 40
0.1267664144421801
 40
0.1267664144421801
 10
-0.8074431188119888
 20
1.7675393878484
 30
0.0
 10
-0.8102760573966572
 20
1.779315277546159
 30
0.0
 10
-0.8165743604938677
 20
1.805495909543336
 30
0.0
 10
-0.8283679928289636
 20
1.837008642423575
 30
0.0
 10
-0.8396695398628368
 20
1.865040068756894
 30
0.0
 10
-0.8425976314369036
 20
1.880157138148912
 30
0.0
 10
-0.8442459477344073
 20
1.888667019489389
 30
0.0
 11
-0.8074431188119888
 21
1.7675393878484
 31
0.0
 11
-0.8165773823731115
 21
1.802673039053735
 31
0.0
 11
-0.8314506201450058
 21
1.844513752066703
 31
0.0
 11
-0.838405470618454
 21
1.863405203428293
 31
0.0
 11
-0.8442459477344073
 21
1.888667019489389
 31
0.0
  0
SPLINE
  5
33CA4
330
32C81
100
AcDbEntity
  8
Kontur 18
 62
     7
100
AcDbSpline
210
0.0
220
0.0
230
1.0
 70
  1064
 71
     3
 72
    11
 73
     7
 74
     5
 42
0.000000001
 43
0.0000000001
 44
0.00001
 40
0.0
 40
0.0
 40
0.0
 40
0.0
 40
0.0376998775965357
 40
0.0690519173480654
 40
0.095103672959489
 40
0.1241005342117434
 40
0.1241005342117434
 40
0.1241005342117434
 40
0.1241005342117434
 10
-0.7213301811277688
 20
1.79370352290681
 30
0.0
 10
-0.7257039791387521
 20
1.80551458164369
 30
0.0
 10
-0.7337151228879112
 20
1.827147974208528
 30
0.0
 10
-0.7380069646075911
 20
1.858872251929053
 30
0.0
 10
-0.7504060818393816
 20
1.885112935308297
 30
0.0
 10
-0.7550116492630014
 20
1.902903091211999
 30
0.0
 10
-0.7574376320974352
 20
1.912274056583811
 30
0.0
 11
-0.7213301811277688
 21
1.79370352290681
 31
0.0
 11
-0.7329924984605896
 21
1.829554201076439
 31
0.0
 11
-0.7399307458638305
 21
1.860128882097718
 31
0.0
 11
-0.7492456269710602
 21
1.884458431217985
 31
0.0
 11
-0.7574376320974352
 21
1.912274056583811
 31
0.0
  0
SPLINE
  5
33CA5
330
32C81
100
AcDbEntity
  8
Kontur 18
 62
     7
100
AcDbSpline
210
0.0
220
0.0
230
1.0
 70
  1064
 71
     3
 72
    13
 73
     9
 74
     7
 42
0.000000001
 43
0.0000000001
 44
0.00001
 40
0.0
 40
0.0
 40
0.0
 40
0.0
 40
0.032763600608805
 40
0.0516894721503856
 40
0.0853117286464337
 40
0.1041215217224796
 40
0.1172912147781717
 40
0.1268753384424404
 40
0.1268753384424404
 40
0.1268753384424404
 40
0.1268753384424404
 10
-0.7213301811277688
 20
3.333703522906808
 30
0.0
 10
-0.7239475503208835
 20
3.344325504367144
 30
0.0
 10
-0.72807684104293
 20
3.361083266172127
 30
0.0
 10
-0.7392079011463478
 20
3.387364889881216
 30
0.0
 10
-0.7420572577875437
 20
3.41137165714571
 30
0.0
 10
-0.7534269790781661
 20
3.430740062666387
 30
0.0
 10
-0.753404040531513
 20
3.445032321307499
 30
0.0
 10
-0.7567315020281404
 20
3.451927152088746
 30
0.0
 10
-0.7581330604068626
 20
3.454831320284568
 30
0.0
 11
-0.7213301811277688
 21
3.333703522906808
 31
0.0
 11
-0.7302328810691279
 21
3.365234388080593
 31
0.0
 11
-0.7366732003758898
 21
3.383030761330089
 31
0.0
 11
-0.745524535841696
 21
3.415467006371058
 31
0.0
 11
-0.7524809025898094
 21
3.432943198096643
 31
0.0
 11
-0.7545209629070087
 21
3.44595392325258
 31
0.0
 11
-0.7581330604068626
 21
3.454831320284568
 31
0.0
  0
SPLINE
  5
33CA6
330
32C81
100
AcDbEntity
  8
Kontur 18
 62
     7
100
AcDbSpline
210
0.0
220
0.0
230
1.0
 70
  1064
 71
     3
 72
    13
 73
     9
 74
     7
 42
0.000000001
 43
0.0000000001
 44
0.00001
 40
0.0
 40
0.0
 40
0.0
 40
0.0
 40
0.0273075174137031
 40
0.0450983042401067
 40
0.060412756407944
 40
0.0708100910028958
 40
0.0935832088130491
 40
0.1278346537975274
 40
0.1278346537975274
 40
0.1278346537975274
 40
0.1278346537975274
 10
-0.8074431188119888
 20
3.307539387848399
 30
0.0
 10
-0.8107706166821991
 20
3.31603323491067
 30
0.0
 10
-0.8162659720100236
 20
3.330060804432277
 30
0.0
 10
-0.8179172337986109
 20
3.350662503437847
 30
0.0
 10
-0.826770913463933
 20
3.362714230843681
 30
0.0
 10
-0.8308050976942748
 20
3.378471202090395
 30
0.0
 10
-0.8358805536693346
 20
3.400314570981125
 30
0.0
 10
-0.8412634467909342
 20
3.418562185012441
 30
0.0
 10
-0.8444966476885156
 20
3.429522499611302
 30
0.0
 11
-0.8074431188119888
 21
3.307539387848399
 31
0.0
 11
-0.8158627271595833
 21
3.333516506675799
 31
0.0
 11
-0.8196694135027653
 21
3.350895264830142
 31
0.0
 11
-0.8266741769197095
 21
3.364513845324218
 31
0.0
 11
-0.8297495401952801
 21
3.374445950207003
 31
0.0
 11
-0.8351903374073117
 21
3.396559579951861
 31
0.0
 11
-0.8444966476885156
 21
3.429522499611302
 31
0.0
  0
LINE
  5
33CA7
330
32C81
100
AcDbEntity
  8
Strichlinien
 62
     7
100
AcDbLine
 10
-0.1924220626978013
 20
1.613579563974574
 30
0.0
 11
-0.0174220626977331
 21
1.613579563974574
 31
0.0
  0
SPLINE
  5
33CA8
330
32C81
100
AcDbEntity
  8
Strichlinien
 62
     7
100
AcDbSpline
210
0.0
220
0.0
230
1.0
 70
    24
 71
     3
 72
     8
 73
     4
 74
     0
 42
0.000000001
 43
0.0000000001
 40
0.0
 40
0.0
 40
0.0
 40
0.0
 40
8.933734368951869
 40
8.933734368951869
 40
8.933734368951869
 40
8.933734368951869
 10
-0.0174220626977331
 20
1.613579563974574
 30
0.0
 10
-0.0173184327361469
 20
1.61655687195359
 30
0.0
 10
-0.0172148027750154
 20
1.619534179932606
 30
0.0
 10
-0.0171114811821553
 20
1.622511488230606
 30
0.0
  0
SPLINE
  5
33CA9
330
32C81
100
AcDbEntity
  8
Strichlinien
 62
     7
100
AcDbSpline
210
0.0
220
0.0
230
1.0
 70
    24
 71
     3
 72
     8
 73
     4
 74
     0
 42
0.000000001
 43
0.0000000001
 40
2071.944780839252
 40
2071.944780839252
 40
2071.944780839252
 40
2071.944780839252
 40
2080.842538284601
 40
2080.842538284601
 40
2080.842538284601
 40
2080.842538284601
 10
-0.0200771045047077
 20
3.68484619774221
 30
0.0
 10
-0.0201411806372107
 20
3.687811269325372
 30
0.0
 10
-0.020200869545306
 20
3.690776332111731
 30
0.0
 10
-0.0202557507050187
 20
3.693741385403257
 30
0.0
  0
SPLINE
  5
33CAA
330
32C81
100
AcDbEntity
  8
Strichlinien
 62
     7
100
AcDbSpline
210
0.0
220
0.0
230
1.0
 70
    24
 71
     3
 72
     8
 73
     4
 74
     0
 42
0.000000001
 43
0.0000000001
 40
0.0
 40
0.0
 40
0.0
 40
0.0
 40
9.065571808115482
 40
9.065571808115482
 40
9.065571808115482
 40
9.065571808115482
 10
-0.0224936518789036
 20
1.613455186198635
 30
0.0
 10
-0.0223884926233495
 20
1.616476431084969
 30
0.0
 10
-0.0222833333675681
 20
1.619497675971294
 30
0.0
 10
-0.0221784963355276
 20
1.622518921191043
 30
0.0
  0
LINE
  5
33CAB
330
32C81
100
AcDbEntity
  8
Strichlinien
 62
     7
100
AcDbLine
 10
-0.0174220626977331
 20
1.613579563974574
 30
0.0
 11
-0.1924220626978013
 21
1.613579563974574
 31
0.0
  0
LINE
  5
33CAC
330
32C81
100
AcDbEntity
  8
Strichlinien
 62
     7
100
AcDbLine
 10
-0.0202557507050187
 20
3.693741385403257
 30
0.0
 11
-0.1912262430912506
 21
3.693741385399071
 31
0.0
  0
SPLINE
  5
33CAD
330
32C81
100
AcDbEntity
  8
Strichlinien
 62
     7
100
AcDbSpline
210
0.0
220
0.0
230
1.0
 70
    24
 71
     3
 72
     8
 73
     4
 74
     0
 42
0.000000001
 43
0.0000000001
 40
0.0
 40
0.0
 40
0.0
 40
0.0
 40
8.830826152436287
 40
8.830826152436287
 40
8.830826152436287
 40
8.830826152436287
 10
-0.1924220626978013
 20
1.613579563974574
 30
0.0
 10
-0.1924760105143832
 20
1.616522717212028
 30
0.0
 10
-0.1925299583309652
 20
1.619465870449956
 30
0.0
 10
-0.1925837653944882
 20
1.622409025121648
 30
0.0
  0
SPLINE
  5
33CAE
330
32C81
100
AcDbEntity
  8
Strichlinien
 62
     7
100
AcDbSpline
210
0.0
220
0.0
230
1.0
 70
    24
 71
     3
 72
     8
 73
     4
 74
     0
 42
0.000000001
 43
0.0000000001
 40
2071.444139770562
 40
2071.444139770562
 40
2071.444139770562
 40
2071.444139770562
 40
2080.315972086118
 40
2080.315972086118
 40
2080.315972086118
 40
2080.315972086118
 10
-0.1902230437831349
 20
3.684871217686384
 30
0.0
 10
-0.1901837903606065
 20
3.68782794056058
 30
0.0
 10
-0.1901479990402777
 20
3.69078466313303
 30
0.0
 10
-0.1901159353498087
 20
3.693741385399532
 30
0.0
  0
SPLINE
  5
33CAF
330
32C81
100
AcDbEntity
  8
Strichlinien
 62
     7
100
AcDbSpline
210
0.0
220
0.0
230
1.0
 70
    24
 71
     3
 72
     8
 73
     4
 74
     0
 42
0.000000001
 43
0.0000000001
 40
0.0
 40
0.0
 40
0.0
 40
0.0
 40
8.83082615203954
 40
8.83082615203954
 40
8.83082615203954
 40
8.83082615203954
 10
-0.1935323704387883
 20
1.613579563975035
 30
0.0
 10
-0.1935863182553703
 20
1.616522717212965
 30
0.0
 10
-0.1936402660714975
 20
1.619465870450418
 30
0.0
 10
-0.1936940731350205
 20
1.622409025122116
 30
0.0
  0
SPLINE
  5
33CB0
330
32C81
100
AcDbEntity
  8
Strichlinien
 62
     7
100
AcDbSpline
210
0.0
220
0.0
230
1.0
 70
    24
 71
     3
 72
     8
 73
     4
 74
     0
 42
0.000000001
 43
0.0000000001
 40
2071.444420632794
 40
2071.444420632794
 40
2071.444420632794
 40
2071.444420632794
 40
2080.31597208533
 40
2080.31597208533
 40
2080.31597208533
 40
2080.31597208533
 10
-0.1913333477959895
 20
3.684871498496441
 30
0.0
 10
-0.1912940958351328
 20
3.687828127767126
 30
0.0
 10
-0.1912583057660413
 20
3.690784756735602
 30
0.0
 10
-0.1912262430907958
 20
3.693741385399071
 30
0.0
  0
SPLINE
  5
33CB1
330
32C81
100
AcDbEntity
  8
Strichlinien
 62
     7
100
AcDbSpline
210
0.0
220
0.0
230
1.0
 70
     8
 71
     3
 72
     8
 73
     4
 74
     0
 42
0.000000001
 43
0.0000000001
 40
8.830826152436287
 40
8.830826152436287
 40
8.830826152436287
 40
8.830826152436287
 40
50.08801089309521
 40
50.08801089309521
 40
50.08801089309521
 40
50.08801089309521
 10
-0.3524253227355985
 20
1.622409025121648
 30
0.0
 10
-0.3526767066852017
 20
1.636159298754932
 30
0.0
 10
-0.3529250184021748
 20
1.649909603686707
 30
0.0
 10
-0.3531559045673021
 20
1.663660086137879
 30
0.0
  0
SPLINE
  5
33CB2
330
32C81
100
AcDbEntity
  8
Strichlinien
 62
     7
100
AcDbSpline
210
0.0
220
0.0
230
1.0
 70
     8
 71
     3
 72
     8
 73
     4
 74
     0
 42
0.000000001
 43
0.0000000001
 40
2030.254493181035
 40
2030.254493181035
 40
2030.254493181035
 40
2030.254493181035
 40
2071.484853977135
 40
2071.484853977135
 40
2071.484853977135
 40
2071.484853977135
 10
-0.3508086369349712
 20
3.643689275962933
 30
0.0
 10
-0.3505034127696263
 20
3.657430165047464
 30
0.0
 10
-0.3502463369536599
 20
3.671171047917268
 30
0.0
 10
-0.3500640609217953
 20
3.684911924258976
 30
0.0
  0
SPLINE
  5
33CB3
330
32C81
100
AcDbEntity
  8
Strichlinien
 62
     7
100
AcDbSpline
210
0.0
220
0.0
230
1.0
 70
     8
 71
     3
 72
     8
 73
     4
 74
     0
 42
0.000000001
 43
0.0000000001
 40
8.83082615203954
 40
8.83082615203954
 40
8.83082615203954
 40
8.83082615203954
 40
50.08745095613257
 40
50.08745095613257
 40
50.08745095613257
 40
50.08745095613257
 10
-0.3535356304761308
 20
1.622409025122578
 30
0.0
 10
-0.3537870110146741
 20
1.636159112139309
 30
0.0
 10
-0.3540353194036925
 20
1.649909230452664
 30
0.0
 10
-0.354266202908434
 20
1.663659526279366
 30
0.0
  0
SPLINE
  5
33CB4
330
32C81
100
AcDbEntity
  8
Strichlinien
 62
     7
100
AcDbSpline
210
0.0
220
0.0
230
1.0
 70
     8
 71
     3
 72
     8
 73
     4
 74
     0
 42
0.000000001
 43
0.0000000001
 40
2030.25485524087
 40
2030.25485524087
 40
2030.25485524087
 40
2030.25485524087
 40
2071.484853976192
 40
2071.484853976192
 40
2071.484853976192
 40
2071.484853976192
 10
-0.3519189366329556
 20
3.643689637955915
 30
0.0
 10
-0.3516137159936079
 20
3.657430406375488
 30
0.0
 10
-0.3513566430927995
 20
3.671171168580818
 30
0.0
 10
-0.3511743686617592
 20
3.684911924258044
 30
0.0
  0
SPLINE
  5
33CB5
330
32C81
100
AcDbEntity
  8
Strichlinien
 62
     7
100
AcDbSpline
210
0.0
220
0.0
230
1.0
 70
     8
 71
     3
 72
     9
 73
     5
 74
     0
 42
0.000000001
 43
0.0000000001
 40
50.00747752831379
 40
50.00747752831379
 40
50.00747752831379
 40
50.00747752831379
 40
94.59908916883248
 40
95.8930231839407
 40
95.8930231839407
 40
95.8930231839407
 40
95.8930231839407
 10
-0.5117353450739302
 20
1.663579563974571
 30
0.0
 10
-0.5119849650454853
 20
1.678441366743931
 30
0.0
 10
-0.5122209152863208
 20
1.693734633898066
 30
0.0
 10
-0.5124161563483085
 20
1.709028315768748
 30
0.0
 10
-0.512421629709138
 20
1.709459585135505
 30
0.0
  0
SPLINE
  5
33CB6
330
32C81
100
AcDbEntity
  8
Strichlinien
 62
     7
100
AcDbSpline
210
0.0
220
0.0
230
1.0
 70
     8
 71
     3
 72
     8
 73
     4
 74
     0
 42
0.000000001
 43
0.0000000001
 40
1984.455946539029
 40
1984.455946539029
 40
1984.455946539029
 40
1984.455946539029
 40
2030.306612348283
 40
2030.306612348283
 40
2030.306612348283
 40
2030.306612348283
 10
-0.5105482540735693
 20
3.597899252711968
 30
0.0
 10
-0.5101264429450794
 20
3.613179971007332
 30
0.0
 10
-0.5097275648265624
 20
3.628460682049102
 30
0.0
 10
-0.5093882724297602
 20
3.643741385405121
 30
0.0
  0
SPLINE
  5
33CB7
330
32C81
100
AcDbEntity
  8
Strichlinien
 62
     7
100
AcDbSpline
210
0.0
220
0.0
230
1.0
 70
     8
 71
     3
 72
     9
 73
     5
 74
     0
 42
0.000000001
 43
0.0000000001
 40
50.0074775278685
 40
50.0074775278685
 40
50.0074775278685
 40
50.0074775278685
 40
94.59908916883248
 40
95.89274583571164
 40
95.89274583571164
 40
95.89274583571164
 40
95.89274583571164
 10
-0.5128456528140079
 20
1.66357956397504
 30
0.0
 10
-0.5130952727854492
 20
1.6784413667444
 30
0.0
 10
-0.5133312216000832
 20
1.69373454146104
 30
0.0
 10
-0.5135264617283612
 20
1.709028130889109
 30
0.0
 10
-0.5135319339292437
 20
1.709459307816046
 30
0.0
  0
SPLINE
  5
33CB8
330
32C81
100
AcDbEntity
  8
Strichlinien
 62
     7
100
AcDbSpline
210
0.0
220
0.0
230
1.0
 70
     8
 71
     3
 72
     8
 73
     4
 74
     0
 42
0.000000001
 43
0.0000000001
 40
1984.45821172755
 40
1984.45821172755
 40
1984.45821172755
 40
1984.45821172755
 40
2030.306612348283
 40
2030.306612348283
 40
2030.306612348283
 40
2030.306612348283
 10
-0.5116584992966864
 20
3.597901517480316
 30
0.0
 10
-0.511236711273341
 20
3.613181480851658
 30
0.0
 10
-0.5108378558041978
 20
3.628461436970794
 30
0.0
 10
-0.5104985801698378
 20
3.643741385405121
 30
0.0
  0
SPLINE
  5
33CB9
330
32C81
100
AcDbEntity
  8
Strichlinien
 62
     7
100
AcDbSpline
210
0.0
220
0.0
230
1.0
 70
     8
 71
     3
 72
     8
 73
     4
 74
     0
 42
0.000000001
 43
0.0000000001
 40
50.01007862207003
 40
50.01007862207003
 40
50.01007862207003
 40
50.01007862207003
 40
95.8627913054274
 40
95.8627913054274
 40
95.8627913054274
 40
95.8627913054274
 10
-0.6538047164212914
 20
1.66357956397504
 30
0.0
 10
-0.6533224285202551
 20
1.678860755494496
 30
0.0
 10
-0.6528856142256246
 20
1.694141994076018
 30
0.0
 10
-0.652535966898313
 20
1.709423322869169
 30
0.0
  0
SPLINE
  5
33CBA
330
32C81
100
AcDbEntity
  8
Strichlinien
 62
     7
100
AcDbSpline
210
0.0
220
0.0
230
1.0
 70
     8
 71
     3
 72
     8
 73
     4
 74
     0
 42
0.000000001
 43
0.0000000001
 40
50.1344811893573
 40
50.1344811893573
 40
50.1344811893573
 40
50.1344811893573
 40
95.98719275474172
 40
95.98719275474172
 40
95.98719275474172
 40
95.98719275474172
 10
-0.6588723811339606
 20
1.663579563973178
 30
0.0
 10
-0.6583903403002296
 20
1.67886075537622
 30
0.0
 10
-0.6579538861885795
 20
1.694141993958673
 30
0.0
 10
-0.6576047121570811
 20
1.709423322869169
 30
0.0
  0
LINE
  5
33CBB
330
32C81
100
AcDbEntity
  8
Strichlinien
 62
     7
100
AcDbLine
 10
-0.8407905929902881
 20
1.663579563974571
 30
0.0
 11
-0.6538047164208365
 21
1.663579563974571
 31
0.0
  0
LINE
  5
33CBC
330
32C81
100
AcDbEntity
  8
Strichlinien
 62
     7
100
AcDbLine
 10
-0.6576047121570811
 20
1.709423322869169
 30
0.0
 11
-0.5124216297082285
 21
1.709459585135974
 31
0.0
  0
LINE
  5
33CBD
330
32C81
100
AcDbEntity
  8
Strichlinien
 62
     7
100
AcDbLine
 10
-0.5128456528144625
 20
1.663579563974571
 30
0.0
 11
-0.3531559045677568
 21
1.663660086137411
 31
0.0
  0
LINE
  5
33CBE
330
32C81
100
AcDbEntity
  8
Strichlinien
 62
     7
100
AcDbLine
 10
-0.3535356304761308
 20
1.622409025122116
 30
0.0
 11
-0.1925837653944882
 21
1.622409025121648
 31
0.0
  0
LINE
  5
33CBF
330
32C81
100
AcDbEntity
  8
Strichlinien
 62
     7
100
AcDbLine
 10
-0.8385831961495567
 20
3.64374138540559
 30
0.0
 11
-0.6596886732801295
 21
3.64374138540559
 31
0.0
  0
LINE
  5
33CC0
330
32C81
100
AcDbEntity
  8
Strichlinien
 62
     7
100
AcDbLine
 10
-0.6664804120542839
 20
3.598217335731426
 30
0.0
 11
-0.5105482540735693
 21
3.597899252711968
 31
0.0
  0
LINE
  5
33CC1
330
32C81
100
AcDbEntity
  8
Strichlinien
 62
     7
100
AcDbLine
 10
-0.5106382564301839
 20
3.64374138540559
 30
0.0
 11
-0.3508086369345165
 21
3.643689275963403
 31
0.0
  0
LINE
  5
33CC2
330
32C81
100
AcDbEntity
  8
Strichlinien
 62
     7
100
AcDbLine
 10
-0.3511743686617592
 20
3.684911924258044
 30
0.0
 11
-0.1902230437825665
 21
3.684871217686384
 31
0.0
  0
SPLINE
  5
33CC3
330
32C81
100
AcDbEntity
  8
Strichlinien
 62
     7
100
AcDbSpline
210
0.0
220
0.0
230
1.0
 70
     8
 71
     3
 72
     8
 73
     4
 74
     0
 42
0.000000001
 43
0.0000000001
 40
8.830826152436287
 40
8.830826152436287
 40
8.830826152436287
 40
8.830826152436287
 40
50.02612240732563
 40
50.02612240732563
 40
50.02612240732563
 40
50.02612240732563
 10
0.0964323122957467
 20
1.622343298605811
 30
0.0
 10
0.0966833191537262
 20
1.636072945926044
 30
0.0
 10
0.0969312629890738
 20
1.6498026244507
 30
0.0
 10
0.0971618549772302
 20
1.663532479743643
 30
0.0
  0
SPLINE
  5
33CC4
330
32C81
100
AcDbEntity
  8
Strichlinien
 62
     7
100
AcDbSpline
210
0.0
220
0.0
230
1.0
 70
     8
 71
     3
 72
     8
 73
     4
 74
     0
 42
0.000000001
 43
0.0000000001
 40
8.83082615203954
 40
8.83082615203954
 40
8.83082615203954
 40
8.83082615203954
 40
50.02598634214923
 40
50.02598634214923
 40
50.02598634214923
 40
50.02598634214923
 10
0.0975426200363927
 20
1.622343298606743
 30
0.0
 10
0.0977936260649131
 20
1.636072900579016
 30
0.0
 10
0.0980415690910377
 20
1.649802533755249
 30
0.0
 10
0.0982721604327708
 20
1.66353234369837
 30
0.0
  0
SPLINE
  5
33CC5
330
32C81
100
AcDbEntity
  8
Strichlinien
 62
     7
100
AcDbSpline
210
0.0
220
0.0
230
1.0
 70
     8
 71
     3
 72
     8
 73
     4
 74
     0
 42
0.000000001
 43
0.0000000001
 40
2030.279062686982
 40
2030.279062686982
 40
2030.279062686982
 40
2030.279062686982
 40
2071.484853976192
 40
2071.484853976192
 40
2071.484853976192
 40
2071.484853976192
 10
0.0959253886281886
 20
3.643648114368957
 30
0.0
 10
0.0956204037074713
 20
3.657380815137813
 30
0.0
 10
0.0953635256332746
 20
3.67111350970034
 30
0.0
 10
0.0951813582214527
 20
3.68484619774221
 30
0.0
  0
SPLINE
  5
33CC6
330
32C81
100
AcDbEntity
  8
Strichlinien
 62
     7
100
AcDbSpline
210
0.0
220
0.0
230
1.0
 70
     8
 71
     3
 72
     9
 73
     5
 74
     0
 42
0.000000001
 43
0.0000000001
 40
50.00747752831379
 40
50.00747752831379
 40
50.00747752831379
 40
50.00747752831379
 40
94.59908916883248
 40
95.856757386703
 40
95.856757386703
 40
95.856757386703
 40
95.856757386703
 10
0.2481970789507386
 20
1.663513837458736
 30
0.0
 10
0.2484466989221801
 20
1.678375640228096
 30
0.0
 10
0.2486824626787438
 20
1.693656820296013
 30
0.0
 10
0.2488775815801318
 20
1.708938414425759
 30
0.0
 10
0.2488829032946569
 20
1.709357596352396
 30
0.0
  0
SPLINE
  5
33CC7
330
32C81
100
AcDbEntity
  8
Strichlinien
 62
     7
100
AcDbSpline
 70
     3
 71
     3
 72
     8
 73
     4
 74
     0
 42
0.000000001
 43
0.0000000001
 40
2030.30638455573
 40
2030.30638455573
 40
2030.30638455573
 40
2030.30638455573
 40
2030.306612348283
 40
2030.306612348283
 40
2030.306612348283
 40
2030.306612348283
 10
0.2458500113637001
 20
3.643675431139008
 30
0.0
 10
0.2458500096779517
 20
3.643675507055767
 30
0.0
 10
0.2458500079922032
 20
3.643675582972527
 30
0.0
 10
0.2458500063065685
 20
3.643675658889285
 30
0.0
  0
SPLINE
  5
33CC8
330
32C81
100
AcDbEntity
  8
Strichlinien
 62
     7
100
AcDbSpline
210
0.0
220
0.0
230
1.0
 70
     8
 71
     3
 72
     9
 73
     5
 74
     0
 42
0.000000001
 43
0.0000000001
 40
50.0074775278685
 40
50.0074775278685
 40
50.0074775278685
 40
50.0074775278685
 40
94.59908916883248
 40
95.85675738568548
 40
95.85675738568548
 40
95.85675738568548
 40
95.85675738568548
 10
0.2493073866908162
 20
1.663513837459198
 30
0.0
 10
0.2495570066623713
 20
1.678375640228559
 30
0.0
 10
0.2497927704188214
 20
1.693656820296943
 30
0.0
 10
0.2499878893206642
 20
1.708938414426228
 30
0.0
 10
0.2499932110351892
 20
1.709357596352396
 30
0.0
  0
SPLINE
  5
33CC9
330
32C81
100
AcDbEntity
  8
Strichlinien
 62
     7
100
AcDbSpline
210
0.0
220
0.0
230
1.0
 70
    24
 71
     3
 72
     8
 73
     4
 74
     0
 42
0.000000001
 43
0.0000000001
 40
2020.484631444332
 40
2020.484631444332
 40
2020.484631444332
 40
2020.484631444332
 40
2030.306612348283
 40
2030.306612348283
 40
2030.306612348283
 40
2030.306612348283
 10
0.2471862030499778
 20
3.633855509714854
 30
0.0
 10
0.2471084125983225
 20
3.637128893122714
 30
0.0
 10
0.2470329961632842
 20
3.640402276182718
 30
0.0
 10
0.2469603140466461
 20
3.643675658889747
 30
0.0
  0
SPLINE
  5
33CCA
330
32C81
100
AcDbEntity
  8
Strichlinien
 62
     7
100
AcDbSpline
210
0.0
220
0.0
230
1.0
 70
     8
 71
     3
 72
     8
 73
     4
 74
     0
 42
0.000000001
 43
0.0000000001
 40
50.01007862207003
 40
50.01007862207003
 40
50.01007862207003
 40
50.01007862207003
 40
95.8627913054274
 40
95.8627913054274
 40
95.8627913054274
 40
95.8627913054274
 10
0.3461934226747871
 20
1.663513837459198
 30
0.0
 10
0.3457111347736372
 20
1.678795028978661
 30
0.0
 10
0.3452743204791204
 20
1.694076267560183
 30
0.0
 10
0.3449246731518087
 20
1.709357596353335
 30
0.0
  0
SPLINE
  5
33CCB
330
32C81
100
AcDbEntity
  8
Strichlinien
 62
     7
100
AcDbSpline
210
0.0
220
0.0
230
1.0
 70
     8
 71
     3
 72
     8
 73
     4
 74
     0
 42
0.000000001
 43
0.0000000001
 40
50.1344811893573
 40
50.1344811893573
 40
50.1344811893573
 40
50.1344811893573
 40
95.98719275474172
 40
95.98719275474172
 40
95.98719275474172
 40
95.98719275474172
 10
0.3512610873874564
 20
1.663513837457336
 30
0.0
 10
0.3507790465537255
 20
1.678795028860385
 30
0.0
 10
0.3503425924419616
 20
1.694076267442838
 30
0.0
 10
0.3499934184104632
 20
1.709357596353335
 30
0.0
  0
SPLINE
  5
33CCC
330
32C81
100
AcDbEntity
  8
Strichlinien
 62
     7
100
AcDbSpline
210
0.0
220
0.0
230
1.0
 70
    24
 71
     3
 72
     8
 73
     4
 74
     0
 42
0.000000001
 43
0.0000000001
 40
50.007477528474
 40
50.007477528474
 40
50.007477528474
 40
50.007477528474
 40
69.09356720475098
 40
69.09356720475098
 40
69.09356720475098
 40
69.09356720475098
 10
0.5320689915027971
 20
1.663513837458736
 30
0.0
 10
0.5321758337756819
 20
1.669874982300846
 30
0.0
 10
0.5322789527974692
 20
1.676236165073405
 30
0.0
 10
0.5323769275319137
 20
1.682597400252412
 30
0.0
  0
SPLINE
  5
33CCD
330
32C81
100
AcDbEntity
  8
Strichlinien
 62
     7
100
AcDbSpline
210
0.0
220
0.0
230
1.0
 70
     8
 71
     3
 72
     8
 73
     4
 74
     0
 42
0.000000001
 43
0.0000000001
 40
1983.618833873797
 40
1983.618833873797
 40
1983.618833873797
 40
1983.618833873797
 40
2030.306612348984
 40
2030.306612348984
 40
2030.306612348984
 40
2030.306612348984
 10
0.5309050266998839
 20
3.596996568910483
 30
0.0
 10
0.5304746741676354
 20
3.612556273234708
 30
0.0
 10
0.5300674058422601
 20
3.62811597004643
 30
0.0
 10
0.5297219188581721
 20
3.643675658889285
 30
0.0
  0
SPLINE
  5
33CCE
330
32C81
100
AcDbEntity
  8
Strichlinien
 62
     7
100
AcDbSpline
210
0.0
220
0.0
230
1.0
 70
    24
 71
     3
 72
     8
 73
     4
 74
     0
 42
0.000000001
 43
0.0000000001
 40
50.00747752831507
 40
50.00747752831507
 40
50.00747752831507
 40
50.00747752831507
 40
69.09330766851349
 40
69.09330766851349
 40
69.09330766851349
 40
69.09330766851349
 10
0.5331792992433293
 20
1.663513837458736
 30
0.0
 10
0.5332861400638649
 20
1.669874895801008
 30
0.0
 10
0.5333892577336883
 20
1.676235992072783
 30
0.0
 10
0.5334872312764674
 20
1.682597140749151
 30
0.0
  0
SPLINE
  5
33CCF
330
32C81
100
AcDbEntity
  8
Strichlinien
 62
     7
100
AcDbSpline
210
0.0
220
0.0
230
1.0
 70
     8
 71
     3
 72
     8
 73
     4
 74
     0
 42
0.000000001
 43
0.0000000001
 40
1983.619255070105
 40
1983.619255070105
 40
1983.619255070105
 40
1983.619255070105
 40
2030.306612348283
 40
2030.306612348283
 40
2030.306612348283
 40
2030.306612348283
 10
0.5320153227946776
 20
3.596996990029403
 30
0.0
 10
0.5315849745613832
 20
3.612556553980971
 30
0.0
 10
0.531177710467091
 20
3.628116110419561
 30
0.0
 10
0.5308322265996141
 20
3.643675658890217
 30
0.0
  0
LINE
  5
33CD0
330
32C81
100
AcDbEntity
  8
Strichlinien
 62
     7
100
AcDbLine
 10
0.5331792992437842
 20
1.663513837458736
 30
0.0
 11
0.3461934226742187
 21
1.663513837458736
 31
0.0
  0
LINE
  5
33CD1
330
32C81
100
AcDbEntity
  8
Strichlinien
 62
     7
100
AcDbLine
 10
0.3499934184104632
 20
1.709357596353335
 30
0.0
 11
0.2488829032946569
 21
1.709357596352865
 31
0.0
  0
LINE
  5
33CD2
330
32C81
100
AcDbEntity
  8
Strichlinien
 62
     7
100
AcDbLine
 10
0.2493073866912709
 20
1.663513837458736
 30
0.0
 11
0.0971618549767755
 21
1.663532479743174
 31
0.0
  0
LINE
  5
33CD3
330
32C81
100
AcDbEntity
  8
Strichlinien
 62
     7
100
AcDbLine
 10
0.0975426200363927
 20
1.62234329860628
 30
0.0
 11
-0.0221784963355276
 21
1.622518921190575
 31
0.0
  0
LINE
  5
33CD4
330
32C81
100
AcDbEntity
  8
Strichlinien
 62
     7
100
AcDbLine
 10
0.5309719024039623
 20
3.643675658889747
 30
0.0
 11
0.3520773795345349
 21
3.643675658889747
 31
0.0
  0
LINE
  5
33CD5
330
32C81
100
AcDbEntity
  8
Strichlinien
 62
     7
100
AcDbLine
 10
0.3569685380431338
 20
3.633874288177288
 30
0.0
 11
0.2460758998236088
 21
3.633855319795365
 31
0.0
  0
LINE
  5
33CD6
330
32C81
100
AcDbEntity
  8
Strichlinien
 62
     7
100
AcDbLine
 10
0.2470999903077882
 20
3.643675658889747
 30
0.0
 11
0.0948150853822654
 21
3.643647912067996
 31
0.0
  0
LINE
  5
33CD7
330
32C81
100
AcDbEntity
  8
Strichlinien
 62
     7
100
AcDbLine
 10
0.0951813582219075
 20
3.68484619774221
 30
0.0
 11
-0.025151378954206
 21
3.684846197742671
 31
0.0
  0
SPLINE
  5
33CD8
330
32C81
100
AcDbEntity
  8
Strichlinien
 62
     7
100
AcDbSpline
210
0.0
220
0.0
230
1.0
 70
    24
 71
     3
 72
     8
 73
     4
 74
     0
 42
0.000000001
 43
0.0000000001
 40
50.01007862207003
 40
50.01007862207003
 40
50.01007862207003
 40
50.01007862207003
 40
59.58109677293965
 40
59.58109677293965
 40
59.58109677293965
 40
59.58109677293965
 10
0.3521963904011045
 20
3.643443405436058
 30
0.0
 10
0.3520957205394097
 20
3.640253701864444
 30
0.0
 10
0.3519970319564436
 20
3.637063996242531
 30
0.0
 10
0.3519007038325981
 20
3.633874288178218
 30
0.0
  0
SPLINE
  5
33CD9
330
32C81
100
AcDbEntity
  8
Strichlinien
 62
     7
100
AcDbSpline
210
0.0
220
0.0
230
1.0
 70
    24
 71
     3
 72
     8
 73
     4
 74
     0
 42
0.000000001
 43
0.0000000001
 40
50.1344811893573
 40
50.1344811893573
 40
50.1344811893573
 40
50.1344811893573
 40
59.70549916658335
 40
59.70549916658335
 40
59.70549916658335
 40
59.70549916658335
 10
0.3572640551137738
 20
3.643443405437921
 30
0.0
 10
0.3571634368227023
 20
3.640253701870966
 30
0.0
 10
0.3570648047389113
 20
3.637063996248116
 30
0.0
 10
0.3569685380431338
 20
3.633874288177288
 30
0.0
  0
SPLINE
  5
33CDA
330
32C81
100
AcDbEntity
  8
Strichlinien
 62
     7
100
AcDbSpline
210
0.0
220
0.0
230
1.0
 70
     8
 71
     3
 72
     8
 73
     4
 74
     0
 42
0.000000001
 43
0.0000000001
 40
51.33113015334174
 40
51.33113015334174
 40
51.33113015334174
 40
51.33113015334174
 40
95.8627913054274
 40
95.8627913054274
 40
95.8627913054274
 40
95.8627913054274
 10
-0.6614227483188416
 20
3.597897626510991
 30
0.0
 10
-0.6609569338763777
 20
3.612738557947501
 30
0.0
 10
-0.6605351435266586
 20
3.627579534945247
 30
0.0
 10
-0.6601955698048414
 20
3.642420597031879
 30
0.0
  0
SPLINE
  5
33CDB
330
32C81
100
AcDbEntity
  8
Strichlinien
 62
     7
100
AcDbSpline
210
0.0
220
0.0
230
1.0
 70
     8
 71
     3
 72
     8
 73
     4
 74
     0
 42
0.000000001
 43
0.0000000001
 40
51.45553269989743
 40
51.45553269989743
 40
51.45553269989743
 40
51.45553269989743
 40
95.98719275474172
 40
95.98719275474172
 40
95.98719275474172
 40
95.98719275474172
 10
-0.6664904346670255
 20
3.59789762651006
 30
0.0
 10
-0.6660248665045856
 20
3.612738557836677
 30
0.0
 10
-0.6656034291255537
 20
3.627579534834886
 30
0.0
 10
-0.6652643150634959
 20
3.642420597031879
 30
0.0
  0
LINE
  5
33CDC
330
32C81
100
AcDbEntity
  8
Strichlinien
 62
     7
100
AcDbLine
 10
0.6055263876510253
 20
1.682580303524793
 30
0.0
 11
0.5323769275323686
 21
1.682597400252412
 31
0.0
  0
LINE
  5
33CDD
330
32C81
100
AcDbEntity
  8
Strichlinien
 62
     7
100
AcDbLine
 10
0.6118086282131117
 20
3.597027254488486
 30
0.0
 11
0.5309050266998839
 21
3.596996568910013
 31
0.0
  0
SPLINE
  5
33CDE
330
32C81
100
AcDbEntity
  8
Strichlinien
 62
     7
100
AcDbSpline
210
0.0
220
0.0
230
1.0
 70
    24
 71
     3
 72
     8
 73
     4
 74
     0
 42
0.000000001
 43
0.0000000001
 40
50.01007862207003
 40
50.01007862207003
 40
50.01007862207003
 40
50.01007862207003
 40
69.08031772709809
 40
69.08031772709809
 40
69.08031772709809
 40
69.08031772709809
 10
0.6010335128447652
 20
1.663513837459198
 30
0.0
 10
0.6008329282981322
 20
1.669869316972494
 30
0.0
 10
0.6006402095272279
 20
1.676224804626478
 30
0.0
 10
0.6004583559735011
 20
1.682580303524793
 30
0.0
  0
SPLINE
  5
33CDF
330
32C81
100
AcDbEntity
  8
Strichlinien
 62
     7
100
AcDbSpline
210
0.0
220
0.0
230
1.0
 70
    24
 71
     3
 72
     8
 73
     4
 74
     0
 42
0.000000001
 43
0.0000000001
 40
50.1344811893573
 40
50.1344811893573
 40
50.1344811893573
 40
50.1344811893573
 40
69.20471991580615
 40
69.20471991580615
 40
69.20471991580615
 40
69.20471991580615
 10
0.6061011775574344
 20
1.663513837457336
 30
0.0
 10
0.6059006957659677
 20
1.66986931695061
 30
0.0
 10
0.605708099317326
 20
1.676224804605524
 30
0.0
 10
0.6055263876510253
 20
1.682580303524793
 30
0.0
  0
SPLINE
  5
33CE0
330
32C81
100
AcDbEntity
  8
Strichlinien
 62
     7
100
AcDbSpline
210
0.0
220
0.0
230
1.0
 70
     8
 71
     3
 72
    14
 73
    10
 74
     0
 42
0.000000001
 43
0.0000000001
 40
50.007477528474
 40
50.007477528474
 40
50.007477528474
 40
50.007477528474
 40
94.59908916883248
 40
378.6631279633202
 40
768.780390713932
 40
1027.058888611161
 40
1493.741289133588
 40
1813.245232902773
 40
2030.306612348984
 40
2030.306612348984
 40
2030.306612348984
 40
2030.306612348984
 10
0.7869090816727749
 20
1.663513837458736
 30
0.0
 10
0.78715870164433
 20
1.678375640228096
 30
0.0
 10
0.7888486974537729
 20
1.78791380942676
 30
0.0
 10
0.7879772885148669
 20
2.027521317199506
 30
0.0
 10
0.7827410312988832
 20
2.338333782076076
 30
0.0
 10
0.7918194760270581
 20
2.709995239970445
 30
0.0
 10
0.7778628926664624
 20
3.058157461706719
 30
0.0
 10
0.7934398852210052
 20
3.392513207837643
 30
0.0
 10
0.7861682512574362
 20
3.571335366968703
 30
0.0
 10
0.78456200902815
 20
3.643675658889285
 30
0.0
  0
SPLINE
  5
33CE1
330
32C81
100
AcDbEntity
  8
Strichlinien
 62
     7
100
AcDbSpline
210
0.0
220
0.0
230
1.0
 70
     8
 71
     3
 72
    14
 73
    10
 74
     0
 42
0.000000001
 43
0.0000000001
 40
50.00747752831507
 40
50.00747752831507
 40
50.00747752831507
 40
50.00747752831507
 40
94.59908916883248
 40
378.6631279633202
 40
768.780390713932
 40
1027.058888611161
 40
1493.741289133588
 40
1813.245232902773
 40
2030.306612348283
 40
2030.306612348283
 40
2030.306612348283
 40
2030.306612348283
 10
0.7880193894134209
 20
1.663513837458736
 30
0.0
 10
0.7882690093853171
 20
1.678375640228096
 30
0.0
 10
0.7899590051947599
 20
1.78791380942676
 30
0.0
 10
0.7890875962558539
 20
2.027521317200907
 30
0.0
 10
0.7838513390404387
 20
2.338333782077008
 30
0.0
 10
0.7929297837680453
 20
2.709995239969976
 30
0.0
 10
0.7789732004073358
 20
3.058157461707651
 30
0.0
 10
0.7945501929619923
 20
3.392513207837643
 30
0.0
 10
0.7872785589984233
 20
3.571335366968703
 30
0.0
 10
0.7856723167701603
 20
3.643675658890217
 30
0.0
  0
LINE
  5
33CE2
330
32C81
100
AcDbEntity
  8
Strichlinien
 62
     7
100
AcDbLine
 10
0.7880193894138757
 20
1.663513837458736
 30
0.0
 11
0.6010335128441966
 21
1.663513837458736
 31
0.0
  0
LINE
  5
33CE3
330
32C81
100
AcDbEntity
  8
Strichlinien
 62
     7
100
AcDbLine
 10
0.7858119925740539
 20
3.643675658889747
 30
0.0
 11
0.6069174697045128
 21
3.643675658889747
 31
0.0
  0
SPLINE
  5
33CE4
330
32C81
100
AcDbEntity
  8
Strichlinien
 62
     7
100
AcDbSpline
210
0.0
220
0.0
230
1.0
 70
     8
 71
     3
 72
     8
 73
     4
 74
     0
 42
0.000000001
 43
0.0000000001
 40
50.01007862207003
 40
50.01007862207003
 40
50.01007862207003
 40
50.01007862207003
 40
59.58109677293965
 40
59.58109677293965
 40
59.58109677293965
 40
59.58109677293965
 10
0.6070364805711961
 20
3.643443405436058
 30
0.0
 10
0.6069358107093878
 20
3.640253701864444
 30
0.0
 10
0.6077641298068102
 20
3.623386368149596
 30
0.0
 10
0.6067407940025761
 20
3.597027254488486
 30
0.0
  0
SPLINE
  5
33CE5
330
32C81
100
AcDbEntity
  8
Strichlinien
 62
     7
100
AcDbSpline
210
0.0
220
0.0
230
1.0
 70
     8
 71
     3
 72
     8
 73
     4
 74
     0
 42
0.000000001
 43
0.0000000001
 40
50.1344811893573
 40
50.1344811893573
 40
50.1344811893573
 40
50.1344811893573
 40
59.70549916658335
 40
59.70549916658335
 40
59.70549916658335
 40
59.70549916658335
 10
0.6121041452838654
 20
3.643443405437921
 30
0.0
 10
0.6120035269926804
 20
3.640253701870966
 30
0.0
 10
0.6127867160314509
 20
3.626485675145572
 30
0.0
 10
0.6118086282131117
 20
3.597027254488486
 30
0.0
  0
SPLINE
  5
33CE6
330
32C81
100
AcDbEntity
  8
Strichlinien
 62
     7
100
AcDbSpline
210
0.0
220
0.0
230
1.0
 70
     8
 71
     3
 72
    14
 73
    10
 74
     0
 42
0.000000001
 43
0.0000000001
 40
50.007477528474
 40
50.007477528474
 40
50.007477528474
 40
50.007477528474
 40
94.59908916883248
 40
378.6631279633202
 40
768.780390713932
 40
1027.058888611161
 40
1493.741289133588
 40
1813.245232902773
 40
2030.306612348984
 40
2030.306612348984
 40
2030.306612348984
 40
2030.306612348984
 10
-0.948828570339856
 20
1.663579563974571
 30
0.0
 10
-0.9490781903112972
 20
1.678441366743931
 30
0.0
 10
-0.9507681861207402
 20
1.787979535942603
 30
0.0
 10
-0.9498967771818341
 20
2.027587043715341
 30
0.0
 10
-0.9446605199659645
 20
2.338399508591912
 30
0.0
 10
-0.9537389646940257
 20
2.71006096648628
 30
0.0
 10
-0.9397823813333159
 20
3.058223188222554
 30
0.0
 10
-0.9553593738879726
 20
3.392578934353479
 30
0.0
 10
-0.9480877399244036
 20
3.571401093484069
 30
0.0
 10
-0.9464814976952311
 20
3.643741385405121
 30
0.0
  0
SPLINE
  5
33CE7
330
32C81
100
AcDbEntity
  8
Strichlinien
 62
     7
100
AcDbSpline
210
0.0
220
0.0
230
1.0
 70
     8
 71
     3
 72
    14
 73
    10
 74
     0
 42
0.000000001
 43
0.0000000001
 40
50.00747752831507
 40
50.00747752831507
 40
50.00747752831507
 40
50.00747752831507
 40
94.59908916883248
 40
378.6631279633202
 40
768.780390713932
 40
1027.058888611161
 40
1493.741289133588
 40
1813.245232902773
 40
2030.306612348283
 40
2030.306612348283
 40
2030.306612348283
 40
2030.306612348283
 10
-0.9499388780802744
 20
1.663579563974571
 30
0.0
 10
-0.9501884980522843
 20
1.678441366743931
 30
0.0
 10
-0.9518784938617271
 20
1.787979535942603
 30
0.0
 10
-0.9510070849228211
 20
2.027587043716741
 30
0.0
 10
-0.9457708277072923
 20
2.338399508592843
 30
0.0
 10
-0.9548492724350126
 20
2.710060966485818
 30
0.0
 10
-0.9408926890744167
 20
3.058223188223486
 30
0.0
 10
-0.9564696816289595
 20
3.392578934353017
 30
0.0
 10
-0.9491980476658453
 20
3.571401093484538
 30
0.0
 10
-0.9475918054370142
 20
3.643741385406051
 30
0.0
  0
LINE
  5
33CE8
330
32C81
100
AcDbEntity
  8
Strichlinien
 62
     7
100
AcDbLine
 10
-0.9499388780807294
 20
1.663579563974571
 30
0.0
 11
-0.8407905929902881
 21
1.663579563974571
 31
0.0
  0
LINE
  5
33CE9
330
32C81
100
AcDbEntity
  8
Strichlinien
 62
     7
100
AcDbLine
 10
-0.9477314812401116
 20
3.64374138540559
 30
0.0
 11
-0.8385831961495567
 21
3.64374138540559
 31
0.0
  0
LINE
  5
33CEA
330
32C81
100
AcDbEntity
  8
Kontur 18
 62
     7
100
AcDbLine
 10
0.4325624935627276
 20
1.7306214553776
 30
0.0
 11
0.4451127756890402
 21
1.700621455378068
 31
0.0
  0
LINE
  5
33CEB
330
32C81
100
AcDbEntity
  8
Kontur 18
 62
     7
100
AcDbLine
 10
0.377469922302339
 20
1.7006214553776
 30
0.0
 11
0.3816897652415037
 21
1.7306214553776
 31
0.0
  0
LINE
  5
33CEC
330
32C81
100
AcDbEntity
  8
Kontur 18
 62
     7
100
AcDbLine
 10
0.1586953252260628
 20
1.730621455377139
 30
0.0
 11
0.1699482929302576
 21
1.700621455377138
 31
0.0
  0
LINE
  5
33CED
330
32C81
100
AcDbEntity
  8
Kontur 18
 62
     7
100
AcDbLine
 10
0.072204573754334
 20
1.7306214553776
 30
0.0
 11
0.0538954987814577
 21
1.7006214553776
 31
0.0
  0
LINE
  5
33CEE
330
32C81
100
AcDbEntity
  8
Kontur 18
 62
     7
100
AcDbLine
 10
-0.0410765034603173
 20
1.7006214553776
 30
0.0
 11
-0.0675282473782772
 21
1.73062145537807
 31
0.0
  0
LINE
  5
33CEF
330
32C81
100
AcDbEntity
  8
Kontur 18
 62
     7
100
AcDbLine
 10
-0.1129336935607625
 20
1.7306214553776
 30
0.0
 11
-0.1247026503812094
 21
1.70062145537853
 31
0.0
  0
LINE
  5
33CF0
330
32C81
100
AcDbEntity
  8
Kontur 18
 62
     7
100
AcDbLine
 10
-0.2368805674434498
 20
1.7006214553776
 30
0.0
 11
-0.2526843899734104
 21
1.73062145537807
 31
0.0
  0
LINE
  5
33CF1
330
32C81
100
AcDbEntity
  8
Kontur 18
 62
     7
100
AcDbLine
 10
-0.3010255317315114
 20
1.73062145537807
 30
0.0
 11
-0.3121811429988384
 21
1.70062145537853
 31
0.0
  0
LINE
  5
33CF2
330
32C81
100
AcDbEntity
  8
Kontur 18
 62
     7
100
AcDbLine
 10
-0.4437333102150661
 20
1.70062145537853
 30
0.0
 11
-0.4554469653870683
 21
1.73062145537807
 31
0.0
  0
LINE
  5
33CF3
330
32C81
100
AcDbEntity
  8
Kontur 18
 62
     7
100
AcDbLine
 10
-0.5035933144715729
 20
1.730621455378532
 30
0.0
 11
-0.5275703694824188
 21
1.700621455378068
 31
0.0
  0
LINE
  5
33CF4
330
32C81
100
AcDbEntity
  8
Kontur 18
 62
     7
100
AcDbLine
 10
-0.696331767896595
 20
1.700621455378068
 30
0.0
 11
-0.7193866499685555
 21
1.7306214553776
 31
0.0
  0
LINE
  5
33CF5
330
32C81
100
AcDbEntity
  8
Kontur 18
 62
     7
100
AcDbLine
 10
0.5806133500309443
 20
1.7306214553776
 30
0.0
 11
0.5678987937621969
 21
1.7006214553776
 31
0.0
  0
LINE
  5
33CF6
330
32C81
100
AcDbEntity
  8
Kontur 18
 62
     7
100
AcDbLine
 10
0.5806133500304897
 20
3.180915297879073
 30
0.0
 11
0.5506133500314263
 21
3.17050421957316
 31
0.0
  0
LINE
  5
33CF7
330
32C81
100
AcDbEntity
  8
Kontur 18
 62
     7
100
AcDbLine
 10
0.5506133500318811
 20
3.120183967415413
 30
0.0
 11
0.5806133500309443
 21
3.106302489328832
 31
0.0
  0
LINE
  5
33CF8
330
32C81
100
AcDbEntity
  8
Kontur 18
 62
     7
100
AcDbLine
 10
0.5806133500304897
 20
2.893613568696365
 30
0.0
 11
0.5506133500309716
 21
2.87413900149351
 31
0.0
  0
LINE
  5
33CF9
330
32C81
100
AcDbEntity
  8
Kontur 18
 62
     7
100
AcDbLine
 10
0.5806133500309443
 20
2.789424113718034
 30
0.0
 11
0.5506133500309716
 21
2.806951369440354
 31
0.0
  0
LINE
  5
33CFA
330
32C81
100
AcDbEntity
  8
Kontur 18
 62
     7
100
AcDbLine
 10
0.5806133500309443
 20
2.599546175741756
 30
0.0
 11
0.5506133500314263
 21
2.577150338735136
 31
0.0
  0
LINE
  5
33CFB
330
32C81
100
AcDbEntity
  8
Kontur 18
 62
     7
100
AcDbLine
 10
0.5506133500314263
 20
2.515837683326735
 30
0.0
 11
0.5806133500309443
 21
2.491582889453674
 31
0.0
  0
LINE
  5
33CFC
330
32C81
100
AcDbEntity
  8
Kontur 18
 62
     7
100
AcDbLine
 10
0.5806133500309443
 20
2.304823143140581
 30
0.0
 11
0.5506133500309716
 21
2.291913444770671
 31
0.0
  0
LINE
  5
33CFD
330
32C81
100
AcDbEntity
  8
Kontur 18
 62
     7
100
AcDbLine
 10
0.5806133500309443
 20
2.209291593071241
 30
0.0
 11
0.5506133500314263
 21
2.224783182700335
 31
0.0
  0
LINE
  5
33CFE
330
32C81
100
AcDbEntity
  8
Kontur 18
 62
     7
100
AcDbLine
 10
0.5806133500309443
 20
2.087080217567907
 30
0.0
 11
0.5506133500309716
 21
2.078473751988433
 31
0.0
  0
LINE
  5
33CFF
330
32C81
100
AcDbEntity
  8
Kontur 18
 62
     7
100
AcDbLine
 10
0.5806133500313992
 20
2.023610136145896
 30
0.0
 11
0.5506133500309716
 21
2.036238673189358
 31
0.0
  0
SPLINE
  5
33D00
330
32C81
100
AcDbEntity
  8
Kontur 18
 62
     7
100
AcDbSpline
210
0.0
220
0.0
230
1.0
 70
  1064
 71
     3
 72
    14
 73
    10
 74
     8
 42
0.000000001
 43
0.0000000001
 44
0.00001
 40
0.0
 40
0.0
 40
0.0
 40
0.0
 40
0.1573125365588946
 40
0.4931655559911868
 40
0.8107094288430648
 40
0.9398250443521673
 40
1.028218410430957
 40
1.078194134623908
 40
1.106983113566347
 40
1.106983113566347
 40
1.106983113566347
 40
1.106983113566347
 10
0.4772902751034282
 20
1.6306214553776
 30
0.0
 10
0.4248590612964521
 20
1.631968433050919
 30
0.0
 10
0.260490287681708
 20
1.636191128887507
 30
0.0
 10
-0.009678382671304
 20
1.619456129610789
 30
0.0
 10
-0.2705725112407096
 20
1.641733822304542
 30
0.0
 10
-0.4487621067955699
 20
1.622529187173803
 30
0.0
 10
-0.5377789567655464
 20
1.633545128558643
 30
0.0
 10
-0.5934860115416646
 20
1.629255870645364
 30
0.0
 10
-0.6197330542377765
 20
1.630255928234866
 30
0.0
 10
-0.6293265082774724
 20
1.6306214553776
 30
0.0
 11
0.4772902751034282
 21
1.6306214553776
 31
0.0
 11
0.3199988215673102
 21
1.63319687827274
 31
0.0
 11
-0.0158068311540092
 21
1.627556464972613
 31
0.0
 11
-0.3333111495379626
 21
1.63256835017789
 31
0.0
 11
-0.4623055556746749
 21
1.626975018994123
 31
0.0
 11
-0.5505904475039644
 21
1.63135280855389
 31
0.0
 11
-0.6005458707081745
 21
1.629928483767136
 31
0.0
 11
-0.6293265082774724
 21
1.6306214553776
 31
0.0
  0
LINE
  5
33D01
330
32C81
100
AcDbEntity
  8
Kontur 18
 62
     7
100
AcDbLine
 10
-0.6293265082774724
 20
1.630621455377138
 30
0.0
 11
-0.6239119741767354
 21
1.70062145537853
 31
0.0
  0
LINE
  5
33D02
330
32C81
100
AcDbEntity
  8
Kontur 18
 62
     7
100
AcDbLine
 10
0.4772902751034282
 20
1.6306214553776
 30
0.0
 11
0.4827143054469616
 21
1.7006214553776
 31
0.0
  0
SPLINE
  5
33D03
330
32C81
100
AcDbEntity
  8
Kontur 18
 62
     7
100
AcDbSpline
210
0.0
220
0.0
230
1.0
 70
  1064
 71
     3
 72
     9
 73
     5
 74
     3
 42
0.000000001
 43
0.0000000001
 44
0.00001
 40
0.0
 40
0.0
 40
0.0
 40
0.0
 40
0.0543369400328657
 40
0.0839700736465361
 40
0.0839700736465361
 40
0.0839700736465361
 40
0.0839700736465361
 10
-0.5275703694824188
 20
1.700621455378068
 30
0.0
 10
-0.5094617240186183
 20
1.699179131607931
 30
0.0
 10
-0.4814773676615137
 20
1.696950223739226
 30
0.0
 10
-0.4535787602195787
 20
1.699663823104601
 30
0.0
 10
-0.4437333102150661
 20
1.70062145537853
 30
0.0
 11
-0.5275703694824188
 21
1.700621455378068
 31
0.0
 11
-0.4732803393303584
 21
1.698364094480111
 31
0.0
 11
-0.4437333102150661
 21
1.70062145537853
 31
0.0
  0
SPLINE
  5
33D04
330
32C81
100
AcDbEntity
  8
Kontur 18
 62
     7
100
AcDbSpline
210
0.0
220
0.0
230
1.0
 70
  1064
 71
     3
 72
     9
 73
     5
 74
     3
 42
0.000000001
 43
0.0000000001
 44
0.00001
 40
0.0
 40
0.0
 40
0.0
 40
0.0
 40
0.0354912166163039
 40
0.0755386928211744
 40
0.0755386928211744
 40
0.0755386928211744
 40
0.0755386928211744
 10
-0.2368805674434498
 20
1.7006214553776
 30
0.0
 10
-0.2486667606895994
 20
1.699182638077156
 30
0.0
 10
-0.2737522245320227
 20
1.696120292278786
 30
0.0
 10
-0.2988665638338179
 20
1.699061924306169
 30
0.0
 10
-0.3121811429988384
 20
1.70062145537853
 30
0.0
 11
-0.2368805674434498
 21
1.7006214553776
 31
0.0
 11
-0.2722455214708361
 21
1.697630388085435
 31
0.0
 11
-0.3121811429988384
 21
1.70062145537853
 31
0.0
  0
SPLINE
  5
33D05
330
32C81
100
AcDbEntity
  8
Kontur 18
 62
     7
100
AcDbSpline
210
0.0
220
0.0
230
1.0
 70
  1064
 71
     3
 72
    10
 73
     6
 74
     4
 42
0.000000001
 43
0.0000000001
 44
0.00001
 40
0.0
 40
0.0
 40
0.0
 40
0.0
 40
0.0317261799127798
 40
0.0683477095218795
 40
0.0858386162927049
 40
0.0858386162927049
 40
0.0858386162927049
 40
0.0858386162927049
 10
-0.041427374541172
 20
1.7006214553776
 30
0.0
 10
-0.0519604075561113
 20
1.699072556049039
 30
0.0
 10
-0.0746517206252731
 20
1.695735762218893
 30
0.0
 10
-0.1031100240290512
 20
1.701655174014614
 30
0.0
 10
-0.1211565656824924
 20
1.700873967000131
 30
0.0
 10
-0.1269897973518255
 20
1.70062145537853
 30
0.0
 11
-0.041427374541172
 21
1.7006214553776
 31
0.0
 11
-0.0730196181298197
 21
1.697709302068858
 31
0.0
 11
-0.1095012296618734
 21
1.700907497018278
 31
0.0
 11
-0.1269897973518255
 21
1.70062145537853
 31
0.0
  0
SPLINE
  5
33D06
330
32C81
100
AcDbEntity
  8
Kontur 18
 62
     7
100
AcDbSpline
210
0.0
220
0.0
230
1.0
 70
  1064
 71
     3
 72
     9
 73
     5
 74
     3
 42
0.000000001
 43
0.0000000001
 44
0.00001
 40
0.0
 40
0.0
 40
0.0
 40
0.0
 40
0.0945223877175683
 40
0.1161745053671462
 40
0.1161745053671462
 40
0.1161745053671462
 40
0.1161745053671462
 10
0.1699482929302576
 20
1.700621455377138
 30
0.0
 10
0.1383928031750616
 20
1.702816353320663
 30
0.0
 10
0.0996089393471424
 20
1.705514033617127
 30
0.0
 10
0.0610769327564411
 20
1.70139006362934
 30
0.0
 10
0.0538954987805482
 20
1.70062145537853
 30
0.0
 11
0.1699482929302576
 21
1.700621455377138
 31
0.0
 11
0.0754485492068398
 21
1.70269032367615
 31
0.0
 11
0.0538954987805482
 21
1.70062145537853
 31
0.0
  0
SPLINE
  5
33D07
330
32C81
100
AcDbEntity
  8
Kontur 18
 62
     7
100
AcDbSpline
210
0.0
220
0.0
230
1.0
 70
  1064
 71
     3
 72
    10
 73
     6
 74
     4
 42
0.000000001
 43
0.0000000001
 44
0.00001
 40
0.0
 40
0.0
 40
0.0
 40
0.0
 40
0.0326709808507076
 40
0.049608882371485
 40
0.0679746852458857
 40
0.0679746852458857
 40
0.0679746852458857
 40
0.0679746852458857
 10
0.4451127756890402
 20
1.7006214553776
 30
0.0
 10
0.4342075653759064
 20
1.702555674758593
 30
0.0
 10
0.4176486717775576
 20
1.70549266836129
 30
0.0
 10
0.3954322994827436
 20
1.699453962838226
 30
0.0
 10
0.3836166804008233
 20
1.700221937309961
 30
0.0
 10
0.377469922302339
 20
1.7006214553776
 30
0.0
 11
0.4451127756890402
 21
1.7006214553776
 31
0.0
 11
0.4125468081297187
 21
1.703238848483826
 31
0.0
 11
0.395835176726905
 21
1.700479521793482
 31
0.0
 11
0.377469922302339
 21
1.7006214553776
 31
0.0
  0
SPLINE
  5
33D08
330
32C81
100
AcDbEntity
  8
dünne Linie
 62
     7
100
AcDbSpline
210
0.0
220
0.0
230
1.0
 70
  1064
 71
     3
 72
    10
 73
     6
 74
     4
 42
0.000000001
 43
0.0000000001
 44
0.00001
 40
0.0
 40
0.0
 40
0.0
 40
0.0
 40
0.1209763103439956
 40
0.197435257825496
 40
0.2094564476748523
 40
0.2094564476748523
 40
0.2094564476748523
 40
0.2094564476748523
 10
0.4248150757910027
 20
1.637986908673944
 30
0.0
 10
0.3909651519841447
 20
1.642220275091093
 30
0.0
 10
0.3357215392869412
 20
1.649129196248162
 30
0.0
 10
0.226675642106924
 20
1.675574010527763
 30
0.0
 10
0.2288607318918131
 20
1.644151675992441
 30
0.0
 10
0.2291576050650974
 20
1.639882538756061
 30
0.0
 11
0.4248150757910027
 21
1.637986908673944
 31
0.0
 11
0.3054149869140019
 21
1.657451914212372
 31
0.0
 11
0.2291576050650974
 21
1.651903728605418
 31
0.0
 11
0.2291576050650974
 21
1.639882538756061
 31
0.0
  0
SPLINE
  5
33D09
330
32C81
100
AcDbEntity
  8
dünne Linie
 62
     7
100
AcDbSpline
210
0.0
220
0.0
230
1.0
 70
  1064
 71
     3
 72
    10
 73
     6
 74
     4
 42
0.000000001
 43
0.0000000001
 44
0.00001
 40
0.0
 40
0.0
 40
0.0
 40
0.0
 40
0.0403226388794132
 40
0.0664786465404577
 40
0.0820445044011367
 40
0.0820445044011367
 40
0.0820445044011367
 40
0.0820445044011367
 10
0.31512046607304
 20
1.643581329161007
 30
0.0
 10
0.3046760945852974
 20
1.649596332435891
 30
0.0
 10
0.2874567929778979
 20
1.659513076174973
 30
0.0
 10
0.2400941573493631
 20
1.644047998241354
 30
0.0
 10
0.2593973120723632
 20
1.645164938326909
 30
0.0
 10
0.2665990553051643
 20
1.645581653408874
 30
0.0
 11
0.31512046607304
 21
1.643581329161007
 31
0.0
 11
0.2760034477129238
 21
1.653367752451153
 31
0.0
 11
0.2510331974444853
 21
1.645581653408874
 31
0.0
 11
0.2665990553051643
 21
1.645581653408874
 31
0.0
  0
SPLINE
  5
33D0A
330
32C81
100
AcDbEntity
  8
dünne Linie
 62
     7
100
AcDbSpline
210
0.0
220
0.0
230
1.0
 70
  1064
 71
     3
 72
     9
 73
     5
 74
     3
 42
0.000000001
 43
0.0000000001
 44
0.00001
 40
0.0
 40
0.0
 40
0.0
 40
0.0
 40
0.0738697263912933
 40
0.1852062191859
 40
0.1852062191859
 40
0.1852062191859
 40
0.1852062191859
 10
-0.3880443797851285
 20
1.690138764077033
 30
0.0
 10
-0.4119689770348997
 20
1.683038776394609
 30
0.0
 10
-0.4719527405959593
 20
1.665237683319449
 30
0.0
 10
-0.5336099837301049
 20
1.678619527671101
 30
0.0
 10
-0.5706751602458553
 20
1.686664007083215
 30
0.0
 11
-0.3880443797851285
 21
1.690138764077033
 31
0.0
 11
-0.4600843925061328
 21
1.673799454291057
 31
0.0
 11
-0.5706751602458553
 21
1.686664007083215
 31
0.0
  0
SPLINE
  5
33D0B
330
32C81
100
AcDbEntity
  8
dünne Linie
 62
     7
100
AcDbSpline
210
0.0
220
0.0
230
1.0
 70
  1064
 71
     3
 72
     9
 73
     5
 74
     3
 42
0.000000001
 43
0.0000000001
 44
0.00001
 40
0.0
 40
0.0
 40
0.0
 40
0.0
 40
0.0194873300693558
 40
0.0603894643631076
 40
0.0603894643631076
 40
0.0603894643631076
 40
0.0603894643631076
 10
-0.4552325307306547
 20
1.690053193239201
 30
0.0
 10
-0.4610755843144365
 20
1.686796992819252
 30
0.0
 10
-0.479182676199968
 20
1.676706323727088
 30
0.0
 10
-0.499599765426181
 20
1.683603769792511
 30
0.0
 10
-0.5134283783179399
 20
1.688275449997448
 30
0.0
 11
-0.4552325307306547
 21
1.690053193239201
 31
0.0
 11
-0.4730022350823903
 21
1.682053590718829
 31
0.0
 11
-0.5134283783179399
 21
1.688275449997448
 31
0.0
  0
LINE
  5
33D0C
330
32C81
100
AcDbEntity
  8
Kontur 18
 62
     7
100
AcDbLine
 10
-0.8920217217314528
 20
1.806017263846641
 30
0.0
 11
-0.8175978258992698
 21
1.806017263846115
 31
0.0
  0
SPLINE
  5
33D0D
330
32C81
100
AcDbEntity
  8
Kontur 18
 62
     7
100
AcDbSpline
210
0.0
220
0.0
230
1.0
 70
  1064
 71
     3
 72
    12
 73
     8
 74
     6
 42
0.000000001
 43
0.0000000001
 44
0.00001
 40
0.0
 40
0.0
 40
0.0
 40
0.0
 40
0.5664344066577034
 40
0.834570602615296
 40
1.274139253618382
 40
1.545320433679468
 40
1.659707287087003
 40
1.659707287087003
 40
1.659707287087003
 40
1.659707287087003
 10
-0.8927661532109141
 20
3.465700309098401
 30
0.0
 10
-0.8938242339942462
 20
3.276886184570134
 30
0.0
 10
-0.8953831843450409
 20
2.998692070939851
 30
0.0
 10
-0.8894642150633684
 20
2.574000730848268
 30
0.0
 10
-0.8933840704263623
 20
2.247702675802735
 30
0.0
 10
-0.8891373493909448
 20
1.972650122845395
 30
0.0
 10
-0.891361793636444
 20
1.844141920521695
 30
0.0
 10
-0.8920217217314528
 20
1.806017263846641
 30
0.0
 11
-0.8927661532109141
 21
3.465700309098401
 31
0.0
 11
-0.8934363279488477
 21
2.899266298898196
 31
0.0
 11
-0.8911393544400425
 21
2.631139941567723
 31
0.0
 11
-0.8915705955755584
 21
2.191571502100379
 31
0.0
 11
-0.8904123731773552
 21
1.920392795450688
 31
0.0
 11
-0.8920217217314528
 21
1.806017263846641
 31
0.0
  0
SPLINE
  5
33D0E
330
32C81
100
AcDbEntity
  8
Kontur 18
 62
     7
100
AcDbSpline
210
0.0
220
0.0
230
1.0
 70
     8
 71
     3
 72
    10
 73
     6
 74
     0
 42
0.000000001
 43
0.0000000001
 40
24.96536573539724
 40
24.96536573539724
 40
24.96536573539724
 40
24.96536573539724
 40
424.4566764369639
 40
454.3716367159644
 40
494.9300390027683
 40
494.9300390027683
 40
494.9300390027683
 40
494.9300390027683
 10
-0.8301355043208785
 20
3.376005095784428
 30
0.0
 10
-0.822896149423286
 20
3.242859506278526
 30
0.0
 10
-0.8158348072514627
 20
3.099747487828593
 30
0.0
 10
-0.8225095717632482
 20
2.94319547800358
 30
0.0
 10
-0.8221999267506133
 20
2.919700784334906
 30
0.0
 10
-0.8220217217306069
 20
2.906179260702038
 30
0.0
  0
SPLINE
  5
33D0F
330
32C81
100
AcDbEntity
  8
Kontur 18
 62
     7
100
AcDbSpline
210
0.0
220
0.0
230
1.0
 70
  1064
 71
     3
 72
    10
 73
     6
 74
     4
 42
0.000000001
 43
0.0000000001
 44
0.00001
 40
0.0
 40
0.0
 40
0.0
 40
0.0
 40
0.0325113304444672
 40
0.0696238837368762
 40
0.1179094544604568
 40
0.1179094544604568
 40
0.1179094544604568
 40
0.1179094544604568
 10
-0.8220217217306069
 20
2.6555971038143
 30
0.0
 10
-0.8227993827361926
 20
2.644770698294235
 30
0.0
 10
-0.8244647645799803
 20
2.621585661295985
 30
0.0
 10
-0.8207703067211653
 20
2.582338723426991
 30
0.0
 10
-0.8215697198012717
 20
2.553863678092537
 30
0.0
 10
-0.8220217217306069
 20
2.537763396836985
 30
0.0
 11
-0.8220217217306069
 21
2.6555971038143
 31
0.0
 11
-0.8235158925406267
 21
2.623120126417076
 31
0.0
 11
-0.8217767235353219
 21
2.586048346003224
 31
0.0
 11
-0.8220217217306069
 21
2.537763396836985
 31
0.0
  0
SPLINE
  5
33D10
330
32C81
100
AcDbEntity
  8
Kontur 18
 62
     7
100
AcDbSpline
210
0.0
220
0.0
230
1.0
 70
  1064
 71
     3
 72
    10
 73
     6
 74
     4
 42
0.000000001
 43
0.0000000001
 44
0.00001
 40
0.0
 40
0.0
 40
0.0
 40
0.0
 40
0.0366228934342717
 40
0.075788920260757
 40
0.1084240033290105
 40
0.1084240033290105
 40
0.1084240033290105
 40
0.1084240033290105
 10
-0.8220217217306069
 20
2.297997902243102
 30
0.0
 10
-0.8231156576487862
 20
2.285837804588279
 30
0.0
 10
-0.8253794935803206
 20
2.260673198924926
 30
0.0
 10
-0.8255456470410502
 20
2.224446447929065
 30
0.0
 10
-0.8231229069800612
 20
2.200625395836414
 30
0.0
 10
-0.8220217217301524
 20
2.189798237106465
 30
0.0
 11
-0.8220217217306069
 21
2.297997902243102
 31
0.0
 11
-0.8248020349132048
 21
2.261480698323516
 31
0.0
 11
-0.8248020349132048
 21
2.22231467149703
 31
0.0
 11
-0.8220217217301524
 21
2.189798237106465
 31
0.0
  0
SPLINE
  5
33D11
330
32C81
100
AcDbEntity
  8
Kontur 18
 62
     7
100
AcDbSpline
210
0.0
220
0.0
230
1.0
 70
     8
 71
     3
 72
     9
 73
     5
 74
     0
 42
0.000000001
 43
0.0000000001
 40
86.35622103178986
 40
86.35622103178986
 40
86.35622103178986
 40
86.35622103178986
 40
111.28676753447
 40
153.3913835628134
 40
153.3913835628134
 40
153.3913835628134
 40
153.3913835628134
 10
-0.8240889019934909
 20
1.940487073136779
 30
0.0
 10
-0.8234519396437463
 20
1.94877993591956
 30
0.0
 10
-0.8216123019244605
 20
1.971085181018159
 30
0.0
 10
-0.8218637732353498
 20
1.993439794257163
 30
0.0
 10
-0.8220217217296974
 20
2.007480670289303
 30
0.0
  0
SPLINE
  5
33D12
330
32C81
100
AcDbEntity
  8
dünne Linie
 62
     7
100
AcDbSpline
210
0.0
220
0.0
230
1.0
 70
  1064
 71
     3
 72
     9
 73
     5
 74
     3
 42
0.000000001
 43
0.0000000001
 44
0.00001
 40
0.0
 40
0.0
 40
0.0
 40
0.0
 40
0.0987090965693765
 40
0.1643982186071514
 40
0.1643982186071514
 40
0.1643982186071514
 40
0.1643982186071514
 10
-0.8859306254630608
 20
2.938122963542753
 30
0.0
 10
-0.8777798786527167
 20
2.905562223266486
 30
0.0
 10
-0.8642049569635414
 20
2.851332898067606
 30
0.0
 10
-0.8771604056605585
 20
2.797387324945105
 30
0.0
 10
-0.882337055734524
 20
2.775832119747234
 30
0.0
 11
-0.8859306254630608
 21
2.938122963542753
 31
0.0
 11
-0.8710429110458335
 21
2.840543038840109
 31
0.0
 11
-0.882337055734524
 21
2.775832119747234
 31
0.0
  0
SPLINE
  5
33D13
330
32C81
100
AcDbEntity
  8
dünne Linie
 62
     7
100
AcDbSpline
210
0.0
220
0.0
230
1.0
 70
  1064
 71
     3
 72
     9
 73
     5
 74
     3
 42
0.000000001
 43
0.0000000001
 44
0.00001
 40
0.0
 40
0.0
 40
0.0
 40
0.0
 40
0.0213161736642837
 40
0.0467470817549245
 40
0.0467470817549245
 40
0.0467470817549245
 40
0.0467470817549245
 10
-0.8838772026469996
 20
2.875980016832406
 30
0.0
 10
-0.8803900595452946
 20
2.869334399513718
 30
0.0
 10
-0.8727426380974351
 20
2.854760338474366
 30
0.0
 10
-0.8801118331193961
 20
2.839820411212589
 30
0.0
 10
-0.8841207533400845
 20
2.831692932387986
 30
0.0
 11
-0.8838772026469996
 21
2.875980016832406
 31
0.0
 11
-0.876538123308819
 21
2.855967091655066
 31
0.0
 11
-0.8841207533400845
 21
2.831692932387986
 31
0.0
  0
SPLINE
  5
33D14
330
32C81
100
AcDbEntity
  8
dünne Linie
 62
     7
100
AcDbSpline
210
0.0
220
0.0
230
1.0
 70
  1064
 71
     3
 72
     9
 73
     5
 74
     3
 42
0.000000001
 43
0.0000000001
 44
0.00001
 40
0.0
 40
0.0
 40
0.0
 40
0.0
 40
0.1124860733340464
 40
0.1633872252540049
 40
0.1633872252540049
 40
0.1633872252540049
 40
0.1633872252540049
 10
-0.8301487387093402
 20
2.121388648642394
 30
0.0
 10
-0.8401408560408953
 20
2.083897188671001
 30
0.0
 10
-0.8546545133926548
 20
2.02944044185883
 30
0.0
 10
-0.8372771112421226
 20
1.977039147629537
 30
0.0
 10
-0.8318634090052228
 20
1.960714210143016
 30
0.0
 11
-0.8301487387093402
 21
2.121388648642394
 31
0.0
 11
-0.8450093210046816
 21
2.009888515064196
 31
0.0
 11
-0.8318634090052228
 21
1.960714210143016
 31
0.0
  0
SPLINE
  5
33D15
330
32C81
100
AcDbEntity
  8
dünne Linie
 62
     7
100
AcDbSpline
210
0.0
220
0.0
230
1.0
 70
  1064
 71
     3
 72
     9
 73
     5
 74
     3
 42
0.000000001
 43
0.0000000001
 44
0.00001
 40
0.0
 40
0.0
 40
0.0
 40
0.0
 40
0.0238475660091524
 40
0.0343425480485374
 40
0.0343425480485374
 40
0.0343425480485374
 40
0.0343425480485374
 10
-0.8284340684140261
 20
2.056775766860396
 30
0.0
 10
-0.8350679211989401
 20
2.049096029885882
 30
0.0
 10
-0.8446212403060307
 20
2.038036547507422
 30
0.0
 10
-0.8345250091073809
 20
2.030278204103074
 30
0.0
 10
-0.8314396304410818
 20
2.027907277095301
 30
0.0
 11
-0.8284340684140261
 21
2.056775766860396
 31
0.0
 11
-0.8388607034092956
 21
2.035328350064048
 31
0.0
 11
-0.8314396304410818
 21
2.027907277095301
 31
0.0
  0
LINE
  5
33D16
330
32C81
100
AcDbEntity
  8
Kontur 18
 62
     7
100
AcDbLine
 10
0.5806133500319675
 20
2.893613568695434
 30
0.0
 11
0.5806133500309443
 21
2.789424113718034
 31
0.0
  0
LINE
  5
33D17
330
32C81
100
AcDbEntity
  8
Kontur 18
 62
     7
100
AcDbLine
 10
0.6106133500314856
 20
2.614406816601919
 30
0.0
 11
0.6106133500314856
 21
2.025765867687467
 31
0.0
  0
LINE
  5
33D18
330
32C81
100
AcDbEntity
  8
Kontur 18
 62
     7
100
AcDbLine
 10
0.6106133500314856
 20
2.025765867687467
 30
0.0
 11
0.5806133500309443
 21
1.989660574168603
 31
0.0
  0
LINE
  5
33D19
330
32C81
100
AcDbEntity
  8
Kontur 18
 62
     7
100
AcDbLine
 10
0.6106133500314856
 20
2.614406816601919
 30
0.0
 11
0.5806133500313992
 21
2.638861437142529
 31
0.0
  0
LINE
  5
33D1A
330
32C81
100
AcDbEntity
  8
Kontur 18
 62
     7
100
AcDbLine
 10
0.5806133500309443
 20
2.599546175741756
 30
0.0
 11
0.5806133500309443
 21
2.023610136145896
 31
0.0
  0
SPLINE
  5
33D1B
330
32C81
100
AcDbEntity
  8
Kontur 18
 62
     7
100
AcDbSpline
210
0.0
220
0.0
230
1.0
 70
    24
 71
     3
 72
     8
 73
     4
 74
     0
 42
0.000000001
 43
0.0000000001
 40
0.0
 40
0.0
 40
0.0
 40
0.0
 40
21.20978879124931
 40
21.20978879124931
 40
21.20978879124931
 40
21.20978879124931
 10
0.6438202176818777
 20
3.465496255541508
 30
0.0
 10
0.6367502908542521
 20
3.465499996199206
 30
0.0
 10
0.6296803640266262
 20
3.465503736856973
 30
0.0
 10
0.6226104372302645
 20
3.465507553285681
 30
0.0
  0
SPLINE
  5
33D1C
330
32C81
100
AcDbEntity
  8
Kontur 18
 62
     7
100
AcDbSpline
210
0.0
220
0.0
230
1.0
 70
     8
 71
     3
 72
    13
 73
     9
 74
     0
 42
0.000000001
 43
0.0000000001
 40
105.1833337343587
 40
105.1833337343587
 40
105.1833337343587
 40
105.1833337343587
 40
275.1952237330955
 40
446.2420246044751
 40
657.271682148495
 40
853.5490566735472
 40
1014.851036809509
 40
1406.948348191835
 40
1406.948348191835
 40
1406.948348191835
 40
1406.948348191835
 10
0.5386369289506093
 20
3.465561148753031
 30
0.0
 10
0.4819663272926391
 20
3.465606069973375
 30
0.0
 10
0.3682801737739965
 20
3.465744619741975
 30
0.0
 10
0.1842510177851864
 20
3.466380399539366
 30
0.0
 10
-0.0085351474419895
 20
3.463066129872686
 30
0.0
 10
-0.1980457579256836
 20
3.467818603973596
 30
0.0
 10
-0.4479450740946051
 20
3.466666056536247
 30
0.0
 10
-0.6324096970373603
 20
3.466097004057424
 30
0.0
 10
-0.7631068082707772
 20
3.465722286833211
 30
0.0
  0
SPLINE
  5
33D1D
330
32C81
100
AcDbEntity
  8
dünne Linie
 62
     7
100
AcDbSpline
210
0.0
220
0.0
230
1.0
 70
  1064
 71
     3
 72
     9
 73
     5
 74
     3
 42
0.000000001
 43
0.0000000001
 44
0.00001
 40
0.0
 40
0.0
 40
0.0
 40
0.0
 40
0.100695463369531
 40
0.1543668347128767
 40
0.1543668347128767
 40
0.1543668347128767
 40
0.1543668347128767
 10
0.3510459489091318
 20
3.456758280898611
 30
0.0
 10
0.3175512132157017
 20
3.448587252562939
 30
0.0
 10
0.266203554090636
 20
3.436061010184987
 30
0.0
 10
0.216282122250558
 20
3.451038383324211
 30
0.0
 10
0.198925079779201
 20
3.456245824138803
 30
0.0
 11
0.3510459489091318
 21
3.456758280898611
 31
0.0
 11
0.2511686186520592
 21
3.44394831431301
 31
0.0
 11
0.198925079779201
 21
3.456245824138803
 31
0.0
  0
SPLINE
  5
33D1E
330
32C81
100
AcDbEntity
  8
dünne Linie
 62
     7
100
AcDbSpline
210
0.0
220
0.0
230
1.0
 70
  1064
 71
     3
 72
     9
 73
     5
 74
     3
 42
0.000000001
 43
0.0000000001
 44
0.00001
 40
0.0
 40
0.0
 40
0.0
 40
0.0
 40
0.038811994567141
 40
0.0534096864760895
 40
0.0534096864760895
 40
0.0534096864760895
 40
0.0534096864760895
 10
0.3090462224110979
 20
3.456758280898611
 30
0.0
 10
0.2947668064552647
 20
3.449028529180097
 30
0.0
 10
0.2751167179254574
 20
3.438391518111014
 30
0.0
 10
0.2650303239028533
 20
3.454895756506309
 30
0.0
 10
0.2622735566920937
 20
3.459406619669571
 30
0.0
 11
0.3090462224110979
 21
3.456758280898611
 31
0.0
 11
0.2712582790163651
 21
3.447901517591609
 31
0.0
 11
0.2622735566920937
 21
3.459406619669571
 31
0.0
  0
SPLINE
  5
33D1F
330
32C81
100
AcDbEntity
  8
dünne Linie
 62
     7
100
AcDbSpline
210
0.0
220
0.0
230
1.0
 70
  1064
 71
     3
 72
     9
 73
     5
 74
     3
 42
0.000000001
 43
0.0000000001
 44
0.00001
 40
0.0
 40
0.0
 40
0.0
 40
0.0
 40
0.0677943498090981
 40
0.1409312056952354
 40
0.1409312056952354
 40
0.1409312056952354
 40
0.1409312056952354
 10
-0.2356624038828841
 20
3.410617686105133
 30
0.0
 10
-0.2575826373243042
 20
3.418284485660787
 30
0.0
 10
-0.303150519260179
 20
3.434222263783074
 30
0.0
 10
-0.3492966386505332
 20
3.419636042190014
 30
0.0
 10
-0.3732443659612272
 20
3.412066459702501
 30
0.0
 11
-0.2356624038828841
 21
3.410617686105133
 31
0.0
 11
-0.3015569112226331
 21
3.426554679814428
 31
0.0
 11
-0.3732443659612272
 21
3.412066459702501
 31
0.0
  0
SPLINE
  5
33D20
330
32C81
100
AcDbEntity
  8
dünne Linie
 62
     7
100
AcDbSpline
210
0.0
220
0.0
230
1.0
 70
  1064
 71
     3
 72
     9
 73
     5
 74
     3
 42
0.000000001
 43
0.0000000001
 44
0.00001
 40
0.0
 40
0.0
 40
0.0
 40
0.0
 40
0.0146586836127598
 40
0.0342024396034412
 40
0.0342024396034412
 40
0.0342024396034412
 40
0.0342024396034412
 10
-0.2864550924444984
 20
3.409730993091301
 30
0.0
 10
-0.2899161623015174
 20
3.413896314985656
 30
0.0
 10
-0.2979917191438075
 20
3.423615071067994
 30
0.0
 10
-0.3097075189395197
 20
3.417730232454667
 30
0.0
 10
-0.316402092048861
 20
3.414367552738339
 30
0.0
 11
-0.2864550924444984
 21
3.409730993091301
 31
0.0
 11
-0.2975069632459508
 21
3.419360798751178
 31
0.0
 11
-0.316402092048861
 21
3.414367552738339
 31
0.0
  0
SPLINE
  5
33D21
330
32C81
100
AcDbEntity
  8
Kontur 18
 62
     7
100
AcDbSpline
210
0.0
220
0.0
230
1.0
 70
  1064
 71
     3
 72
    10
 73
     6
 74
     4
 42
0.000000001
 43
0.0000000001
 44
0.00001
 40
0.0
 40
0.0
 40
0.0
 40
0.0
 40
0.0397587196702588
 40
0.0615225915481106
 40
0.0764300986819609
 40
0.0764300986819609
 40
0.0764300986819609
 40
0.0764300986819609
 10
-0.4960454663018937
 20
3.400621455377603
 30
0.0
 10
-0.509273772202133
 20
3.400019370308565
 30
0.0
 10
-0.5297432356940036
 20
3.399087704649136
 30
0.0
 10
-0.5552857542189031
 20
3.398287090831439
 30
0.0
 10
-0.5674138417214126
 20
3.399946769304958
 30
0.0
 10
-0.5723441049358371
 20
3.400621455377603
 30
0.0
 11
-0.4960454663018937
 21
3.400621455377603
 31
0.0
 11
-0.5357684087817916
 21
3.398935148597401
 31
0.0
 11
-0.5575322806596433
 21
3.398935148597401
 31
0.0
 11
-0.5723441049358371
 21
3.400621455377603
 31
0.0
  0
SPLINE
  5
33D22
330
32C81
100
AcDbEntity
  8
Kontur 18
 62
     7
100
AcDbSpline
210
0.0
220
0.0
230
1.0
 70
  1064
 71
     3
 72
    10
 73
     6
 74
     4
 42
0.000000001
 43
0.0000000001
 44
0.00001
 40
0.0
 40
0.0
 40
0.0
 40
0.0
 40
0.0220442605706197
 40
0.0446688591119895
 40
0.0805147488207777
 40
0.0805147488207777
 40
0.0805147488207777
 40
0.0805147488207777
 10
-0.2722374616353136
 20
3.400621455377141
 30
0.0
 10
-0.2795516908598526
 20
3.399855666706849
 30
0.0
 10
-0.2943727039619741
 20
3.398303929187088
 30
0.0
 10
-0.3212510123225718
 20
3.398670509428384
 30
0.0
 10
-0.3407003510611979
 20
3.399879978713243
 30
0.0
 10
-0.3526239534151045
 20
3.400621455377603
 30
0.0
 11
-0.2722374616353136
 21
3.400621455377141
 31
0.0
 11
-0.2942022708141394
 21
3.398751540447753
 31
0.0
 11
-0.3168268693555092
 21
3.398751540447753
 31
0.0
 11
-0.3526239534151045
 21
3.400621455377603
 31
0.0
  0
SPLINE
  5
33D23
330
32C81
100
AcDbEntity
  8
Kontur 18
 62
     7
100
AcDbSpline
210
0.0
220
0.0
230
1.0
 70
  1080
 71
     3
 72
     8
 73
     4
 74
     2
 42
0.000000001
 43
0.0000000001
 44
0.00001
 40
0.0
 40
0.0
 40
0.0
 40
0.0
 40
0.0810912087420092
 40
0.0810912087420092
 40
0.0810912087420092
 40
0.0810912087420092
 10
-0.0990319014758825
 20
3.400621455377141
 30
0.0
 10
-0.1260623043898856
 20
3.400621455377141
 30
0.0
 10
-0.1530927073038886
 20
3.400621455377141
 30
0.0
 10
-0.1801231102178917
 20
3.400621455377141
 30
0.0
 11
-0.0990319014758825
 21
3.400621455377141
 31
0.0
 11
-0.1801231102178917
 21
3.400621455377141
 31
0.0
  0
SPLINE
  5
33D24
330
32C81
100
AcDbEntity
  8
Kontur 18
 62
     7
100
AcDbSpline
210
0.0
220
0.0
230
1.0
 70
  1064
 71
     3
 72
    10
 73
     6
 74
     4
 42
0.000000001
 43
0.0000000001
 44
0.00001
 40
0.0
 40
0.0
 40
0.0
 40
0.0
 40
0.0350939412385128
 40
0.0546113838363174
 40
0.0708029849137964
 40
0.0708029849137964
 40
0.0708029849137964
 40
0.0708029849137964
 10
0.0672186584706651
 20
3.400621455377141
 30
0.0
 10
0.0789162121398331
 20
3.400117405456311
 30
0.0
 10
0.0971193426754198
 20
3.399333028930686
 30
0.0
 10
0.1206987613479186
 20
3.400729089835656
 30
0.0
 10
0.1326036196014141
 20
3.40065503442494
 30
0.0
 10
0.138001655949779
 20
3.400621455377603
 30
0.0
 11
0.0672186584706651
 21
3.400621455377141
 31
0.0
 11
0.1023047213395785
 21
3.399877880222334
 31
0.0
 11
0.1218101632814523
 21
3.400562204860783
 31
0.0
 11
0.138001655949779
 21
3.400621455377603
 31
0.0
  0
SPLINE
  5
33D25
330
32C81
100
AcDbEntity
  8
Kontur 18
 62
     7
100
AcDbSpline
210
0.0
220
0.0
230
1.0
 70
  1064
 71
     3
 72
     9
 73
     5
 74
     3
 42
0.000000001
 43
0.0000000001
 44
0.00001
 40
0.0
 40
0.0
 40
0.0
 40
0.0
 40
0.0292956532638246
 40
0.0896485017934841
 40
0.0896485017934841
 40
0.0896485017934841
 40
0.0896485017934841
 10
0.395601760679483
 20
3.400621455377603
 30
0.0
 10
0.3858544907585595
 20
3.399928043031958
 30
0.0
 10
0.3560265795282436
 20
3.39780611124391
 30
0.0
 10
0.326142677611809
 20
3.399488705320786
 30
0.0
 10
0.3060243424499731
 20
3.400621455377141
 30
0.0
 11
0.395601760679483
 21
3.400621455377603
 31
0.0
 11
0.3663539718129414
 21
3.39894749403622
 31
0.0
 11
0.3060243424499731
 21
3.400621455377141
 31
0.0
  0
SPLINE
  5
33D26
330
32C81
100
AcDbEntity
  8
Kontur 18
 62
     7
100
AcDbSpline
210
0.0
220
0.0
230
1.0
 70
     8
 71
     3
 72
    12
 73
     8
 74
     0
 42
0.000000001
 43
0.0000000001
 40
67.54843123887614
 40
67.54843123887614
 40
67.54843123887614
 40
67.54843123887614
 40
351.0260110869367
 40
505.2327208184631
 40
868.2415907858748
 40
1260.189109676598
 40
1672.737765156279
 40
1672.737765156279
 40
1672.737765156279
 40
1672.737765156279
 10
0.2841200767948066
 20
1.632299669301828
 30
0.0
 10
0.2880989249331378
 20
1.53761107663088
 30
0.0
 10
0.2906571485868881
 20
1.39157322060945
 30
0.0
 10
0.2427152629525153
 20
1.126756797200761
 30
0.0
 10
0.317977323916466
 20
0.8252884310118345
 30
0.0
 10
0.2914737078498319
 20
0.4355615712839624
 30
0.0
 10
0.2952391110553663
 20
0.167475528300038
 30
0.0
 10
0.2999999999997271
 20
0.0000000000002274
 30
0.0
  0
SPLINE
  5
33D27
330
32C81
100
AcDbEntity
  8
Kontur 18
 62
     7
100
AcDbSpline
210
0.0
220
0.0
230
1.0
 70
     8
 71
     3
 72
    14
 73
    10
 74
     0
 42
0.000000001
 43
0.0000000001
 40
0.0
 40
0.0
 40
0.0
 40
0.0
 40
153.7022404148488
 40
322.4582578159423
 40
503.2098407001401
 40
684.6050415067857
 40
1078.35318189387
 40
1385.402644097139
 40
1607.544050002676
 40
1607.544050002676
 40
1607.544050002676
 40
1607.544050002676
 10
-0.2999999999997271
 20
-0.0000000000002345
 30
0.0
 10
-0.3070438512822875
 20
0.0812076553215704
 30
0.0
 10
-0.3158843135887537
 20
0.188638303555777
 30
0.0
 10
-0.2874454447903645
 20
0.3558906214137067
 30
0.0
 10
-0.325886903537139
 20
0.5328569756976762
 30
0.0
 10
-0.2575378301499995
 20
0.7819439249837288
 30
0.0
 10
-0.3430585434686009
 20
1.075306287664679
 30
0.0
 10
-0.3119464339728211
 20
1.38298604310001
 30
0.0
 10
-0.3126071217933486
 20
1.559381431633368
 30
0.0
 10
-0.3136356763254753
 20
1.63342706718179
 30
0.0
  0
LINE
  5
33D28
330
32C81
100
AcDbEntity
  8
Strichlinien
 62
     7
100
AcDbLine
 10
-0.025151378954206
 20
3.684846197742671
 30
0.0
 11
-0.025151378954206
 21
3.693741385403257
 31
0.0
  0
LINE
  5
33D29
330
32C81
100
AcDbEntity
  8
Strichlinien
 62
     7
100
AcDbLine
 10
0.0948150853822654
 20
3.643647912067996
 30
0.0
 11
0.0930222275331971
 21
3.68484619774221
 31
0.0
  0
LINE
  5
33D2A
330
32C81
100
AcDbEntity
  8
Strichlinien
 62
     7
100
AcDbLine
 10
0.2460758998236088
 20
3.633855319795365
 30
0.0
 11
0.2458500113637001
 21
3.643675431139008
 31
0.0
  0
LINE
  5
33D2B
330
32C81
100
AcDbEntity
  8
Kontur 18
 62
     7
100
AcDbLine
 10
0.4856133500312582
 20
2.116549207656986
 30
0.0
 11
0.4856133500312582
 21
2.549149207656618
 31
0.0
  0
ARC
  5
33D2C
330
32C81
100
AcDbEntity
  8
Kontur 18
 62
     7
100
AcDbCircle
 10
0.4684633500309019
 20
2.565999207656708
 30
0.0
 40
0.01685
100
AcDbArc
 50
90.0
 51
270.0
  0
ARC
  5
33D2D
330
32C81
100
AcDbEntity
  8
Kontur 18
 62
     7
100
AcDbCircle
 10
0.4684633500309019
 20
2.099699207656897
 30
0.0
 40
0.01685
100
AcDbArc
 50
90.0
 51
270.0
  0
LINE
  5
33D2E
330
32C81
100
AcDbEntity
  8
Kontur 18
 62
     7
100
AcDbLine
 10
0.4856133500312582
 20
2.582849207656798
 30
0.0
 11
0.4856133500312582
 21
2.599849207656801
 31
0.0
  0
LINE
  5
33D2F
330
32C81
100
AcDbEntity
  8
Kontur 18
 62
     7
100
AcDbLine
 10
0.4886133500313008
 20
2.602849207656801
 30
0.0
 11
0.5326133500312836
 21
2.602849207656801
 31
0.0
  0
LINE
  5
33D30
330
32C81
100
AcDbEntity
  8
Kontur 18
 62
     7
100
AcDbLine
 10
0.4856133500312582
 20
2.599849207656801
 30
0.0
 11
0.4886133500313008
 21
2.602849207656801
 31
0.0
  0
LINE
  5
33D31
330
32C81
100
AcDbEntity
  8
Kontur 18
 62
     7
100
AcDbLine
 10
0.5166133500313208
 20
2.588849207656799
 30
0.0
 11
0.5166133500313208
 21
2.582849207656798
 31
0.0
  0
LINE
  5
33D32
330
32C81
100
AcDbEntity
  8
Kontur 18
 62
     7
100
AcDbLine
 10
0.5046133500312635
 20
2.582849207656798
 30
0.0
 11
0.5046133500312635
 21
2.588849207656799
 31
0.0
  0
LINE
  5
33D33
330
32C81
100
AcDbEntity
  8
Kontur 18
 62
     7
100
AcDbLine
 10
0.5046133500312635
 20
2.588849207656799
 30
0.0
 11
0.5166133500313208
 21
2.588849207656799
 31
0.0
  0
LINE
  5
33D34
330
32C81
100
AcDbEntity
  8
Kontur 18
 62
     7
100
AcDbLine
 10
0.4856133500312582
 20
2.082849207656798
 30
0.0
 11
0.4856133500312582
 21
2.065849207656802
 31
0.0
  0
LINE
  5
33D35
330
32C81
100
AcDbEntity
  8
Kontur 18
 62
     7
100
AcDbLine
 10
0.4856133500312582
 20
2.065849207656802
 30
0.0
 11
0.4886133500313008
 21
2.062849207656803
 31
0.0
  0
LINE
  5
33D36
330
32C81
100
AcDbEntity
  8
Kontur 18
 62
     7
100
AcDbLine
 10
0.5166133500313208
 20
2.076849207656799
 30
0.0
 11
0.5166133500313208
 21
2.082849207656798
 31
0.0
  0
LINE
  5
33D37
330
32C81
100
AcDbEntity
  8
Kontur 18
 62
     7
100
AcDbLine
 10
0.5046133500312635
 20
2.082849207656798
 30
0.0
 11
0.5046133500312635
 21
2.076849207656799
 31
0.0
  0
LINE
  5
33D38
330
32C81
100
AcDbEntity
  8
Kontur 18
 62
     7
100
AcDbLine
 10
0.5046133500312635
 20
2.076849207656799
 30
0.0
 11
0.5166133500313208
 21
2.076849207656799
 31
0.0
  0
LINE
  5
33D39
330
32C81
100
AcDbEntity
  8
Kontur 18
 62
     7
100
AcDbLine
 10
0.5356133500313263
 20
2.582849207656798
 30
0.0
 11
0.5356133500313263
 21
2.599849207656801
 31
0.0
  0
LINE
  5
33D3A
330
32C81
100
AcDbEntity
  8
Kontur 18
 62
     7
100
AcDbLine
 10
0.5356133500313263
 20
2.599849207656801
 30
0.0
 11
0.5326133500312836
 21
2.602849207656801
 31
0.0
  0
LINE
  5
33D3B
330
32C81
100
AcDbEntity
  8
Kontur 18
 62
     7
100
AcDbLine
 10
0.5356133500313263
 20
2.082849207656798
 30
0.0
 11
0.5356133500313263
 21
2.065849207656802
 31
0.0
  0
LINE
  5
33D3C
330
32C81
100
AcDbEntity
  8
Kontur 18
 62
     7
100
AcDbLine
 10
0.5356133500313263
 20
2.065849207656802
 30
0.0
 11
0.5326133500312836
 21
2.062849207656803
 31
0.0
  0
LINE
  5
33D3D
330
32C81
100
AcDbEntity
  8
Kontur 18
 62
     7
100
AcDbLine
 10
0.4886133500313008
 20
2.062849207656803
 30
0.0
 11
0.5326133500312836
 21
2.062849207656803
 31
0.0
  0
LINE
  5
33D3E
330
32C81
100
AcDbEntity
  8
Kontur 18
 62
     7
100
AcDbLine
 10
0.4684632295150096
 20
2.582849207657268
 30
0.0
 11
0.5506133500311991
 21
2.582849207657268
 31
0.0
  0
LINE
  5
33D3F
330
32C81
100
AcDbEntity
  8
Kontur 18
 62
     7
100
AcDbLine
 10
0.6106133500314856
 20
2.582849207657268
 30
0.0
 11
1.766017798214534
 21
2.582849207657268
 31
0.0
  0
LINE
  5
33D40
330
32C81
100
AcDbEntity
  8
Kontur 18
 62
     7
100
AcDbLine
 10
0.4684632295150096
 20
2.549149207657079
 30
0.0
 11
0.5506133500311991
 21
2.549149207657079
 31
0.0
  0
LINE
  5
33D41
330
32C81
100
AcDbEntity
  8
Kontur 18
 62
     7
100
AcDbLine
 10
0.6106133500314856
 20
2.549149207657079
 30
0.0
 11
1.766017798214534
 21
2.549149207657079
 31
0.0
  0
ARC
  5
33D42
330
32C81
100
AcDbEntity
  8
Kontur 18
 62
     7
100
AcDbCircle
 10
1.766017798214534
 20
2.565999207657178
 30
0.0
 40
0.0168500000000004
100
AcDbArc
 50
270.0
 51
90.0
  0
LINE
  5
33D43
330
32C81
100
AcDbEntity
  8
Kontur 18
 62
     7
100
AcDbLine
 10
0.4684633500313568
 20
2.082849207656336
 30
0.0
 11
0.5506133500309716
 21
2.082849207656393
 31
0.0
  0
LINE
  5
33D44
330
32C81
100
AcDbEntity
  8
Kontur 18
 62
     7
100
AcDbLine
 10
0.6106133500314856
 20
2.08284920765645
 30
0.0
 11
1.766017798214534
 21
2.082849207657268
 31
0.0
  0
ARC
  5
33D45
330
32C81
100
AcDbEntity
  8
Kontur 18
 62
     7
100
AcDbCircle
 10
1.766017798214534
 20
2.099699207657359
 30
0.0
 40
0.0168500000000004
100
AcDbArc
 50
270.0
 51
90.0
  0
LINE
  5
33D46
330
32C81
100
AcDbEntity
  8
Kontur 18
 62
     7
100
AcDbLine
 10
0.4684633500313568
 20
2.116549207657456
 30
0.0
 11
0.5506133500310853
 21
2.116549207657456
 31
0.0
  0
LINE
  5
33D47
330
32C81
100
AcDbEntity
  8
Kontur 18
 62
     7
100
AcDbLine
 10
0.6106133500314856
 20
2.116549207657456
 30
0.0
 11
1.766017798214534
 21
2.116549207657456
 31
0.0
  0
LINE
  5
33D48
330
32C81
100
AcDbEntity
  8
Kontur 18
 62
     7
100
AcDbLine
 10
1.61857474562646
 20
2.116549207657456
 30
0.0
 11
1.61857474562646
 21
2.549149207657079
 31
0.0
  0
LINE
  5
33D49
330
32C81
100
AcDbEntity
  8
Kontur 18
 62
     7
100
AcDbLine
 10
0.6438202176818777
 20
3.465496255541508
 30
0.0
 11
0.6430373014140969
 21
3.414156712693277
 31
0.0
  0
LINE
  5
33D4A
330
32C81
100
AcDbEntity
  8
Kontur 18
 62
     7
100
AcDbLine
 10
-0.8927661532109141
 20
3.465700309098401
 30
0.0
 11
-0.8400360867589141
 21
3.464463674817635
 31
0.0
  0
LINE
  5
33D4B
330
32C81
100
AcDbEntity
  8
Kontur 18
 62
     7
100
AcDbLine
 10
0.2186895423039914
 20
3.465906588200823
 30
0.0
 11
0.2186895423039914
 21
3.535881549255448
 31
0.0
  0
LINE
  5
33D4C
330
32C81
100
AcDbEntity
  8
Kontur 18
 62
     7
100
AcDbLine
 10
0.2186895423039914
 20
3.535881549255448
 30
0.0
 11
0.1686895423040369
 21
3.535881549255448
 31
0.0
  0
LINE
  5
33D4D
330
32C81
100
AcDbEntity
  8
Kontur 18
 62
     7
100
AcDbLine
 10
0.1686895423040369
 20
3.535881549255448
 30
0.0
 11
0.1686895423038095
 21
3.465601067708711
 31
0.0
  0
LINE
  5
33D4E
330
32C81
100
AcDbEntity
  8
Kontur 18
 62
     7
100
AcDbLine
 10
-0.3313104576959631
 20
3.535881549257054
 30
0.0
 11
-0.3313104576961905
 21
3.467203501261096
 31
0.0
  0
LINE
  5
33D4F
330
32C81
100
AcDbEntity
  8
Kontur 18
 62
     7
100
AcDbLine
 10
-0.3813104576959176
 20
3.535881549257196
 30
0.0
 11
-0.381310457696145
 21
3.467002187069296
 31
0.0
  0
LINE
  5
33D50
330
32C81
100
AcDbEntity
  8
Kontur 18
 62
     7
100
AcDbLine
 10
-0.3313104576959631
 20
3.535881549257054
 30
0.0
 11
-0.3813104576959176
 21
3.535881549257196
 31
0.0
  0
LINE
  5
33D51
330
32C81
100
AcDbEntity
  8
dünne Linie
 62
     7
100
AcDbLine
 10
0.1686895423039232
 20
3.488961212280663
 30
0.0
 11
-0.3313104576960768
 21
3.488961212282268
 31
0.0
  0
LINE
  5
33D52
330
32C81
100
AcDbEntity
  8
Kontur 18
 62
     7
100
AcDbLine
 10
-0.8880623652780741
 20
2.636880429350418
 30
0.0
 11
-1.048062021427767
 21
2.637212140091746
 31
0.0
  0
LINE
  5
33D53
330
32C81
100
AcDbEntity
  8
Kontur 18
 62
     7
100
AcDbLine
 10
-1.048062021427767
 20
2.637212140091746
 30
0.0
 11
-1.048144949113065
 21
2.597212226054337
 31
0.0
  0
LINE
  5
33D54
330
32C81
100
AcDbEntity
  8
Kontur 18
 62
     7
100
AcDbLine
 10
-1.048144949113065
 20
2.597212226054337
 30
0.0
 11
-0.8881452929634859
 21
2.59688051531303
 31
0.0
  0
ARC
  5
33D55
330
32C81
100
AcDbEntity
  8
Kontur 18
 62
     7
100
AcDbCircle
 10
-1.048103485270415
 20
2.617212183073042
 30
0.0
 40
0.1
100
AcDbArc
 50
11.41817378521788
 51
348.3442557262106
  0
ARC
  5
33D56
330
32C81
100
AcDbEntity
  8
Kontur 18
 62
     7
100
AcDbCircle
 10
-1.048103485270415
 20
2.617212183073042
 30
0.0
 40
0.09
100
AcDbArc
 50
12.72080316597751
 51
347.0416263467179
  0
LINE
  5
33D57
330
32C81
100
AcDbEntity
  8
Kontur 18
 62
     7
100
AcDbLine
 10
-0.6693661289780266
 20
3.240824083562073
 30
0.0
 11
-0.6862561734641304
 21
3.240824083562073
 31
0.0
  0
LINE
  5
33D58
330
32C81
100
AcDbEntity
  8
Kontur 18
 62
     7
100
AcDbLine
 10
-0.6862561734641304
 20
3.240824083562073
 30
0.0
 11
-0.8234310711929991
 21
3.240824083562073
 31
0.0
  0
LINE
  5
33D59
330
32C81
100
AcDbEntity
  8
Kontur 18
 62
     7
100
AcDbLine
 10
-0.8938696429086121
 20
3.240824083562073
 30
0.0
 11
-1.092964202958454
 21
3.240824083562073
 31
0.0
  0
LINE
  5
33D5A
330
32C81
100
AcDbEntity
  8
Kontur 18
 62
     7
100
AcDbLine
 10
-1.092964202958454
 20
3.240824083562073
 30
0.0
 11
-1.092964202958454
 21
3.040824083562077
 31
0.0
  0
LINE
  5
33D5B
330
32C81
100
AcDbEntity
  8
Kontur 18
 62
     7
100
AcDbLine
 10
-1.092964202958454
 20
3.040824083562077
 30
0.0
 11
-0.8940903423631425
 21
3.040824083562077
 31
0.0
  0
LINE
  5
33D5C
330
32C81
100
AcDbEntity
  8
Kontur 18
 62
     7
100
AcDbLine
 10
-0.8196611860421397
 20
3.040824083562077
 30
0.0
 11
-0.6824569537312755
 21
3.040824083562077
 31
0.0
  0
LINE
  5
33D5D
330
32C81
100
AcDbEntity
  8
Kontur 18
 62
     7
100
AcDbLine
 10
-0.6824569537312755
 20
3.040824083562077
 30
0.0
 11
-0.6693661289780266
 21
3.040824083562077
 31
0.0
  0
LINE
  5
33D5E
330
32C81
100
AcDbEntity
  8
Kontur 18
 62
     7
100
AcDbLine
 10
-0.6693661289780266
 20
3.040824083562077
 30
0.0
 11
-0.6693661289780266
 21
3.240824083562073
 31
0.0
  0
LINE
  5
33D5F
330
32C81
100
AcDbEntity
  8
Kontur 18
 62
     7
100
AcDbLine
 10
-0.6393661289780539
 20
3.070824083562078
 30
0.0
 11
-0.6393661289780539
 21
3.21082408356208
 31
0.0
  0
LINE
  5
33D60
330
32C81
100
AcDbEntity
  8
Kontur 18
 62
     7
100
AcDbLine
 10
-0.4693661289779813
 20
3.040824083562077
 30
0.0
 11
-0.4693661289779813
 21
3.240824083562073
 31
0.0
  0
LINE
  5
33D61
330
32C81
100
AcDbEntity
  8
Kontur 18
 62
     7
100
AcDbLine
 10
-0.4993661289780677
 20
3.070824083562078
 30
0.0
 11
-0.4993661289780677
 21
3.21082408356208
 31
0.0
  0
LINE
  5
33D62
330
32C81
100
AcDbEntity
  8
Kontur 18
 62
     7
100
AcDbLine
 10
-0.4693661289779813
 20
3.040824083562077
 30
0.0
 11
-0.6693661289780266
 21
3.040824083562077
 31
0.0
  0
LINE
  5
33D63
330
32C81
100
AcDbEntity
  8
Kontur 18
 62
     7
100
AcDbLine
 10
-0.4993661289780677
 20
3.070824083562078
 30
0.0
 11
-0.6393661289780539
 21
3.070824083562078
 31
0.0
  0
LINE
  5
33D64
330
32C81
100
AcDbEntity
  8
Kontur 18
 62
     7
100
AcDbLine
 10
-0.4693661289779813
 20
3.240824083562073
 30
0.0
 11
-0.6693661289780266
 21
3.240824083562073
 31
0.0
  0
LINE
  5
33D65
330
32C81
100
AcDbEntity
  8
Kontur 18
 62
     7
100
AcDbLine
 10
-0.4993661289780677
 20
3.21082408356208
 30
0.0
 11
-0.6393661289780539
 21
3.21082408356208
 31
0.0
  0
LINE
  5
33D66
330
32C81
100
AcDbEntity
  8
Umlaufraum
 62
     7
100
AcDbLine
 10
0.300000000000864
 20
-1.499999999999771
 30
0.0
 11
-0.2999999999985903
 21
-1.500000000000234
 31
0.0
  0
LINE
  5
33D67
330
32C81
100
AcDbEntity
  8
Sicherheitsbereich
 62
     7
100
AcDbLine
 10
0.5806133500309443
 20
1.082849207656515
 30
0.0
 11
2.782867798214623
 21
1.082849207657267
 31
0.0
  0
ARC
  5
33D68
330
32C81
100
AcDbEntity
  8
Sicherheitsbereich
 62
     7
100
AcDbCircle
 10
2.782867798214623
 20
2.082849207657268
 30
0.0
 40
1.0
100
AcDbArc
 50
270.0
 51
0.0
  0
LINE
  5
33D69
330
32C81
100
AcDbEntity
  8
Sicherheitsbereich
 62
     7
100
AcDbLine
 10
3.782867798214623
 20
2.582849207657268
 30
0.0
 11
3.782867798214623
 21
2.082849207657268
 31
0.0
  0
LINE
  5
33D6A
330
32C81
100
AcDbEntity
  8
Sicherheitsbereich
 62
     7
100
AcDbLine
 10
0.5806133500309443
 20
3.582849207659946
 30
0.0
 11
2.782867798214623
 21
3.582849207657268
 31
0.0
  0
ARC
  5
33D6B
330
32C81
100
AcDbEntity
  8
Sicherheitsbereich
 62
     7
100
AcDbCircle
 10
2.782867798214623
 20
2.582849207657268
 30
0.0
 40
1.0
100
AcDbArc
 50
0.0
 51
90.0
  0
DIMENSION
  5
33D6C
330
32C81
100
AcDbEntity
  8
Bemaßung
 62
     7
100
AcDbDimension
280
     0
  2
*D2
 10
3.782744787156501
 20
2.419179406005248
 30
0.0
 11
2.782744787156501
 21
2.419179406005248
 31
0.0
 12
538.3478823480294
 22
-49.45124855766493
 32
0.0
 70
   128
  1
min. 2,00m
 71
     5
 42
2.0
 73
     0
 74
     0
 75
     0
  3
100
100
AcDbAlignedDimension
 13
1.782744787156502
 23
2.56803153168031
 33
0.0
 14
3.782744787156501
 24
2.56803153168031
 34
0.0
100
AcDbRotatedDimension
1001
ACAD
1000
DSTYLE
1002
{
1070
    40
1040
0.001
1002
}
  0
LINE
  5
33D6D
330
32C81
100
AcDbEntity
  8
Sicherheitsbereich
 62
     7
100
AcDbLine
 10
0.5806133500309443
 20
1.780764238739378
 30
0.0
 11
0.5806133500309443
 21
1.082849207656515
 31
0.0
  0
ARC
  5
33D6E
330
32C81
100
AcDbEntity
  8
Umlaufraum
 62
     7
100
AcDbCircle
 10
-0.9477314812401116
 20
3.64374138540559
 30
0.0
 40
1.5
100
AcDbArc
 50
92.77576611483985
 51
162.5778373886668
  0
ARC
  5
33D6F
330
32C81
100
AcDbEntity
  8
Umlaufraum
 62
     7
100
AcDbCircle
 10
0.7858119925740539
 20
3.643675658889747
 30
0.0
 40
1.5
100
AcDbArc
 50
357.6759634769842
 51
90.0
  0
ARC
  5
33D70
330
32C81
100
AcDbEntity
  8
Umlaufraum
 62
     7
100
AcDbCircle
 10
-0.1057409968981346
 20
3.69374138540116
 30
0.0
 40
1.5
100
AcDbArc
 50
86.01381486537922
 51
93.49176423331277
  0
ARC
  5
33D71
330
32C81
100
AcDbEntity
  8
Umlaufraum
 62
     7
100
AcDbCircle
 10
-0.9499388780807294
 20
1.663579563974571
 30
0.0
 40
1.5
100
AcDbArc
 50
185.510257222898
 51
235.3106696554301
  0
ARC
  5
33D72
330
32C81
100
AcDbEntity
  8
Umlaufraum
 62
     7
100
AcDbCircle
 10
-1.092964202958454
 20
3.040824083562077
 30
0.0
 40
1.5
100
AcDbArc
 50
176.1774462705216
 51
192.168194898427
  0
ARC
  5
33D73
330
32C81
100
AcDbEntity
  8
Umlaufraum
 62
     7
100
AcDbCircle
 10
-1.092964202958454
 20
3.240824083562073
 30
0.0
 40
1.5
100
AcDbArc
 50
159.9703981269663
 51
183.8225537294784
  0
ARC
  5
33D74
330
32C81
100
AcDbEntity
  8
Umlaufraum
 62
     7
100
AcDbCircle
 10
-0.2999999999997271
 20
-0.0000000000002345
 30
0.0
 40
1.5
100
AcDbArc
 50
180.4763379657043
 51
270.0
  0
ARC
  5
33D75
330
32C81
100
AcDbEntity
  8
Umlaufraum
 62
     7
100
AcDbCircle
 10
0.2999999999997271
 20
0.0000000000002274
 30
0.0
 40
1.5
100
AcDbArc
 50
270.0
 51
0.0113174171588551
  0
ARC
  5
33D76
330
32C81
100
AcDbEntity
  8
Umlaufraum
 62
     7
100
AcDbCircle
 10
0.7880193894138757
 20
1.663513837458736
 30
0.0
 40
1.5
100
AcDbArc
 50
312.4215833017391
 51
337.2252210773549
  0
LINE
  5
33D77
330
32C81
100
AcDbEntity
  8
Umlaufraum
 62
     7
100
AcDbLine
 10
-1.020372445221027
 20
5.141981449731702
 30
0.0
 11
-0.1970985955301785
 21
5.190956730357314
 31
0.0
  0
LINE
  5
33D78
330
32C81
100
AcDbEntity
  8
Umlaufraum
 62
     7
100
AcDbLine
 10
-0.0014670806704089
 20
5.190112646283473
 30
0.0
 11
0.7858119925740539
 21
5.143675658889748
 31
0.0
  0
LINE
  5
33D79
330
32C81
100
AcDbEntity
  8
Umlaufraum
 62
     7
100
AcDbLine
 10
-2.378918358740746
 20
4.092856205546198
 30
0.0
 11
-2.50223788889275
 21
3.754582468537825
 31
0.0
  0
LINE
  5
33D7A
330
32C81
100
AcDbEntity
  8
Umlaufraum
 62
     7
100
AcDbLine
 10
-2.559263779269712
 20
2.724650788501286
 30
0.0
 11
-2.443007413913732
 21
1.519543640310955
 31
0.0
  0
LINE
  5
33D7B
330
32C81
100
AcDbEntity
  8
Umlaufraum
 62
     7
100
AcDbLine
 10
-1.799948162518376
 20
-0.0124703551208967
 30
0.0
 11
-1.803628498189254
 21
0.4302045064518937
 31
0.0
  0
LINE
  5
33D7C
330
32C81
100
AcDbEntity
  8
Umlaufraum
 62
     7
100
AcDbLine
 10
1.799999970737303
 20
0.0002962892903469
 30
0.0
 11
1.799890162836844
 21
0.5562119193297406
 31
0.0
  0
LINE
  5
33D7D
330
32C81
100
AcDbEntity
  8
Sicherheitsbereich
 62
     7
100
AcDbLine
 10
0.5806133500309443
 20
3.582851279846046
 30
0.0
 11
0.5806133500309443
 21
3.494344488391355
 31
0.0
  0
ENDBLK
  5
32DCA
330
32C81
100
AcDbEntity
  8
0
100
AcDbBlockEnd
  0
BLOCK
  5
339A9
330
339A6
100
AcDbEntity
  8
0
100
AcDbBlockBegin
  2
Eigentum
 70
     0
 10
0.0
 20
0.0
 30
0.0
  3
Eigentum
  1

  0
MTEXT
  5
339AA
330
339A6
100
AcDbEntity
  8
Text
100
AcDbMText
 10
0.1881376586563874
 20
0.0
 30
0.0
 40
1.9
 41
62.72914090897022
 46
0.0
 71
     4
 72
     5
  3
{\fTahoma|b0|i0|c0|p34;\LDiese Zeichnung ist Eigentum der Firma:\P\lESF Emsland Spiel- und Freizeitgeräte GmbH & Co. KG\PThyssenstraße 7, 49744 Geeste\PTel: 05937/ 97189-0 ; Fax: 05937/ 97189-90\PAlle Rechte sind bei den Autoren.\PDiese Unterlage dar
  1
f nicht ohne Zustimmung der o. g. Firma in den Ausschreibungen verwendet werden.\PDer nicht autorisierte Nachbau ist kostenpflichtig.}
  7
2.5
 73
     1
 44
1.0
  0
ENDBLK
  5
339AB
330
339A6
100
AcDbEntity
  8
0
100
AcDbBlockEnd
  0
BLOCK
  5
33B24
330
33B23
100
AcDbEntity
  8
0
100
AcDbBlockBegin
  2
*D2
 70
     1
 10
0.0
 20
0.0
 30
0.0
  3
*D2
  1

  0
LINE
  5
33C54
330
33B23
100
AcDbEntity
  8
Bemaßung
 62
     0
440
 16777216
370
    -2
100
AcDbLine
 10
-536.565137560873
 20
51.98928008934524
 30
0.0
 11
-536.565137560873
 21
51.85042796367017
 31
0.0
  0
LINE
  5
33C55
330
33B23
100
AcDbEntity
  8
Bemaßung
 62
     0
440
 16777216
370
    -2
100
AcDbLine
 10
-534.565137560873
 20
51.98928008934524
 30
0.0
 11
-534.565137560873
 21
51.85042796367017
 31
0.0
  0
LINE
  5
33C56
330
33B23
100
AcDbEntity
  8
Bemaßung
 62
     0
440
 16777216
370
    -2
100
AcDbLine
 10
-536.465137560873
 20
51.87042796367019
 30
0.0
 11
-534.665137560873
 21
51.87042796367019
 31
0.0
  0
SOLID
  5
33C57
330
33B23
100
AcDbEntity
  8
Bemaßung
 62
     0
440
 16777216
100
AcDbTrace
 10
-536.465137560873
 20
51.88709463033685
 30
0.0
 11
-536.465137560873
 21
51.85376129700353
 31
0.0
 12
-536.565137560873
 22
51.87042796367019
 32
0.0
 13
-536.565137560873
 23
51.87042796367019
 33
0.0
  0
SOLID
  5
33C58
330
33B23
100
AcDbEntity
  8
Bemaßung
 62
     0
440
 16777216
100
AcDbTrace
 10
-534.665137560873
 20
51.88709463033685
 30
0.0
 11
-534.665137560873
 21
51.85376129700353
 31
0.0
 12
-534.565137560873
 22
51.87042796367019
 32
0.0
 13
-534.565137560873
 23
51.87042796367019
 33
0.0
  0
MTEXT
  5
33C59
330
33B23
100
AcDbEntity
  8
Bemaßung
 62
     0
440
 16777216
100
AcDbMText
 10
-535.565137560873
 20
51.95389337669906
 30
0.0
 40
0.1
 41
0.0
 46
0.0
 71
     5
 72
     1
  1
min. 2,00m
 73
     1
 44
1.0
  0
POINT
  5
33C5A
330
33B23
100
AcDbEntity
  8
Defpoints
 62
     0
440
 16777216
100
AcDbPoint
 10
-536.565137560873
 20
52.01928008934524
 30
0.0
  0
POINT
  5
33C5B
330
33B23
100
AcDbEntity
  8
Defpoints
 62
     0
440
 16777216
100
AcDbPoint
 10
-534.565137560873
 20
52.01928008934524
 30
0.0
  0
POINT
  5
33C5C
330
33B23
100
AcDbEntity
  8
Defpoints
 62
     0
440
 16777216
100
AcDbPoint
 10
-534.565137560873
 20
51.87042796367019
 30
0.0
  0
ENDBLK
  5
33B25
330
33B23
100
AcDbEntity
  8
0
100
AcDbBlockEnd
  0
ENDSEC
  0
SECTION
  2
ENTITIES
  0
INSERT
  5
339B8
330
23
100
AcDbEntity
  8
Kontur 18
100
AcDbBlockReference
  2
Eigentum
 10
-541.2148678745416
 20
42.34856252051121
 30
0.0
 41
0.16
 42
0.16
 43
0.16
  0
INSERT
  5
33D7E
330
23
100
AcDbEntity
  8
ESF_Spielgeraet
100
AcDbBlockReference
  2
Spielhäuschen Hummel
 10
-538.3478823480294
 20
49.45124855766493
 30
0.0
  0
VIEWPORT
  5
31D0B
102
{ACAD_XDICTIONARY
360
31D0C
102
}
330
31D04
100
AcDbEntity
 67
     1
  8
0
348
1D98
100
AcDbViewport
 10
143.5205841064453
 20
108.9904646758661
 30
0.0
 40
426.2605369276529
 41
240.1313378447743
 68
     1
 69
     1
 12
143.5205841064453
 22
108.9904646758661
 13
0.0
 23
0.0
 14
10.0
 24
10.0
 15
10.0
 25
10.0
 16
0.0
 26
0.0
 36
1.0
 17
0.0
 27
0.0
 37
0.0
 42
50.0
 43
0.0
 44
0.0
 45
240.1313378447743
 50
0.0
 51
0.0
 72
  1000
 90
   557088
  1

281
     0
 71
     1
 74
     0
110
0.0
120
0.0
130
0.0
111
1.0
121
0.0
131
0.0
112
0.0
122
1.0
132
0.0
 79
     0
146
0.0
170
     0
 61
     5
348
1D98
292
     1
282
     1
141
0.0
142
0.0
 63
   250
421
  3355443
  0
VIEWPORT
  5
31D0F
102
{ACAD_XDICTIONARY
360
31D10
102
}
330
31D04
100
AcDbEntity
 67
     1
  8
Kontur 18
348
1D98
100
AcDbViewport
 10
143.4359130859375
 20
99.95959043502807
 30
0.0
 40
229.4974609375
 41
159.9353446960449
 68
     2
 69
     2
 12
4780.767633478574
 22
2482.764249952723
 13
0.0
 23
0.0
 14
10.0
 24
10.0
 15
10.0
 25
10.0
 16
0.0
 26
0.0
 36
1.0
 17
0.0
 27
0.0
 37
0.0
 42
50.0
 43
0.0
 44
0.0
 45
35.98518400902322
 50
0.0
 51
0.0
 72
  1000
 90
   819296
  1

281
     0
 71
     1
 74
     0
110
0.0
120
0.0
130
0.0
111
1.0
121
0.0
131
0.0
112
0.0
122
1.0
132
0.0
 79
     0
146
0.0
170
     0
 61
     5
348
1D98
292
     1
282
     1
141
0.0
142
0.0
 63
   250
421
  3355443
  0
ENDSEC
  0
SECTION
  2
OBJECTS
  0
DICTIONARY
  5
C
330
0
100
AcDbDictionary
281
     1
  3
ACAD_BACKGROUND
350
A3CD
  3
ACAD_CIP_PREVIOUS_PRODUCT_INFO
350
31BFC
  3
ACAD_COLOR
350
1C
  3
ACAD_DETAILVIEWSTYLE
350
31BF3
  3
ACAD_GROUP
350
D
  3
ACAD_IMAGE_DICT
350
6518
  3
ACAD_IMAGE_VARS
350
651A
  3
ACAD_LAYOUT
350
1A
  3
ACAD_MATERIAL
350
1B
  3
ACAD_MLEADERSTYLE
350
252D
  3
ACAD_MLINESTYLE
350
17
  3
ACAD_PDFDEFINITIONS
350
22688
  3
ACAD_PLOTSETTINGS
350
19
  3
ACAD_PLOTSTYLENAME
350
E
  3
ACAD_SCALELIST
350
250B
  3
ACAD_SECTIONVIEWSTYLE
350
31BF1
  3
ACAD_TABLESTYLE
350
1D
  3
ACAD_VISUALSTYLE
350
1D92
  3
ACAD_WIPEOUT_VARS
350
10CEB
  3
AcadDim
350
1AFF
  3
ACDB_RECOMPOSE_DATA
350
33DB6
  3
AcDbVariableDictionary
350
4C
  3
AcDsDecomposeData
350
33DBC
  3
AEC_PROPERTY_SET_DEFS
350
5E76
  0
DICTIONARY
  5
592E
330
8
100
AcDbDictionary
280
     1
281
     1
  0
DICTIONARY
  5
48
330
2
100
AcDbDictionary
280
     1
281
     1
  3
ACAD_LAYERFILTERS
360
5B6B
  3
ACAD_LAYERSTATES
360
67
  3
ACLYDICTIONARY
360
5B6A
  0
DICTIONARY
  5
253B
330
10
100
AcDbDictionary
280
     1
281
     1
  3
ADSK_XREC_LAYER_RECONCILED
360
253C
  0
DICTIONARY
  5
2549
330
3F
100
AcDbDictionary
280
     1
281
     1
  3
ADSK_XREC_LAYER_RECONCILED
360
254A
  0
DICTIONARY
  5
32A89
330
32A88
100
AcDbDictionary
280
     1
281
     1
  0
DICTIONARY
  5
32AF4
330
32AF3
100
AcDbDictionary
280
     1
281
     1
  0
DICTIONARY
  5
32AF6
330
32AF5
100
AcDbDictionary
280
     1
281
     1
  0
DICTIONARY
  5
1FDD
330
23
100
AcDbDictionary
280
     1
281
     1
  3
ACAD_SORTENTS
360
1FDE
  0
DICTIONARY
  5
339A7
330
339A6
100
AcDbDictionary
280
     1
281
     1
  3
ACAD_SORTENTS
360
339A8
  0
DICTIONARY
  5
31D0C
330
31D0B
100
AcDbDictionary
280
     1
281
     1
  3
ASDK_XREC_ANNOTATION_SCALE_INFO
360
31D0D
  0
DICTIONARY
  5
31D10
330
31D0F
100
AcDbDictionary
280
     1
281
     1
  3
ASDK_XREC_ANNOTATION_SCALE_INFO
360
31D11
  0
DICTIONARY
  5
A3CD
102
{ACAD_REACTORS
330
C
102
}
330
C
100
AcDbDictionary
281
     1
  0
XRECORD
  5
31BFC
102
{ACAD_REACTORS
330
C
102
}
330
C
100
AcDbXrecord
280
     1
300
ACDLT
300
2020
300

  0
DICTIONARY
  5
1C
102
{ACAD_REACTORS
330
C
102
}
330
C
100
AcDbDictionary
281
     1
  0
DICTIONARY
  5
31BF3
102
{ACAD_REACTORS
330
C
102
}
330
C
100
AcDbDictionary
281
     1
  3
Metric50
350
31BF4
  0
DICTIONARY
  5
D
102
{ACAD_REACTORS
330
C
102
}
330
C
100
AcDbDictionary
281
     1
  0
DICTIONARY
  5
6518
102
{ACAD_REACTORS
330
C
102
}
330
C
100
AcDbDictionary
281
     1
  0
RASTERVARIABLES
  5
651A
102
{ACAD_REACTORS
330
C
102
}
330
C
100
AcDbRasterVariables
 90
        0
 70
     3
 71
     1
 72
     1
  0
DICTIONARY
  5
1A
102
{ACAD_REACTORS
330
C
102
}
330
C
100
AcDbDictionary
281
     1
  3
Layout1
350
31D05
  3
Model
350
26
  0
DICTIONARY
  5
1B
102
{ACAD_REACTORS
330
C
102
}
330
C
100
AcDbDictionary
281
     1
  3
ByBlock
350
1D90
  3
ByLayer
350
1D8F
  3
Global
350
1D91
  0
DICTIONARY
  5
252D
102
{ACAD_REACTORS
330
C
102
}
330
C
100
AcDbDictionary
281
     1
  3
Standard
350
252E
  0
DICTIONARY
  5
17
102
{ACAD_REACTORS
330
C
102
}
330
C
100
AcDbDictionary
281
     1
  3
Standard
350
18
  0
DICTIONARY
  5
22688
102
{ACAD_REACTORS
330
C
102
}
330
C
100
AcDbDictionary
281
     1
  0
DICTIONARY
  5
19
102
{ACAD_REACTORS
330
C
102
}
330
C
100
AcDbDictionary
281
     1
  0
ACDBDICTIONARYWDFLT
  5
E
102
{ACAD_REACTORS
330
C
102
}
330
C
100
AcDbDictionary
281
     1
  3
Normal
350
F
100
AcDbDictionaryWithDefault
340
F
  0
DICTIONARY
  5
250B
102
{ACAD_REACTORS
330
C
102
}
330
C
100
AcDbDictionary
281
     1
  3
A0
350
11BC9
  3
A1
350
11BCA
  3
A2
350
11BCB
  3
A3
350
11BCC
  3
A4
350
11BCD
  3
A5
350
250C
  3
A6
350
11BCE
  3
A7
350
11BCF
  3
A8
350
11BD0
  3
A9
350
11BD1
  3
B0
350
11BD2
  3
B1
350
11BD3
  3
B2
350
11BD4
  3
B3
350
11BD5
  3
B4
350
11BD6
  3
B5
350
11BD7
  3
B6
350
11BD8
  3
B7
350
D405
  3
B8
350
11BD9
  3
B9
350
11BDA
  3
C0
350
11BDB
  3
C1
350
11BDC
  3
C2
350
11BDD
  0
DICTIONARY
  5
31BF1
102
{ACAD_REACTORS
330
C
102
}
330
C
100
AcDbDictionary
281
     1
  3
Metric50
350
31BF2
  0
DICTIONARY
  5
1D
102
{ACAD_REACTORS
330
C
102
}
330
C
100
AcDbDictionary
281
     1
  3
Standard
350
1E
  0
DICTIONARY
  5
1D92
102
{ACAD_REACTORS
330
C
102
}
330
C
100
AcDbDictionary
281
     1
  3
2dWireframe
350
1D98
  3
3D Hidden
350
1D9A
  3
3dWireframe
350
1D99
  3
Basic
350
1D97
  3
Brighten
350
1D9E
  3
ColorChange
350
1DA2
  3
Conceptual
350
1D9B
  3
Dim
350
1D9D
  3
EdgeColorOff
350
58CB
  3
Facepattern
350
1DA1
  3
Flat
350
1D93
  3
FlatWithEdges
350
1D94
  3
Gouraud
350
1D95
  3
GouraudWithEdges
350
1D96
  3
Hidden
350
A3B8
  3
JitterOff
350
58C9
  3
Linepattern
350
1DA0
  3
OverhangOff
350
58CA
  3
Realistic
350
1D9C
  3
Shaded
350
A3BD
  3
Shaded with edges
350
A3BC
  3
Shades of Gray
350
A3B9
  3
Sketchy
350
A3BA
  3
Thicken
350
1D9F
  3
Wireframe
350
A3B7
  3
X-Ray
350
A3BB
  0
WIPEOUTVARIABLES
  5
10CEB
102
{ACAD_REACTORS
330
C
102
}
330
C
100
AcDbWipeoutVariables
 70
     1
  0
XRECORD
  5
1AFF
102
{ACAD_REACTORS
330
C
102
}
330
C
100
AcDbXrecord
280
     1
 90
   990106
  3

 60
     0
 61
     0
 62
     1
 63
     3
 64
     0
 65
     0
 66
     0
 67
     3
 68
     1
 69
     0
 70
     0
 71
     0
 72
     0
 40
0.0
170
     0
  0
XRECORD
  5
33DB6
102
{ACAD_REACTORS
330
C
102
}
330
C
100
AcDbXrecord
280
     1
 90
        1
330
1E
  0
DICTIONARY
  5
4C
102
{ACAD_REACTORS
330
C
102
}
330
C
100
AcDbDictionary
281
     1
  3
CANNOSCALE
350
2569
  3
CMLEADERSTYLE
350
2567
  3
CTABLESTYLE
350
4D
  3
CVIEWDETAILSTYLE
350
31C1B
  3
CVIEWSECTIONSTYLE
350
31C1C
  3
DIMASSOC
350
83
  3
HIDETEXT
350
82
  3
INDEXCTL
350
597E
  3
LAYEREVAL
350
A45A
  3
LAYERNOTIFY
350
A45B
  3
LIGHTINGUNITS
350
256A
  3
MLEADERSCALE
350
597C
  3
MSLTSCALE
350
2568
  3
PROJECTNAME
350
84
  3
SOLIDHIST
350
32E01
  3
SORTENTS
350
597D
  0
DICTIONARY
  5
33DBC
102
{ACAD_REACTORS
330
C
102
}
330
C
100
AcDbDictionary
281
     1
  3
AcDsRecords
350
33DBE
  3
AcDsSchemas
350
33DBD
1001
ACAD
1070
     2
  0
DICTIONARY
  5
5E76
102
{ACAD_REACTORS
330
C
102
}
330
C
100
AcDbDictionary
281
     1
  0
DICTIONARY
  5
5B6B
102
{ACAD_REACTORS
330
48
102
}
330
48
100
AcDbDictionary
281
     1
  0
DICTIONARY
  5
67
102
{ACAD_REACTORS
330
48
102
}
330
48
100
AcDbDictionary
281
     1
  0
DICTIONARY
  5
5B6A
102
{ACAD_REACTORS
330
48
102
}
330
48
100
AcDbDictionary
281
     1
1001
ACAD
1000
<All
  0
XRECORD
  5
253C
102
{ACAD_REACTORS
330
253B
102
}
330
253B
100
AcDbXrecord
280
     1
290
     1
  0
XRECORD
  5
254A
102
{ACAD_REACTORS
330
2549
102
}
330
2549
100
AcDbXrecord
280
     1
290
     1
  0
SORTENTSTABLE
  5
1FDE
102
{ACAD_REACTORS
330
1FDD
102
}
330
1FDD
100
AcDbSortentsTable
330
23
331
339B8
  5
33B0A
  0
SORTENTSTABLE
  5
339A8
102
{ACAD_REACTORS
330
339A7
102
}
330
339A7
100
AcDbSortentsTable
330
339A6
  0
XRECORD
  5
31D0D
102
{ACAD_REACTORS
330
31D0C
102
}
330
31D0C
100
AcDbXrecord
280
     1
 90
        1
340
250C
  0
XRECORD
  5
31D11
102
{ACAD_REACTORS
330
31D10
102
}
330
31D10
100
AcDbXrecord
280
     1
 90
        1
340
250C
  0
ACDBDETAILVIEWSTYLE
  5
31BF4
102
{ACAD_XDICTIONARY
360
33DC1
102
}
102
{ACAD_REACTORS
330
31BF3
102
}
330
31BF3
100
AcDbModelDocViewStyle
 70
     0
  3
Metric50
290
     0
100
AcDbDetailViewStyle
 70
     0
 71
     0
 90
        3
 71
     1
340
11
 62
   256
 40
5.0
340
0
 62
   256
 40
5.0
300

 40
0.0
280
     1
 71
     2
340
16
 90
       25
 62
   256
 71
     3
340
11
 62
   256
 40
5.0
 90
        0
 40
15.0
 90
        1
300
%<\AcVar ViewDetailId>% (%<\AcVar ViewScale \f "%sn">%)
 71
     4
340
16
 90
       25
 62
   256
340
16
 90
       25
 62
   256
280
     0
1001
ACAD
1000
AcRTDxfName
1000
ACDBDETAILVIEWSTYLE
1000
AcRTDxfName
1000
ACDBDETAILVIEWSTYLE
1000
AcRTDxfName
1000
ACDBDETAILVIEWSTYLE
  0
LAYOUT
  5
31D05
102
{ACAD_XDICTIONARY
360
31D19
102
}
102
{ACAD_REACTORS
330
1A
102
}
330
1A
100
AcDbPlotSettings
  1

  2
\\srvprint\Kopierer_CAD
  4
A4
  6

 40
4.984749794006346
 41
5.154083251953125
 42
5.111740112304686
 43
4.9847412109375
 44
210.0156707763672
 45
297.0106506347656
 46
0.0
 47
0.0
 48
0.0
 49
0.0
140
0.0
141
0.0
142
1.0
143
1.0
 70
   688
 72
     1
 73
     1
 74
     5
  7

 75
    16
147
1.0
 76
     0
 77
     2
 78
   300
148
0.0
149
0.0
100
AcDbLayout
  1
Layout1
 70
     1
 71
     1
 10
-4.9847412109375
 20
-4.984749794006346
 11
292.0259094238281
 21
205.0309209823609
 12
0.0
 22
0.0
 32
0.0
 14
28.68718261718749
 24
19.99191808700561
 34
0.0
 15
258.1846435546875
 25
179.9272627830505
 35
0.0
146
0.0
 13
0.0
 23
0.0
 33
0.0
 16
1.0
 26
0.0
 36
0.0
 17
0.0
 27
1.0
 37
0.0
 76
     0
330
31D04
331
31D0B
1001
ACAD_PSEXT
1000
\\srvprint\Kopierer_CAD
1000
Kyocera TASKalfa 250ci KX
1000
CAD-Buero
1000
@192.168.10.248
1070
     0
  0
LAYOUT
  5
26
102
{ACAD_XDICTIONARY
360
59CC
102
}
102
{ACAD_REACTORS
330
1A
102
}
330
1A
100
AcDbPlotSettings
  1

  2
\\pc17\HP DeskJet 1220C A4
  4
A4
  6

 40
4.180416584014891
 41
12.562424659729
 42
4.180404663085936
 43
3.84173583984375
 44
209.9733276367186
 45
296.9259948730469
 46
0.0
 47
0.0
 48
0.0
 49
0.0
140
0.0
141
0.0
142
1.0
143
1.0
 70
 11952
 72
     1
 73
     0
 74
     0
  7
monochrome.ctb
 75
    16
147
1.0
 76
     0
 77
     2
 78
   300
148
121.7955125582991
149
19.45327258920656
100
AcDbLayout
  1
Model
 70
     1
 71
     0
 10
0.0
 20
0.0
 11
12.0
 21
9.0
 12
0.0
 22
0.0
 32
0.0
 14
0.0
 24
0.0
 34
0.0
 15
0.0
 25
0.0
 35
0.0
146
0.0
 13
0.0
 23
0.0
 33
0.0
 16
1.0
 26
0.0
 36
0.0
 17
0.0
 27
1.0
 37
0.0
 76
     0
330
23
331
1D8D
1001
ACAD_PSEXT
1000
\\pc17\HP DeskJet 1220C A4
1000
HP DeskJet 1220C
1000
Zeichenbüro
1000
A4
1070
     0
  0
MATERIAL
  5
1D90
102
{ACAD_REACTORS
330
1B
102
}
330
1B
100
AcDbMaterial
  1
ByBlock
 73
     1
 78
     1
172
     1
176
     1
270
     1
274
     1
 94
       63
  0
MATERIAL
  5
1D8F
102
{ACAD_REACTORS
330
1B
102
}
330
1B
100
AcDbMaterial
  1
ByLayer
 73
     1
 78
     1
172
     1
176
     1
270
     1
274
     1
 94
       63
  0
MATERIAL
  5
1D91
102
{ACAD_REACTORS
330
1B
102
}
330
1B
100
AcDbMaterial
  1
Global
 73
     1
 78
     1
172
     1
176
     1
270
     1
274
     1
 94
       63
  0
MLEADERSTYLE
  5
252E
102
{ACAD_REACTORS
330
252D
102
}
330
252D
100
AcDbMLeaderStyle
179
     2
170
     2
171
     1
172
     0
 90
        2
 40
0.0
 41
0.0
173
     1
 91
-1056964608
340
14
 92
       -2
290
     1
 42
2.0
291
     1
 43
0.36
  3
Standard
 44
4.0
300

342
11
174
     1
178
     6
175
     1
176
     0
 93
-1056964608
 45
4.0
292
     0
297
     0
 46
4.0
 94
-1056964608
 47
1.0
 49
1.0
140
1.0
293
     1
141
0.0
294
     1
177
     0
142
1.0
295
     0
296
     0
143
0.125
271
     0
272
     9
273
     9
298
     0
  0
MLINESTYLE
  5
18
102
{ACAD_REACTORS
330
17
102
}
330
17
100
AcDbMlineStyle
  2
STANDARD
 70
     0
  3

 62
   256
 51
90.0
 52
90.0
 71
     2
 49
0.5
 62
   256
  6
BYLAYER
 49
-0.5
 62
   256
  6
BYLAYER
  0
ACDBPLACEHOLDER
  5
F
102
{ACAD_REACTORS
330
E
102
}
330
E
  0
SCALE
  5
11BC9
102
{ACAD_REACTORS
330
250B
102
}
330
250B
100
AcDbScale
 70
     0
300
1:2.5
140
1.0
141
2.5
290
     0
  0
SCALE
  5
11BCA
102
{ACAD_REACTORS
330
250B
102
}
330
250B
100
AcDbScale
 70
     0
300
1:7.5
140
1.0
141
7.5
290
     0
  0
SCALE
  5
11BCB
102
{ACAD_REACTORS
330
250B
102
}
330
250B
100
AcDbScale
 70
     0
300
1:250
140
1.0
141
250.0
290
     0
  0
SCALE
  5
11BCC
102
{ACAD_REACTORS
330
250B
102
}
330
250B
100
AcDbScale
 70
     0
300
1:200
140
1.0
141
200.0
290
     0
  0
SCALE
  5
11BCD
102
{ACAD_REACTORS
330
250B
102
}
330
250B
100
AcDbScale
 70
     0
300
1:150
140
1.0
141
150.0
290
     0
  0
SCALE
  5
250C
102
{ACAD_REACTORS
330
250B
102
}
330
250B
100
AcDbScale
 70
     0
300
1:1
140
1.0
141
1.0
290
     1
  0
SCALE
  5
11BCE
102
{ACAD_REACTORS
330
250B
102
}
330
250B
100
AcDbScale
 70
     0
300
1:25
140
1.0
141
25.0
290
     0
  0
SCALE
  5
11BCF
102
{ACAD_REACTORS
330
250B
102
}
330
250B
100
AcDbScale
 70
     0
300
1:75
140
1.0
141
75.0
290
     0
  0
SCALE
  5
11BD0
102
{ACAD_REACTORS
330
250B
102
}
330
250B
100
AcDbScale
 70
     0
300
1:2
140
1.0
141
2.0
290
     0
  0
SCALE
  5
11BD1
102
{ACAD_REACTORS
330
250B
102
}
330
250B
100
AcDbScale
 70
     0
300
1:4
140
1.0
141
4.0
290
     0
  0
SCALE
  5
11BD2
102
{ACAD_REACTORS
330
250B
102
}
330
250B
100
AcDbScale
 70
     0
300
1:5
140
1.0
141
5.0
290
     0
  0
SCALE
  5
11BD3
102
{ACAD_REACTORS
330
250B
102
}
330
250B
100
AcDbScale
 70
     0
300
1:8
140
1.0
141
8.0
290
     0
  0
SCALE
  5
11BD4
102
{ACAD_REACTORS
330
250B
102
}
330
250B
100
AcDbScale
 70
     0
300
1:10
140
1.0
141
10.0
290
     0
  0
SCALE
  5
11BD5
102
{ACAD_REACTORS
330
250B
102
}
330
250B
100
AcDbScale
 70
     0
300
1:16
140
1.0
141
16.0
290
     0
  0
SCALE
  5
11BD6
102
{ACAD_REACTORS
330
250B
102
}
330
250B
100
AcDbScale
 70
     0
300
1:20
140
1.0
141
20.0
290
     0
  0
SCALE
  5
11BD7
102
{ACAD_REACTORS
330
250B
102
}
330
250B
100
AcDbScale
 70
     0
300
1:30
140
1.0
141
30.0
290
     0
  0
SCALE
  5
11BD8
102
{ACAD_REACTORS
330
250B
102
}
330
250B
100
AcDbScale
 70
     0
300
1:40
140
1.0
141
40.0
290
     0
  0
SCALE
  5
D405
102
{ACAD_REACTORS
330
250B
102
}
330
250B
100
AcDbScale
 70
     0
300
1:50
140
1.0
141
50.0
290
     0
  0
SCALE
  5
11BD9
102
{ACAD_REACTORS
330
250B
102
}
330
250B
100
AcDbScale
 70
     0
300
1:100
140
1.0
141
100.0
290
     0
  0
SCALE
  5
11BDA
102
{ACAD_REACTORS
330
250B
102
}
330
250B
100
AcDbScale
 70
     0
300
2:1
140
2.0
141
1.0
290
     0
  0
SCALE
  5
11BDB
102
{ACAD_REACTORS
330
250B
102
}
330
250B
100
AcDbScale
 70
     0
300
4:1
140
4.0
141
1.0
290
     0
  0
SCALE
  5
11BDC
102
{ACAD_REACTORS
330
250B
102
}
330
250B
100
AcDbScale
 70
     0
300
8:1
140
8.0
141
1.0
290
     0
  0
SCALE
  5
11BDD
102
{ACAD_REACTORS
330
250B
102
}
330
250B
100
AcDbScale
 70
     0
300
10:1
140
10.0
141
1.0
290
     0
  0
ACDBSECTIONVIEWSTYLE
  5
31BF2
102
{ACAD_XDICTIONARY
360
33DBF
102
}
102
{ACAD_REACTORS
330
31BF1
102
}
330
31BF1
100
AcDbModelDocViewStyle
 70
     0
  3
Metric50
290
     0
100
AcDbSectionViewStyle
 70
     0
 71
     0
 90
      102
 71
     1
340
11
 62
   256
 40
5.0
340
0
340
0
 62
   256
 40
5.0
300
I, O, Q, S, X, Z
 40
10.0
 90
        0
 40
2.5
 90
        0
 71
     2
340
16
 90
       25
 62
   256
340
16
 90
       50
 62
   256
 40
5.0
 40
2.5
 40
5.0
 71
     3
340
11
 62
   256
 40
5.0
 90
        0
 40
15.0
 90
        1
300
%<\AcVar ViewSectionStartId>%-%<\AcVar ViewSectionEndId>% (%<\AcVar ViewScale \f "%sn">%)
 71
     4
 62
   256
 62
   257
300
ANSI31
 40
1.0
 90
        0
290
     0
290
     0
 90
        6
 40
0.0
 40
1.570796326794896
 40
0.2617993877991494
 40
1.308996938995747
 40
-0.2617993877991494
 40
1.832595714594045
1001
ACAD
1000
AcRTDxfName
1000
ACDBSECTIONVIEWSTYLE
1000
AcRTDxfName
1000
ACDBSECTIONVIEWSTYLE
1000
AcRTDxfName
1000
ACDBSECTIONVIEWSTYLE
  0
TABLESTYLE
  5
1E
102
{ACAD_XDICTIONARY
360
2563
102
}
102
{ACAD_REACTORS
330
1D
102
}
330
1D
100
AcDbTableStyle
280
     0
  3
Standard
 70
     0
 71
     0
 40
1.5
 41
1.5
280
     0
281
     0
  7
Standard
140
4.5
170
     2
 62
     0
 63
     7
283
     0
 90
        4
 91
        0
  1

274
    -2
284
     1
 64
     0
275
    -2
285
     1
 65
     0
276
    -2
286
     1
 66
     0
277
    -2
287
     1
 67
     0
278
    -2
288
     1
 68
     0
279
    -2
289
     1
 69
     0
  7
Standard
140
6.0
170
     5
 62
     0
 63
     7
283
     0
 90
        4
 91
        0
  1

274
    -2
284
     1
 64
     0
275
    -2
285
     1
 65
     0
276
    -2
286
     1
 66
     0
277
    -2
287
     1
 67
     0
278
    -2
288
     1
 68
     0
279
    -2
289
     1
 69
     0
  7
Standard
140
4.5
170
     5
 62
     0
 63
     7
283
     0
 90
        4
 91
        0
  1

274
    -2
284
     1
 64
     0
275
    -2
285
     1
 65
     0
276
    -2
286
     1
 66
     0
277
    -2
287
     1
 67
     0
278
    -2
288
     1
 68
     0
279
    -2
289
     1
 69
     0
  0
VISUALSTYLE
  5
1D98
102
{ACAD_REACTORS
330
1D92
102
}
330
1D92
100
AcDbVisualStyle
  2
2dWireframe
 70
     4
177
     3
291
     0
 70
    58
 90
        0
176
     1
 90
        2
176
     1
 90
        0
176
     1
 90
        0
176
     1
 40
0.6
176
     1
 40
30.0
176
     1
 62
     7
176
     1
 90
        1
176
     1
 90
        4
176
     1
 62
     7
176
     1
 62
   257
176
     1
 90
        1
176
     1
 90
        1
176
     1
 40
1.0
176
     1
 90
        0
176
     1
 62
   257
176
     1
 40
1.0
176
     1
 90
        1
176
     1
 90
        6
176
     1
 90
        2
176
     1
 62
     7
176
     1
 90
        5
176
     1
 90
        0
176
     1
 90
        0
176
     1
290
     0
176
     1
 90
        1
176
     1
 40
0.0
176
     1
 90
        0
176
     1
290
     1
176
     1
290
     1
176
     1
290
     0
176
     1
290
     0
176
     1
290
     0
176
     1
290
     0
176
     1
290
     0
176
     1
290
     0
176
     1
290
     0
176
     1
 90
       50
176
     1
 40
0.0
176
     1
 40
1.0
176
     1
 90
        0
176
     1
 62
    18
176
     1
 90
       50
176
     1
 90
        3
176
     1
 62
     5
420
      255
176
     1
290
     0
176
     1
 90
       50
176
     1
 90
       50
176
     1
 90
       50
176
     1
290
     0
176
     1
 90
       50
176
     1
 62
   256
176
     0
 40
1.0
176
     0
 90
        2
176
     1
  1
strokes_ogs.tif
176
     1
290
     0
176
     1
 40
1.0
176
     1
 40
1.0
176
     1
1001
ACAD
1000
AcDbSavedByObjectVersion
1070
     0
  0
VISUALSTYLE
  5
1D9A
102
{ACAD_REACTORS
330
1D92
102
}
330
1D92
100
AcDbVisualStyle
  2
3D Hidden
 70
     6
177
     3
291
     0
 70
    58
 90
        1
176
     1
 90
        2
176
     1
 90
        2
176
     1
 90
        0
176
     1
 40
0.6
176
     1
 40
30.0
176
     1
 62
     7
176
     1
 90
        2
176
     1
 90
        2
176
     1
 62
     7
176
     1
 62
   257
176
     1
 90
        2
176
     1
 90
        1
176
     1
 40
40.0
176
     1
 90
        0
176
     1
 62
   257
176
     1
 40
1.0
176
     1
 90
        1
176
     1
 90
        6
176
     1
 90
        2
176
     1
 62
     7
176
     1
 90
        3
176
     1
 90
        0
176
     1
 90
        0
176
     1
290
     0
176
     1
 90
        1
176
     1
 40
0.0
176
     1
 90
        0
176
     1
290
     0
176
     1
290
     1
176
     1
290
     1
176
     1
290
     0
176
     1
290
     0
176
     1
290
     0
176
     1
290
     0
176
     1
290
     0
176
     1
290
     0
176
     1
 90
       50
176
     1
 40
0.0
176
     1
 40
1.0
176
     1
 90
        0
176
     1
 62
    18
176
     1
 90
       50
176
     1
 90
        3
176
     1
 62
     5
420
      255
176
     1
290
     0
176
     1
 90
       50
176
     1
 90
       50
176
     1
 90
       50
176
     1
290
     0
176
     1
 90
       50
176
     1
 62
   256
176
     0
 40
1.0
176
     0
 90
        2
176
     1
  1
strokes_ogs.tif
176
     1
290
     0
176
     1
 40
1.0
176
     1
 40
1.0
176
     1
1001
ACAD
1000
AcDbSavedByObjectVersion
1070
     0
  0
VISUALSTYLE
  5
1D99
102
{ACAD_REACTORS
330
1D92
102
}
330
1D92
100
AcDbVisualStyle
  2
3dWireframe
 70
     5
177
     3
291
     0
 70
    58
 90
        0
176
     1
 90
        2
176
     1
 90
        0
176
     1
 90
        0
176
     1
 40
0.6
176
     1
 40
30.0
176
     1
 62
     7
176
     1
 90
        1
176
     1
 90
        4
176
     1
 62
     7
176
     1
 62
   257
176
     1
 90
        1
176
     1
 90
        1
176
     1
 40
1.0
176
     1
 90
        0
176
     1
 62
   257
176
     1
 40
1.0
176
     1
 90
        1
176
     1
 90
        6
176
     1
 90
        2
176
     1
 62
     7
176
     1
 90
        5
176
     1
 90
        0
176
     1
 90
        0
176
     1
290
     0
176
     1
 90
        1
176
     1
 40
0.0
176
     1
 90
        0
176
     1
290
     0
176
     1
290
     1
176
     1
290
     1
176
     1
290
     0
176
     1
290
     0
176
     1
290
     0
176
     1
290
     0
176
     1
290
     0
176
     1
290
     0
176
     1
 90
       50
176
     1
 40
0.0
176
     1
 40
1.0
176
     1
 90
        0
176
     1
 62
    18
176
     1
 90
       50
176
     1
 90
        3
176
     1
 62
     5
420
      255
176
     1
290
     0
176
     1
 90
       50
176
     1
 90
       50
176
     1
 90
       50
176
     1
290
     0
176
     1
 90
       50
176
     1
 62
   256
176
     0
 40
1.0
176
     0
 90
        2
176
     1
  1
strokes_ogs.tif
176
     1
290
     0
176
     1
 40
1.0
176
     1
 40
1.0
176
     1
1001
ACAD
1000
AcDbSavedByObjectVersion
1070
     0
  0
VISUALSTYLE
  5
1D97
102
{ACAD_REACTORS
330
1D92
102
}
330
1D92
100
AcDbVisualStyle
  2
Basic
 70
     7
177
     3
291
     1
 70
    58
 90
        1
176
     1
 90
        0
176
     1
 90
        1
176
     1
 90
        0
176
     1
 40
0.6
176
     1
 40
30.0
176
     1
 62
     7
176
     1
 90
        0
176
     1
 90
        4
176
     1
 62
     7
176
     1
 62
   257
176
     1
 90
        1
176
     1
 90
        1
176
     1
 40
1.0
176
     1
 90
        8
176
     1
 62
     7
176
     1
 40
1.0
176
     1
 90
        1
176
     1
 90
        6
176
     1
 90
        2
176
     1
 62
     7
176
     1
 90
        5
176
     1
 90
        0
176
     1
 90
        0
176
     1
290
     0
176
     1
 90
        1
176
     1
 40
0.0
176
     1
 90
        0
176
     1
290
     0
176
     1
290
     1
176
     1
290
     1
176
     1
290
     0
176
     1
290
     0
176
     1
290
     0
176
     1
290
     0
176
     1
290
     0
176
     1
290
     0
176
     1
 90
       50
176
     1
 40
0.0
176
     1
 40
1.0
176
     1
 90
        0
176
     1
 62
    18
176
     1
 90
       50
176
     1
 90
        3
176
     1
 62
     5
420
      255
176
     1
290
     0
176
     1
 90
       50
176
     1
 90
       50
176
     1
 90
       50
176
     1
290
     0
176
     1
 90
       50
176
     1
 62
   256
176
     0
 40
1.0
176
     0
 90
        2
176
     1
  1
strokes_ogs.tif
176
     1
290
     0
176
     1
 40
1.0
176
     1
 40
1.0
176
     1
1001
ACAD
1000
AcDbSavedByObjectVersion
1070
     0
  0
VISUALSTYLE
  5
1D9E
102
{ACAD_REACTORS
330
1D92
102
}
330
1D92
100
AcDbVisualStyle
  2
Brighten
 70
    12
177
     3
291
     1
 70
    58
 90
        2
176
     1
 90
        2
176
     1
 90
        0
176
     1
 90
        0
176
     1
 40
0.6
176
     1
 40
30.0
176
     1
 62
     7
176
     1
 90
        1
176
     1
 90
        4
176
     1
 62
     7
176
     1
 62
   257
176
     1
 90
        1
176
     1
 90
        1
176
     1
 40
1.0
176
     1
 90
        8
176
     1
 62
     7
176
     1
 40
1.0
176
     1
 90
        1
176
     1
 90
        6
176
     1
 90
        2
176
     1
 62
     7
176
     1
 90
        5
176
     1
 90
        0
176
     1
 90
        0
176
     1
290
     0
176
     1
 90
        1
176
     1
 40
50.0
176
     1
 90
        0
176
     1
290
     0
176
     1
290
     1
176
     1
290
     1
176
     1
290
     0
176
     1
290
     0
176
     1
290
     0
176
     1
290
     0
176
     1
290
     0
176
     1
290
     0
176
     1
 90
       50
176
     1
 40
0.0
176
     1
 40
1.0
176
     1
 90
        0
176
     1
 62
    18
176
     1
 90
       50
176
     1
 90
        3
176
     1
 62
     5
420
      255
176
     1
290
     0
176
     1
 90
       50
176
     1
 90
       50
176
     1
 90
       50
176
     1
290
     0
176
     1
 90
       50
176
     1
 62
   256
176
     0
 40
1.0
176
     0
 90
        2
176
     1
  1
strokes_ogs.tif
176
     1
290
     0
176
     1
 40
1.0
176
     1
 40
1.0
176
     1
1001
ACAD
1000
AcDbSavedByObjectVersion
1070
     0
  0
VISUALSTYLE
  5
1DA2
102
{ACAD_REACTORS
330
1D92
102
}
330
1D92
100
AcDbVisualStyle
  2
ColorChange
 70
    16
177
     3
291
     1
 70
    58
 90
        2
176
     1
 90
        2
176
     1
 90
        3
176
     1
 90
        0
176
     1
 40
0.6
176
     1
 40
30.0
176
     1
 62
     8
176
     1
 90
        1
176
     1
 90
        4
176
     1
 62
     7
176
     1
 62
   257
176
     1
 90
        1
176
     1
 90
        1
176
     1
 40
1.0
176
     1
 90
        8
176
     1
 62
     8
176
     1
 40
1.0
176
     1
 90
        1
176
     1
 90
        6
176
     1
 90
        2
176
     1
 62
     7
176
     1
 90
        5
176
     1
 90
        0
176
     1
 90
        0
176
     1
290
     0
176
     1
 90
        1
176
     1
 40
0.0
176
     1
 90
        0
176
     1
290
     0
176
     1
290
     1
176
     1
290
     1
176
     1
290
     0
176
     1
290
     0
176
     1
290
     0
176
     1
290
     0
176
     1
290
     0
176
     1
290
     0
176
     1
 90
       50
176
     1
 40
0.0
176
     1
 40
1.0
176
     1
 90
        0
176
     1
 62
    18
176
     1
 90
       50
176
     1
 90
        3
176
     1
 62
     5
420
      255
176
     1
290
     0
176
     1
 90
       50
176
     1
 90
       50
176
     1
 90
       50
176
     1
290
     0
176
     1
 90
       50
176
     1
 62
   256
176
     0
 40
1.0
176
     0
 90
        2
176
     1
  1
strokes_ogs.tif
176
     1
290
     0
176
     1
 40
1.0
176
     1
 40
1.0
176
     1
1001
ACAD
1000
AcDbSavedByObjectVersion
1070
     0
  0
VISUALSTYLE
  5
1D9B
102
{ACAD_REACTORS
330
1D92
102
}
330
1D92
100
AcDbVisualStyle
  2
Conceptual
 70
     9
177
     3
291
     0
 70
    58
 90
        3
176
     1
 90
        2
176
     1
 90
        0
176
     1
 90
        0
176
     1
 40
0.6
176
     1
 40
30.0
176
     1
 62
     7
176
     1
 90
        2
176
     1
 90
        2
176
     1
 62
     7
176
     1
 62
   257
176
     1
 90
        1
176
     1
 90
        1
176
     1
 40
40.0
176
     1
 90
        8
176
     1
 62
     7
176
     1
 40
1.0
176
     1
 90
        1
176
     1
 90
        6
176
     1
 90
        2
176
     1
 62
     7
176
     1
 90
        3
176
     1
 90
        0
176
     1
 90
        0
176
     1
290
     0
176
     1
 90
        1
176
     1
 40
0.0
176
     1
 90
        0
176
     1
290
     0
176
     1
290
     1
176
     1
290
     1
176
     1
290
     0
176
     1
290
     0
176
     1
290
     0
176
     1
290
     0
176
     1
290
     0
176
     1
290
     0
176
     1
 90
       50
176
     1
 40
0.0
176
     1
 40
1.0
176
     1
 90
        0
176
     1
 62
    18
176
     1
 90
       50
176
     1
 90
        3
176
     1
 62
     5
420
      255
176
     1
290
     0
176
     1
 90
       50
176
     1
 90
       50
176
     1
 90
       50
176
     1
290
     0
176
     1
 90
       50
176
     1
 62
   256
176
     0
 40
1.0
176
     0
 90
        2
176
     1
  1
strokes_ogs.tif
176
     1
290
     0
176
     1
 40
1.0
176
     1
 40
1.0
176
     1
1001
ACAD
1000
AcDbSavedByObjectVersion
1070
     0
  0
VISUALSTYLE
  5
1D9D
102
{ACAD_REACTORS
330
1D92
102
}
330
1D92
100
AcDbVisualStyle
  2
Dim
 70
    11
177
     3
291
     1
 70
    58
 90
        2
176
     1
 90
        2
176
     1
 90
        0
176
     1
 90
        0
176
     1
 40
0.6
176
     1
 40
30.0
176
     1
 62
     7
176
     1
 90
        1
176
     1
 90
        4
176
     1
 62
     7
176
     1
 62
   257
176
     1
 90
        1
176
     1
 90
        1
176
     1
 40
1.0
176
     1
 90
        8
176
     1
 62
     7
176
     1
 40
1.0
176
     1
 90
        1
176
     1
 90
        6
176
     1
 90
        2
176
     1
 62
     7
176
     1
 90
        5
176
     1
 90
        0
176
     1
 90
        0
176
     1
290
     0
176
     1
 90
        1
176
     1
 40
-50.0
176
     1
 90
        0
176
     1
290
     0
176
     1
290
     1
176
     1
290
     1
176
     1
290
     0
176
     1
290
     0
176
     1
290
     0
176
     1
290
     0
176
     1
290
     0
176
     1
290
     0
176
     1
 90
       50
176
     1
 40
0.0
176
     1
 40
1.0
176
     1
 90
        0
176
     1
 62
    18
176
     1
 90
       50
176
     1
 90
        3
176
     1
 62
     5
420
      255
176
     1
290
     0
176
     1
 90
       50
176
     1
 90
       50
176
     1
 90
       50
176
     1
290
     0
176
     1
 90
       50
176
     1
 62
   256
176
     0
 40
1.0
176
     0
 90
        2
176
     1
  1
strokes_ogs.tif
176
     1
290
     0
176
     1
 40
1.0
176
     1
 40
1.0
176
     1
1001
ACAD
1000
AcDbSavedByObjectVersion
1070
     0
  0
VISUALSTYLE
  5
58CB
102
{ACAD_REACTORS
330
1D92
102
}
330
1D92
100
AcDbVisualStyle
  2
EdgeColorOff
 70
    22
177
     3
291
     1
 70
    58
 90
        2
176
     0
 90
        2
176
     0
 90
        0
176
     0
 90
        0
176
     0
 40
0.6
176
     0
 40
30.0
176
     0
 62
     7
176
     0
 90
        1
176
     0
 90
        4
176
     0
 62
     7
176
     0
 62
   257
176
     0
 90
        1
176
     0
 90
        1
176
     0
 40
1.0
176
     0
 90
        8
176
     2
 62
     7
176
     0
 40
1.0
176
     0
 90
        1
176
     0
 90
        6
176
     0
 90
        2
176
     0
 62
     7
176
     0
 90
        5
176
     0
 90
        0
176
     0
 90
        0
176
     0
290
     0
176
     0
 90
        1
176
     0
 40
0.0
176
     0
 90
        0
176
     0
290
     0
176
     1
290
     1
176
     1
290
     1
176
     1
290
     0
176
     1
290
     0
176
     1
290
     0
176
     1
290
     0
176
     1
290
     0
176
     1
290
     0
176
     1
 90
       50
176
     1
 40
0.0
176
     1
 40
1.0
176
     1
 90
        0
176
     1
 62
    18
176
     1
 90
       50
176
     1
 90
        3
176
     1
 62
     5
420
      255
176
     1
290
     0
176
     1
 90
       50
176
     1
 90
       50
176
     1
 90
       50
176
     1
290
     0
176
     1
 90
       50
176
     1
 62
   256
176
     0
 40
1.0
176
     0
 90
        2
176
     1
  1
strokes_ogs.tif
176
     1
290
     0
176
     1
 40
1.0
176
     1
 40
1.0
176
     1
1001
ACAD
1000
AcDbSavedByObjectVersion
1070
     0
  0
VISUALSTYLE
  5
1DA1
102
{ACAD_REACTORS
330
1D92
102
}
330
1D92
100
AcDbVisualStyle
  2
Facepattern
 70
    15
177
     3
291
     1
 70
    58
 90
        2
176
     1
 90
        2
176
     1
 90
        0
176
     1
 90
        0
176
     1
 40
0.6
176
     1
 40
30.0
176
     1
 62
     7
176
     1
 90
        1
176
     1
 90
        4
176
     1
 62
     7
176
     1
 62
   257
176
     1
 90
        1
176
     1
 90
        1
176
     1
 40
1.0
176
     1
 90
        8
176
     1
 62
     7
176
     1
 40
1.0
176
     1
 90
        1
176
     1
 90
        6
176
     1
 90
        2
176
     1
 62
     7
176
     1
 90
        5
176
     1
 90
        0
176
     1
 90
        0
176
     1
290
     0
176
     1
 90
        1
176
     1
 40
0.0
176
     1
 90
        0
176
     1
290
     0
176
     1
290
     1
176
     1
290
     1
176
     1
290
     0
176
     1
290
     0
176
     1
290
     0
176
     1
290
     0
176
     1
290
     0
176
     1
290
     0
176
     1
 90
       50
176
     1
 40
0.0
176
     1
 40
1.0
176
     1
 90
        0
176
     1
 62
    18
176
     1
 90
       50
176
     1
 90
        3
176
     1
 62
     5
420
      255
176
     1
290
     0
176
     1
 90
       50
176
     1
 90
       50
176
     1
 90
       50
176
     1
290
     0
176
     1
 90
       50
176
     1
 62
   256
176
     0
 40
1.0
176
     0
 90
        2
176
     1
  1
strokes_ogs.tif
176
     1
290
     0
176
     1
 40
1.0
176
     1
 40
1.0
176
     1
1001
ACAD
1000
AcDbSavedByObjectVersion
1070
     0
  0
VISUALSTYLE
  5
1D93
102
{ACAD_REACTORS
330
1D92
102
}
330
1D92
100
AcDbVisualStyle
  2
Flat
 70
     0
177
     3
291
     1
 70
    58
 90
        2
176
     1
 90
        1
176
     1
 90
        1
176
     1
 90
        2
176
     1
 40
0.6
176
     1
 40
30.0
176
     1
 62
     7
176
     1
 90
        0
176
     1
 90
        4
176
     1
 62
     7
176
     1
 62
   257
176
     1
 90
        1
176
     1
 90
        1
176
     1
 40
1.0
176
     1
 90
        8
176
     1
 62
     7
176
     1
 40
1.0
176
     1
 90
        1
176
     1
 90
        6
176
     1
 90
        2
176
     1
 62
     7
176
     1
 90
        5
176
     1
 90
        0
176
     1
 90
        0
176
     1
290
     0
176
     1
 90
       13
176
     1
 40
0.0
176
     1
 90
        0
176
     1
290
     0
176
     1
290
     1
176
     1
290
     1
176
     1
290
     0
176
     1
290
     0
176
     1
290
     0
176
     1
290
     0
176
     1
290
     0
176
     1
290
     0
176
     1
 90
       50
176
     1
 40
0.0
176
     1
 40
1.0
176
     1
 90
        0
176
     1
 62
    18
176
     1
 90
       50
176
     1
 90
        3
176
     1
 62
     5
420
      255
176
     1
290
     0
176
     1
 90
       50
176
     1
 90
       50
176
     1
 90
       50
176
     1
290
     0
176
     1
 90
       50
176
     1
 62
   256
176
     0
 40
1.0
176
     0
 90
        2
176
     1
  1
strokes_ogs.tif
176
     1
290
     0
176
     1
 40
1.0
176
     1
 40
1.0
176
     1
1001
ACAD
1000
AcDbSavedByObjectVersion
1070
     0
  0
VISUALSTYLE
  5
1D94
102
{ACAD_REACTORS
330
1D92
102
}
330
1D92
100
AcDbVisualStyle
  2
FlatWithEdges
 70
     1
177
     3
291
     1
 70
    58
 90
        2
176
     1
 90
        1
176
     1
 90
        1
176
     1
 90
        2
176
     1
 40
0.6
176
     1
 40
30.0
176
     1
 62
     7
176
     1
 90
        1
176
     1
 90
        4
176
     1
 62
     7
176
     1
 62
   257
176
     1
 90
        1
176
     1
 90
        1
176
     1
 40
1.0
176
     1
 90
        0
176
     1
 62
   257
176
     1
 40
1.0
176
     1
 90
        1
176
     1
 90
        6
176
     1
 90
        2
176
     1
 62
     7
176
     1
 90
        5
176
     1
 90
        0
176
     1
 90
        0
176
     1
290
     0
176
     1
 90
       13
176
     1
 40
0.0
176
     1
 90
        0
176
     1
290
     0
176
     1
290
     1
176
     1
290
     1
176
     1
290
     0
176
     1
290
     0
176
     1
290
     0
176
     1
290
     0
176
     1
290
     0
176
     1
290
     0
176
     1
 90
       50
176
     1
 40
0.0
176
     1
 40
1.0
176
     1
 90
        0
176
     1
 62
    18
176
     1
 90
       50
176
     1
 90
        3
176
     1
 62
     5
420
      255
176
     1
290
     0
176
     1
 90
       50
176
     1
 90
       50
176
     1
 90
       50
176
     1
290
     0
176
     1
 90
       50
176
     1
 62
   256
176
     0
 40
1.0
176
     0
 90
        2
176
     1
  1
strokes_ogs.tif
176
     1
290
     0
176
     1
 40
1.0
176
     1
 40
1.0
176
     1
1001
ACAD
1000
AcDbSavedByObjectVersion
1070
     0
  0
VISUALSTYLE
  5
1D95
102
{ACAD_REACTORS
330
1D92
102
}
330
1D92
100
AcDbVisualStyle
  2
Gouraud
 70
     2
177
     3
291
     1
 70
    58
 90
        2
176
     1
 90
        2
176
     1
 90
        1
176
     1
 90
        2
176
     1
 40
0.6
176
     1
 40
30.0
176
     1
 62
     7
176
     1
 90
        0
176
     1
 90
        4
176
     1
 62
     7
176
     1
 62
   257
176
     1
 90
        1
176
     1
 90
        1
176
     1
 40
1.0
176
     1
 90
        0
176
     1
 62
     7
176
     1
 40
1.0
176
     1
 90
        1
176
     1
 90
        6
176
     1
 90
        2
176
     1
 62
     7
176
     1
 90
        5
176
     1
 90
        0
176
     1
 90
        0
176
     1
290
     0
176
     1
 90
       13
176
     1
 40
0.0
176
     1
 90
        0
176
     1
290
     0
176
     1
290
     1
176
     1
290
     1
176
     1
290
     0
176
     1
290
     0
176
     1
290
     0
176
     1
290
     0
176
     1
290
     0
176
     1
290
     0
176
     1
 90
       50
176
     1
 40
0.0
176
     1
 40
1.0
176
     1
 90
        0
176
     1
 62
    18
176
     1
 90
       50
176
     1
 90
        3
176
     1
 62
     5
420
      255
176
     1
290
     0
176
     1
 90
       50
176
     1
 90
       50
176
     1
 90
       50
176
     1
290
     0
176
     1
 90
       50
176
     1
 62
   256
176
     0
 40
1.0
176
     0
 90
        2
176
     1
  1
strokes_ogs.tif
176
     1
290
     0
176
     1
 40
1.0
176
     1
 40
1.0
176
     1
1001
ACAD
1000
AcDbSavedByObjectVersion
1070
     0
  0
VISUALSTYLE
  5
1D96
102
{ACAD_REACTORS
330
1D92
102
}
330
1D92
100
AcDbVisualStyle
  2
GouraudWithEdges
 70
     3
177
     3
291
     1
 70
    58
 90
        2
176
     1
 90
        2
176
     1
 90
        1
176
     1
 90
        2
176
     1
 40
0.6
176
     1
 40
30.0
176
     1
 62
     7
176
     1
 90
        1
176
     1
 90
        4
176
     1
 62
     7
176
     1
 62
   257
176
     1
 90
        1
176
     1
 90
        1
176
     1
 40
1.0
176
     1
 90
        0
176
     1
 62
   257
176
     1
 40
1.0
176
     1
 90
        1
176
     1
 90
        6
176
     1
 90
        2
176
     1
 62
     7
176
     1
 90
        5
176
     1
 90
        0
176
     1
 90
        0
176
     1
290
     0
176
     1
 90
       13
176
     1
 40
0.0
176
     1
 90
        0
176
     1
290
     0
176
     1
290
     1
176
     1
290
     1
176
     1
290
     0
176
     1
290
     0
176
     1
290
     0
176
     1
290
     0
176
     1
290
     0
176
     1
290
     0
176
     1
 90
       50
176
     1
 40
0.0
176
     1
 40
1.0
176
     1
 90
        0
176
     1
 62
    18
176
     1
 90
       50
176
     1
 90
        3
176
     1
 62
     5
420
      255
176
     1
290
     0
176
     1
 90
       50
176
     1
 90
       50
176
     1
 90
       50
176
     1
290
     0
176
     1
 90
       50
176
     1
 62
   256
176
     0
 40
1.0
176
     0
 90
        2
176
     1
  1
strokes_ogs.tif
176
     1
290
     0
176
     1
 40
1.0
176
     1
 40
1.0
176
     1
1001
ACAD
1000
AcDbSavedByObjectVersion
1070
     0
  0
VISUALSTYLE
  5
A3B8
102
{ACAD_REACTORS
330
1D92
102
}
330
1D92
100
AcDbVisualStyle
  2
Hidden
 70
     6
177
     3
291
     0
 70
    58
 90
        1
176
     1
 90
        2
176
     1
 90
        2
176
     1
 90
        0
176
     1
 40
0.6
176
     1
 40
30.0
176
     1
 62
     7
176
     1
 90
        2
176
     1
 90
        2
176
     1
 62
     7
176
     1
 62
   257
176
     1
 90
        2
176
     1
 90
        1
176
     1
 40
40.0
176
     1
 90
        0
176
     1
 62
   257
176
     1
 40
1.0
176
     1
 90
        1
176
     1
 90
        6
176
     1
 90
        2
176
     1
 62
     7
176
     1
 90
        3
176
     1
 90
        0
176
     1
 90
        0
176
     1
290
     0
176
     1
 90
        1
176
     1
 40
0.0
176
     1
 90
        0
176
     1
290
     0
176
     1
290
     1
176
     1
290
     1
176
     1
290
     0
176
     1
290
     0
176
     1
290
     0
176
     1
290
     0
176
     1
290
     0
176
     1
290
     0
176
     1
 90
       50
176
     1
 40
0.0
176
     1
 40
1.0
176
     1
 90
        0
176
     1
 62
    18
176
     1
 90
       50
176
     1
 90
        3
176
     1
 62
     5
420
      255
176
     1
290
     0
176
     1
 90
       50
176
     1
 90
       50
176
     1
 90
       50
176
     1
290
     0
176
     1
 90
       50
176
     1
 62
   256
176
     0
 40
1.0
176
     0
 90
        2
176
     1
  1
strokes_ogs.tif
176
     1
290
     0
176
     1
 40
1.0
176
     1
 40
1.0
176
     1
1001
ACAD
1000
AcDbSavedByObjectVersion
1070
     0
  0
VISUALSTYLE
  5
58C9
102
{ACAD_REACTORS
330
1D92
102
}
330
1D92
100
AcDbVisualStyle
  2
JitterOff
 70
    20
177
     3
291
     1
 70
    58
 90
        2
176
     0
 90
        2
176
     0
 90
        0
176
     0
 90
        0
176
     0
 40
0.6
176
     0
 40
30.0
176
     0
 62
     7
176
     0
 90
        1
176
     0
 90
        4
176
     0
 62
     7
176
     0
 62
   257
176
     0
 90
        1
176
     0
 90
        1
176
     0
 40
1.0
176
     0
 90
       10
176
     2
 62
     7
176
     0
 40
1.0
176
     0
 90
        1
176
     0
 90
        6
176
     0
 90
        2
176
     0
 62
     7
176
     0
 90
        5
176
     0
 90
        0
176
     0
 90
        0
176
     0
290
     0
176
     0
 90
        1
176
     0
 40
0.0
176
     0
 90
        0
176
     0
290
     0
176
     1
290
     1
176
     1
290
     1
176
     1
290
     0
176
     1
290
     0
176
     1
290
     0
176
     1
290
     0
176
     1
290
     0
176
     1
290
     0
176
     1
 90
       50
176
     1
 40
0.0
176
     1
 40
1.0
176
     1
 90
        0
176
     1
 62
    18
176
     1
 90
       50
176
     1
 90
        3
176
     1
 62
     5
420
      255
176
     1
290
     0
176
     1
 90
       50
176
     1
 90
       50
176
     1
 90
       50
176
     1
290
     0
176
     1
 90
       50
176
     1
 62
   256
176
     0
 40
1.0
176
     0
 90
        2
176
     1
  1
strokes_ogs.tif
176
     1
290
     0
176
     1
 40
1.0
176
     1
 40
1.0
176
     1
1001
ACAD
1000
AcDbSavedByObjectVersion
1070
     0
  0
VISUALSTYLE
  5
1DA0
102
{ACAD_REACTORS
330
1D92
102
}
330
1D92
100
AcDbVisualStyle
  2
Linepattern
 70
    14
177
     3
291
     1
 70
    58
 90
        2
176
     1
 90
        2
176
     1
 90
        0
176
     1
 90
        0
176
     1
 40
0.6
176
     1
 40
30.0
176
     1
 62
     7
176
     1
 90
        1
176
     1
 90
        4
176
     1
 62
     7
176
     1
 62
   257
176
     1
 90
        7
176
     1
 90
        7
176
     1
 40
1.0
176
     1
 90
        8
176
     1
 62
     7
176
     1
 40
1.0
176
     1
 90
        1
176
     1
 90
        6
176
     1
 90
        2
176
     1
 62
     7
176
     1
 90
        5
176
     1
 90
        0
176
     1
 90
        0
176
     1
290
     0
176
     1
 90
        1
176
     1
 40
0.0
176
     1
 90
        0
176
     1
290
     0
176
     1
290
     1
176
     1
290
     1
176
     1
290
     0
176
     1
290
     0
176
     1
290
     0
176
     1
290
     0
176
     1
290
     0
176
     1
290
     0
176
     1
 90
       50
176
     1
 40
0.0
176
     1
 40
1.0
176
     1
 90
        0
176
     1
 62
    18
176
     1
 90
       50
176
     1
 90
        3
176
     1
 62
     5
420
      255
176
     1
290
     0
176
     1
 90
       50
176
     1
 90
       50
176
     1
 90
       50
176
     1
290
     0
176
     1
 90
       50
176
     1
 62
   256
176
     0
 40
1.0
176
     0
 90
        2
176
     1
  1
strokes_ogs.tif
176
     1
290
     0
176
     1
 40
1.0
176
     1
 40
1.0
176
     1
1001
ACAD
1000
AcDbSavedByObjectVersion
1070
     0
  0
VISUALSTYLE
  5
58CA
102
{ACAD_REACTORS
330
1D92
102
}
330
1D92
100
AcDbVisualStyle
  2
OverhangOff
 70
    21
177
     3
291
     1
 70
    58
 90
        2
176
     0
 90
        2
176
     0
 90
        0
176
     0
 90
        0
176
     0
 40
0.6
176
     0
 40
30.0
176
     0
 62
     7
176
     0
 90
        1
176
     0
 90
        4
176
     0
 62
     7
176
     0
 62
   257
176
     0
 90
        1
176
     0
 90
        1
176
     0
 40
1.0
176
     0
 90
        9
176
     2
 62
     7
176
     0
 40
1.0
176
     0
 90
        1
176
     0
 90
        6
176
     0
 90
        2
176
     0
 62
     7
176
     0
 90
        5
176
     0
 90
        0
176
     0
 90
        0
176
     0
290
     0
176
     0
 90
        1
176
     0
 40
0.0
176
     0
 90
        0
176
     0
290
     0
176
     1
290
     1
176
     1
290
     1
176
     1
290
     0
176
     1
290
     0
176
     1
290
     0
176
     1
290
     0
176
     1
290
     0
176
     1
290
     0
176
     1
 90
       50
176
     1
 40
0.0
176
     1
 40
1.0
176
     1
 90
        0
176
     1
 62
    18
176
     1
 90
       50
176
     1
 90
        3
176
     1
 62
     5
420
      255
176
     1
290
     0
176
     1
 90
       50
176
     1
 90
       50
176
     1
 90
       50
176
     1
290
     0
176
     1
 90
       50
176
     1
 62
   256
176
     0
 40
1.0
176
     0
 90
        2
176
     1
  1
strokes_ogs.tif
176
     1
290
     0
176
     1
 40
1.0
176
     1
 40
1.0
176
     1
1001
ACAD
1000
AcDbSavedByObjectVersion
1070
     0
  0
VISUALSTYLE
  5
1D9C
102
{ACAD_REACTORS
330
1D92
102
}
330
1D92
100
AcDbVisualStyle
  2
Realistic
 70
     8
177
     3
291
     0
 70
    58
 90
        2
176
     1
 90
        2
176
     1
 90
        0
176
     1
 90
        0
176
     1
 40
0.6
176
     1
 40
30.0
176
     1
 62
     7
176
     1
 90
        1
176
     1
 90
        0
176
     1
 62
     7
176
     1
 62
   257
176
     1
 90
        1
176
     1
 90
        1
176
     1
 40
1.0
176
     1
 90
        8
176
     1
 62
     8
176
     1
 40
1.0
176
     1
 90
        1
176
     1
 90
        6
176
     1
 90
        2
176
     1
 62
     7
176
     1
 90
        5
176
     1
 90
        0
176
     1
 90
        0
176
     1
290
     0
176
     1
 90
       13
176
     1
 40
0.0
176
     1
 90
        0
176
     1
290
     0
176
     1
290
     1
176
     1
290
     1
176
     1
290
     0
176
     1
290
     0
176
     1
290
     0
176
     1
290
     0
176
     1
290
     0
176
     1
290
     0
176
     1
 90
       50
176
     1
 40
0.0
176
     1
 40
1.0
176
     1
 90
        0
176
     1
 62
    18
176
     1
 90
       50
176
     1
 90
        3
176
     1
 62
     5
420
      255
176
     1
290
     0
176
     1
 90
       50
176
     1
 90
       50
176
     1
 90
       50
176
     1
290
     0
176
     1
 90
       50
176
     1
 62
   256
176
     0
 40
1.0
176
     0
 90
        2
176
     1
  1
strokes_ogs.tif
176
     1
290
     0
176
     1
 40
1.0
176
     1
 40
1.0
176
     1
1001
ACAD
1000
AcDbSavedByObjectVersion
1070
     0
  0
VISUALSTYLE
  5
A3BD
102
{ACAD_REACTORS
330
1D92
102
}
330
1D92
100
AcDbVisualStyle
  2
Shaded
 70
    27
177
     3
291
     0
 70
    58
 90
        2
176
     1
 90
        2
176
     1
 90
        1
176
     1
 90
        2
176
     1
 40
0.6
176
     1
 40
30.0
176
     1
 62
     7
176
     1
 90
        0
176
     1
 90
        4
176
     1
 62
     7
176
     1
 62
   257
176
     1
 90
        1
176
     1
 90
        1
176
     1
 40
1.0
176
     1
 90
        8
176
     1
 62
   257
176
     1
 40
1.0
176
     1
 90
        1
176
     1
 90
        6
176
     1
 90
        2
176
     1
 62
     8
176
     1
 90
        3
176
     1
 90
        0
176
     1
 90
        0
176
     1
290
     0
176
     1
 90
        5
176
     1
 40
0.0
176
     1
 90
        0
176
     1
290
     0
176
     1
290
     1
176
     1
290
     1
176
     1
290
     0
176
     1
290
     0
176
     1
290
     0
176
     1
290
     0
176
     1
290
     0
176
     1
290
     0
176
     1
 90
       50
176
     1
 40
0.0
176
     1
 40
1.0
176
     1
 90
        0
176
     1
 62
    18
176
     1
 90
       50
176
     1
 90
        3
176
     1
 62
     5
420
      255
176
     1
290
     0
176
     1
 90
       50
176
     1
 90
       50
176
     1
 90
       50
176
     1
290
     0
176
     1
 90
       50
176
     1
 62
   256
176
     0
 40
1.0
176
     0
 90
        2
176
     1
  1
strokes_ogs.tif
176
     1
290
     0
176
     1
 40
1.0
176
     1
 40
1.0
176
     1
1001
ACAD
1000
AcDbSavedByObjectVersion
1070
     0
  0
VISUALSTYLE
  5
A3BC
102
{ACAD_REACTORS
330
1D92
102
}
330
1D92
100
AcDbVisualStyle
  2
Shaded with edges
 70
    26
177
     3
291
     0
 70
    58
 90
        2
176
     1
 90
        2
176
     1
 90
        1
176
     1
 90
        2
176
     1
 40
0.6
176
     1
 40
30.0
176
     1
 62
     7
176
     1
 90
        1
176
     1
 90
        2
176
     1
 62
     7
176
     1
 62
   257
176
     1
 90
        2
176
     1
 90
        1
176
     1
 40
1.0
176
     1
 90
        8
176
     1
 62
   257
176
     1
 40
1.0
176
     1
 90
        1
176
     1
 90
        6
176
     1
 90
        2
176
     1
 62
     7
176
     1
 90
        3
176
     1
 90
        0
176
     1
 90
        0
176
     1
290
     0
176
     1
 90
        5
176
     1
 40
0.0
176
     1
 90
        0
176
     1
290
     0
176
     1
290
     1
176
     1
290
     1
176
     1
290
     0
176
     1
290
     0
176
     1
290
     0
176
     1
290
     0
176
     1
290
     0
176
     1
290
     0
176
     1
 90
       50
176
     1
 40
0.0
176
     1
 40
1.0
176
     1
 90
        0
176
     1
 62
    18
176
     1
 90
       50
176
     1
 90
        3
176
     1
 62
     5
420
      255
176
     1
290
     0
176
     1
 90
       50
176
     1
 90
       50
176
     1
 90
       50
176
     1
290
     0
176
     1
 90
       50
176
     1
 62
   256
176
     0
 40
1.0
176
     0
 90
        2
176
     1
  1
strokes_ogs.tif
176
     1
290
     0
176
     1
 40
1.0
176
     1
 40
1.0
176
     1
1001
ACAD
1000
AcDbSavedByObjectVersion
1070
     0
  0
VISUALSTYLE
  5
A3B9
102
{ACAD_REACTORS
330
1D92
102
}
330
1D92
100
AcDbVisualStyle
  2
Shades of Gray
 70
    23
177
     3
291
     0
 70
    58
 90
        2
176
     1
 90
        2
176
     1
 90
        3
176
     1
 90
        0
176
     1
 40
0.6
176
     1
 40
30.0
176
     1
 62
     7
176
     1
 90
        2
176
     1
 90
        2
176
     1
 62
     7
176
     1
 62
     7
176
     1
 90
        1
176
     1
 90
        1
176
     1
 40
40.0
176
     1
 90
        8
176
     1
 62
     7
176
     1
 40
1.0
176
     1
 90
        1
176
     1
 90
        6
176
     1
 90
        2
176
     1
 62
     7
176
     1
 90
        3
176
     1
 90
        0
176
     1
 90
        0
176
     1
290
     0
176
     1
 90
        1
176
     1
 40
0.0
176
     1
 90
        0
176
     1
290
     0
176
     1
290
     1
176
     1
290
     1
176
     1
290
     0
176
     1
290
     0
176
     1
290
     0
176
     1
290
     0
176
     1
290
     0
176
     1
290
     0
176
     1
 90
       50
176
     1
 40
0.0
176
     1
 40
1.0
176
     1
 90
        0
176
     1
 62
    18
176
     1
 90
       50
176
     1
 90
        3
176
     1
 62
     5
420
      255
176
     1
290
     0
176
     1
 90
       50
176
     1
 90
       50
176
     1
 90
       50
176
     1
290
     0
176
     1
 90
       50
176
     1
 62
   256
176
     0
 40
1.0
176
     0
 90
        2
176
     1
  1
strokes_ogs.tif
176
     1
290
     0
176
     1
 40
1.0
176
     1
 40
1.0
176
     1
1001
ACAD
1000
AcDbSavedByObjectVersion
1070
     0
  0
VISUALSTYLE
  5
A3BA
102
{ACAD_REACTORS
330
1D92
102
}
330
1D92
100
AcDbVisualStyle
  2
Sketchy
 70
    24
177
     3
291
     0
 70
    58
 90
        1
176
     1
 90
        2
176
     1
 90
        2
176
     1
 90
        0
176
     1
 40
0.6
176
     1
 40
30.0
176
     1
 62
     7
176
     1
 90
        2
176
     1
 90
        2
176
     1
 62
     7
176
     1
 62
     7
176
     1
 90
        1
176
     1
 90
        1
176
     1
 40
40.0
176
     1
 90
       11
176
     1
 62
     7
176
     1
 40
1.0
176
     1
 90
        1
176
     1
 90
        6
176
     1
 90
        2
176
     1
 62
     7
176
     1
 90
        6
176
     1
 90
        0
176
     1
 90
        0
176
     1
290
     0
176
     1
 90
        1
176
     1
 40
0.0
176
     1
 90
        0
176
     1
290
     0
176
     1
290
     1
176
     1
290
     1
176
     1
290
     0
176
     1
290
     0
176
     1
290
     0
176
     1
290
     0
176
     1
290
     0
176
     1
290
     0
176
     1
 90
       50
176
     1
 40
0.0
176
     1
 40
1.0
176
     1
 90
        0
176
     1
 62
    18
176
     1
 90
       50
176
     1
 90
        3
176
     1
 62
     5
420
      255
176
     1
290
     0
176
     1
 90
       50
176
     1
 90
       50
176
     1
 90
       50
176
     1
290
     0
176
     1
 90
       50
176
     1
 62
   256
176
     0
 40
1.0
176
     0
 90
        2
176
     1
  1
strokes_ogs.tif
176
     1
290
     0
176
     1
 40
1.0
176
     1
 40
1.0
176
     1
1001
ACAD
1000
AcDbSavedByObjectVersion
1070
     0
  0
VISUALSTYLE
  5
1D9F
102
{ACAD_REACTORS
330
1D92
102
}
330
1D92
100
AcDbVisualStyle
  2
Thicken
 70
    13
177
     3
291
     1
 70
    58
 90
        2
176
     1
 90
        2
176
     1
 90
        0
176
     1
 90
        0
176
     1
 40
0.6
176
     1
 40
30.0
176
     1
 62
     7
176
     1
 90
        1
176
     1
 90
        4
176
     1
 62
     7
176
     1
 62
   257
176
     1
 90
        1
176
     1
 90
        1
176
     1
 40
1.0
176
     1
 90
       12
176
     1
 62
     7
176
     1
 40
1.0
176
     1
 90
        1
176
     1
 90
        6
176
     1
 90
        2
176
     1
 62
     7
176
     1
 90
        5
176
     1
 90
        0
176
     1
 90
        0
176
     1
290
     0
176
     1
 90
        1
176
     1
 40
0.0
176
     1
 90
        0
176
     1
290
     0
176
     1
290
     1
176
     1
290
     1
176
     1
290
     0
176
     1
290
     0
176
     1
290
     0
176
     1
290
     0
176
     1
290
     0
176
     1
290
     0
176
     1
 90
       50
176
     1
 40
0.0
176
     1
 40
1.0
176
     1
 90
        0
176
     1
 62
    18
176
     1
 90
       50
176
     1
 90
        3
176
     1
 62
     5
420
      255
176
     1
290
     0
176
     1
 90
       50
176
     1
 90
       50
176
     1
 90
       50
176
     1
290
     0
176
     1
 90
       50
176
     1
 62
   256
176
     0
 40
1.0
176
     0
 90
        2
176
     1
  1
strokes_ogs.tif
176
     1
290
     0
176
     1
 40
1.0
176
     1
 40
1.0
176
     1
1001
ACAD
1000
AcDbSavedByObjectVersion
1070
     0
  0
VISUALSTYLE
  5
A3B7
102
{ACAD_REACTORS
330
1D92
102
}
330
1D92
100
AcDbVisualStyle
  2
Wireframe
 70
     5
177
     3
291
     0
 70
    58
 90
        0
176
     1
 90
        2
176
     1
 90
        0
176
     1
 90
        0
176
     1
 40
0.6
176
     1
 40
30.0
176
     1
 62
     7
176
     1
 90
        1
176
     1
 90
        4
176
     1
 62
     7
176
     1
 62
   257
176
     1
 90
        1
176
     1
 90
        1
176
     1
 40
1.0
176
     1
 90
        0
176
     1
 62
   257
176
     1
 40
1.0
176
     1
 90
        1
176
     1
 90
        6
176
     1
 90
        2
176
     1
 62
     7
176
     1
 90
        3
176
     1
 90
        0
176
     1
 90
        0
176
     1
290
     0
176
     1
 90
        1
176
     1
 40
0.0
176
     1
 90
        0
176
     1
290
     0
176
     1
290
     1
176
     1
290
     1
176
     1
290
     0
176
     1
290
     0
176
     1
290
     0
176
     1
290
     0
176
     1
290
     0
176
     1
290
     0
176
     1
 90
       50
176
     1
 40
0.0
176
     1
 40
1.0
176
     1
 90
        0
176
     1
 62
    18
176
     1
 90
       50
176
     1
 90
        3
176
     1
 62
     5
420
      255
176
     1
290
     0
176
     1
 90
       50
176
     1
 90
       50
176
     1
 90
       50
176
     1
290
     0
176
     1
 90
       50
176
     1
 62
   256
176
     0
 40
1.0
176
     0
 90
        2
176
     1
  1
strokes_ogs.tif
176
     1
290
     0
176
     1
 40
1.0
176
     1
 40
1.0
176
     1
1001
ACAD
1000
AcDbSavedByObjectVersion
1070
     0
  0
VISUALSTYLE
  5
A3BB
102
{ACAD_REACTORS
330
1D92
102
}
330
1D92
100
AcDbVisualStyle
  2
X-Ray
 70
    25
177
     3
291
     0
 70
    58
 90
        2
176
     1
 90
        2
176
     1
 90
        1
176
     1
 90
        1
176
     1
 40
0.5
176
     1
 40
30.0
176
     1
 62
     7
176
     1
 90
        1
176
     1
 90
        0
176
     1
 62
     7
176
     1
 62
   257
176
     1
 90
        1
176
     1
 90
        1
176
     1
 40
1.0
176
     1
 90
        8
176
     1
 62
     7
176
     1
 40
1.0
176
     1
 90
        1
176
     1
 90
        6
176
     1
 90
        2
176
     1
 62
     7
176
     1
 90
        3
176
     1
 90
        0
176
     1
 90
        0
176
     1
290
     0
176
     1
 90
       13
176
     1
 40
0.0
176
     1
 90
        0
176
     1
290
     0
176
     1
290
     1
176
     1
290
     1
176
     1
290
     0
176
     1
290
     0
176
     1
290
     0
176
     1
290
     0
176
     1
290
     0
176
     1
290
     0
176
     1
 90
       50
176
     1
 40
0.0
176
     1
 40
1.0
176
     1
 90
        0
176
     1
 62
    18
176
     1
 90
       50
176
     1
 90
        3
176
     1
 62
     5
420
      255
176
     1
290
     0
176
     1
 90
       50
176
     1
 90
       50
176
     1
 90
       50
176
     1
290
     0
176
     1
 90
       50
176
     1
 62
   256
176
     0
 40
1.0
176
     0
 90
        2
176
     1
  1
strokes_ogs.tif
176
     1
290
     0
176
     1
 40
1.0
176
     1
 40
1.0
176
     1
1001
ACAD
1000
AcDbSavedByObjectVersion
1070
     0
  0
DICTIONARYVAR
  5
2569
102
{ACAD_REACTORS
330
4C
102
}
330
4C
100
DictionaryVariables
280
     0
  1
1:1
  0
DICTIONARYVAR
  5
2567
102
{ACAD_REACTORS
330
4C
102
}
330
4C
100
DictionaryVariables
280
     0
  1
STANDARD
  0
DICTIONARYVAR
  5
4D
102
{ACAD_REACTORS
330
4C
102
}
330
4C
100
DictionaryVariables
280
     0
  1
STANDARD
  0
DICTIONARYVAR
  5
31C1B
102
{ACAD_REACTORS
330
4C
102
}
330
4C
100
DictionaryVariables
280
     0
  1
Metric50
  0
DICTIONARYVAR
  5
31C1C
102
{ACAD_REACTORS
330
4C
102
}
330
4C
100
DictionaryVariables
280
     0
  1
Metric50
  0
DICTIONARYVAR
  5
83
102
{ACAD_REACTORS
330
4C
102
}
330
4C
100
DictionaryVariables
280
     0
  1
2
  0
DICTIONARYVAR
  5
82
102
{ACAD_REACTORS
330
4C
102
}
330
4C
100
DictionaryVariables
280
     0
  1
1
  0
DICTIONARYVAR
  5
597E
102
{ACAD_REACTORS
330
4C
102
}
330
4C
100
DictionaryVariables
280
     0
  1
0
  0
DICTIONARYVAR
  5
A45A
102
{ACAD_REACTORS
330
4C
102
}
330
4C
100
DictionaryVariables
280
     0
  1
1
  0
DICTIONARYVAR
  5
A45B
102
{ACAD_REACTORS
330
4C
102
}
330
4C
100
DictionaryVariables
280
     0
  1
15
  0
DICTIONARYVAR
  5
256A
102
{ACAD_REACTORS
330
4C
102
}
330
4C
100
DictionaryVariables
280
     0
  1
0
  0
DICTIONARYVAR
  5
597C
102
{ACAD_REACTORS
330
4C
102
}
330
4C
100
DictionaryVariables
280
     0
  1
1.000000
  0
DICTIONARYVAR
  5
2568
102
{ACAD_REACTORS
330
4C
102
}
330
4C
100
DictionaryVariables
280
     0
  1
0
  0
DICTIONARYVAR
  5
84
102
{ACAD_REACTORS
330
4C
102
}
330
4C
100
DictionaryVariables
280
     0
  1

  0
DICTIONARYVAR
  5
32E01
102
{ACAD_REACTORS
330
4C
102
}
330
4C
100
DictionaryVariables
280
     0
  1
1
  0
DICTIONARYVAR
  5
597D
102
{ACAD_REACTORS
330
4C
102
}
330
4C
100
DictionaryVariables
280
     0
  1
127
  0
DICTIONARY
  5
33DBE
102
{ACAD_REACTORS
330
33DBC
102
}
330
33DBC
100
AcDbDictionary
281
     1
  0
DICTIONARY
  5
33DBD
102
{ACAD_REACTORS
330
33DBC
102
}
330
33DBC
100
AcDbDictionary
281
     1
  3
2553317449584
350
33DB7
  3
2553317452800
350
33DB8
  3
2553317452816
350
33DB9
  3
2553317452832
350
33DBA
  3
2553317452848
350
33DBB
  0
DICTIONARY
  5
33DC1
330
31BF4
100
AcDbDictionary
280
     1
281
     1
  3
ACAD_XREC_ROUNDTRIP
360
33DC2
  0
DICTIONARY
  5
31D19
330
31D05
100
AcDbDictionary
280
     1
281
     1
  0
DICTIONARY
  5
59CC
330
26
100
AcDbDictionary
280
     1
281
     1
  0
DICTIONARY
  5
33DBF
330
31BF2
100
AcDbDictionary
280
     1
281
     1
  3
ACAD_XREC_ROUNDTRIP
360
33DC0
  0
DICTIONARY
  5
2563
330
1E
100
AcDbDictionary
280
     1
281
     1
  3
ACAD_ROUNDTRIP_2008_TABLESTYLE_CELLSTYLEMAP
360
33DB5
  0
XRECORD
  5
33DB7
102
{ACAD_REACTORS
330
33DBD
102
}
330
33DBD
100
AcDbXrecord
280
     1
  1
AcDb_Thumbnail_Schema
102
{ATTRRECORD
341
33DB8
  2
AcDbDs::TreatedAsObjectData
280
     1
291
     1
102
ATTRRECORD}
102
{ATTRRECORD
341
33DB9
  2
AcDbDs::Legacy
280
     1
291
     1
102
ATTRRECORD}
  2
AcDbDs::ID
280
    10
 91
        8
102
{ATTRRECORD
341
33DBA
  2
AcDs:Indexable
280
     1
291
     1
102
ATTRRECORD}
102
{ATTRRECORD
341
33DBB
  2
AcDbDs::HandleAttribute
280
     7
282
     1
102
ATTRRECORD}
  2
Thumbnail_Data
280
    15
 91
        0
  0
XRECORD
  5
33DB8
102
{ACAD_REACTORS
330
33DBD
102
}
330
33DBD
100
AcDbXrecord
280
     1
  1
AcDbDs::TreatedAsObjectDataSchema
  2
AcDbDs::TreatedAsObjectData
280
     1
 91
        0
  0
XRECORD
  5
33DB9
102
{ACAD_REACTORS
330
33DBD
102
}
330
33DBD
100
AcDbXrecord
280
     1
  1
AcDbDs::LegacySchema
  2
AcDbDs::Legacy
280
     1
 91
        0
  0
XRECORD
  5
33DBA
102
{ACAD_REACTORS
330
33DBD
102
}
330
33DBD
100
AcDbXrecord
280
     1
  1
AcDbDs::IndexedPropertySchema
  2
AcDs:Indexable
280
     1
 91
        0
  0
XRECORD
  5
33DBB
102
{ACAD_REACTORS
330
33DBD
102
}
330
33DBD
100
AcDbXrecord
280
     1
  1
AcDbDs::HandleAttributeSchema
  2
AcDbDs::HandleAttribute
280
     7
 91
        1
284
     1
  0
XRECORD
  5
33DC2
102
{ACAD_REACTORS
330
33DC1
102
}
330
33DC1
100
AcDbXrecord
280
     1
102
DISPLAYNAME
  1
Metric50
102
FLAGS
 90
        0
  0
XRECORD
  5
33DC0
102
{ACAD_REACTORS
330
33DBF
102
}
330
33DBF
100
AcDbXrecord
280
     1
102
DISPLAYNAME
  1
Metric50
102
FLAGS
 90
        0
  0
CELLSTYLEMAP
  5
33DB5
102
{ACAD_REACTORS
330
2563
102
}
330
2563
100
AcDbCellStyleMap
 90
        3
300
CELLSTYLE
  1
TABLEFORMAT_BEGIN
 90
        5
170
     1
 91
        0
 92
    32768
 62
   257
 93
        1
300
CONTENTFORMAT
  1
CONTENTFORMAT_BEGIN
 90
        0
 91
        0
 92
        4
 93
        0
300

 40
0.0
140
1.0
 94
        5
 62
     0
340
11
144
6.0
309
CONTENTFORMAT_END
171
     1
301
MARGIN
  1
CELLMARGIN_BEGIN
 40
1.5
 40
1.5
 40
1.5
 40
1.5
 40
0.18
 40
0.18
309
CELLMARGIN_END
 94
        6
 95
        1
302
GRIDFORMAT
  1
GRIDFORMAT_BEGIN
 90
        0
 91
        1
 62
     0
 92
       -2
340
0
 93
        0
 40
0.045
309
GRIDFORMAT_END
 95
        2
302
GRIDFORMAT
  1
GRIDFORMAT_BEGIN
 90
        0
 91
        1
 62
     0
 92
       -2
340
0
 93
        0
 40
0.045
309
GRIDFORMAT_END
 95
        4
302
GRIDFORMAT
  1
GRIDFORMAT_BEGIN
 90
        0
 91
        1
 62
     0
 92
       -2
340
0
 93
        0
 40
0.045
309
GRIDFORMAT_END
 95
        8
302
GRIDFORMAT
  1
GRIDFORMAT_BEGIN
 90
        0
 91
        1
 62
     0
 92
       -2
340
0
 93
        0
 40
0.045
309
GRIDFORMAT_END
 95
       16
302
GRIDFORMAT
  1
GRIDFORMAT_BEGIN
 90
        0
 91
        1
 62
     0
 92
       -2
340
0
 93
        0
 40
0.045
309
GRIDFORMAT_END
 95
       32
302
GRIDFORMAT
  1
GRIDFORMAT_BEGIN
 90
        0
 91
        1
 62
     0
 92
       -2
340
0
 93
        0
 40
0.045
309
GRIDFORMAT_END
309
TABLEFORMAT_END
  1
CELLSTYLE_BEGIN
 90
        1
 91
        1
300
_TITLE
309
CELLSTYLE_END
300
CELLSTYLE
  1
TABLEFORMAT_BEGIN
 90
        5
170
     1
 91
        0
 92
        0
 62
   257
 93
        1
300
CONTENTFORMAT
  1
CONTENTFORMAT_BEGIN
 90
        0
 91
        0
 92
        4
 93
        0
300

 40
0.0
140
1.0
 94
        5
 62
     0
340
11
144
4.5
309
CONTENTFORMAT_END
171
     1
301
MARGIN
  1
CELLMARGIN_BEGIN
 40
1.5
 40
1.5
 40
1.5
 40
1.5
 40
0.18
 40
0.18
309
CELLMARGIN_END
 94
        6
 95
        1
302
GRIDFORMAT
  1
GRIDFORMAT_BEGIN
 90
        0
 91
        1
 62
     0
 92
       -2
340
0
 93
        0
 40
0.045
309
GRIDFORMAT_END
 95
        2
302
GRIDFORMAT
  1
GRIDFORMAT_BEGIN
 90
        0
 91
        1
 62
     0
 92
       -2
340
0
 93
        0
 40
0.045
309
GRIDFORMAT_END
 95
        4
302
GRIDFORMAT
  1
GRIDFORMAT_BEGIN
 90
        0
 91
        1
 62
     0
 92
       -2
340
0
 93
        0
 40
0.045
309
GRIDFORMAT_END
 95
        8
302
GRIDFORMAT
  1
GRIDFORMAT_BEGIN
 90
        0
 91
        1
 62
     0
 92
       -2
340
0
 93
        0
 40
0.045
309
GRIDFORMAT_END
 95
       16
302
GRIDFORMAT
  1
GRIDFORMAT_BEGIN
 90
        0
 91
        1
 62
     0
 92
       -2
340
0
 93
        0
 40
0.045
309
GRIDFORMAT_END
 95
       32
302
GRIDFORMAT
  1
GRIDFORMAT_BEGIN
 90
        0
 91
        1
 62
     0
 92
       -2
340
0
 93
        0
 40
0.045
309
GRIDFORMAT_END
309
TABLEFORMAT_END
  1
CELLSTYLE_BEGIN
 90
        2
 91
        1
300
_HEADER
309
CELLSTYLE_END
300
CELLSTYLE
  1
TABLEFORMAT_BEGIN
 90
        5
170
     1
 91
        0
 92
        0
 62
   257
 93
        1
300
CONTENTFORMAT
  1
CONTENTFORMAT_BEGIN
 90
        0
 91
        0
 92
        4
 93
        0
300

 40
0.0
140
1.0
 94
        2
 62
     0
340
11
144
4.5
309
CONTENTFORMAT_END
171
     1
301
MARGIN
  1
CELLMARGIN_BEGIN
 40
1.5
 40
1.5
 40
1.5
 40
1.5
 40
0.18
 40
0.18
309
CELLMARGIN_END
 94
        6
 95
        1
302
GRIDFORMAT
  1
GRIDFORMAT_BEGIN
 90
        0
 91
        1
 62
     0
 92
       -2
340
0
 93
        0
 40
0.045
309
GRIDFORMAT_END
 95
        2
302
GRIDFORMAT
  1
GRIDFORMAT_BEGIN
 90
        0
 91
        1
 62
     0
 92
       -2
340
0
 93
        0
 40
0.045
309
GRIDFORMAT_END
 95
        4
302
GRIDFORMAT
  1
GRIDFORMAT_BEGIN
 90
        0
 91
        1
 62
     0
 92
       -2
340
0
 93
        0
 40
0.045
309
GRIDFORMAT_END
 95
        8
302
GRIDFORMAT
  1
GRIDFORMAT_BEGIN
 90
        0
 91
        1
 62
     0
 92
       -2
340
0
 93
        0
 40
0.045
309
GRIDFORMAT_END
 95
       16
302
GRIDFORMAT
  1
GRIDFORMAT_BEGIN
 90
        0
 91
        1
 62
     0
 92
       -2
340
0
 93
        0
 40
0.045
309
GRIDFORMAT_END
 95
       32
302
GRIDFORMAT
  1
GRIDFORMAT_BEGIN
 90
        0
 91
        1
 62
     0
 92
       -2
340
0
 93
        0
 40
0.045
309
GRIDFORMAT_END
309
TABLEFORMAT_END
  1
CELLSTYLE_BEGIN
 90
        3
 91
        2
300
_DATA
309
CELLSTYLE_END
  0
ENDSEC
  0
SECTION
  2
ACDSDATA
 70
     2
 71
     8
  0
ACDSSCHEMA
 90
        0
  1
AcDb_Thumbnail_Schema
  2
AcDbDs::ID
280
    10
 91
        8
  2
Thumbnail_Data
280
    15
 91
        0
101
ACDSRECORD
 95
        0
 90
        1
  2
AcDbDs::TreatedAsObjectData
280
     1
291
     1
101
ACDSRECORD
 95
        0
 90
        2
  2
AcDbDs::Legacy
280
     1
291
     1
101
ACDSRECORD
  1
AcDbDs::ID
 90
        3
  2
AcDs:Indexable
280
     1
291
     1
101
ACDSRECORD
  1
AcDbDs::ID
 90
        4
  2
AcDbDs::HandleAttribute
280
     7
282
     1
  0
ACDSSCHEMA
 90
        1
  1
AcDbDs::TreatedAsObjectDataSchema
  2
AcDbDs::TreatedAsObjectData
280
     1
 91
        0
  0
ACDSSCHEMA
 90
        2
  1
AcDbDs::LegacySchema
  2
AcDbDs::Legacy
280
     1
 91
        0
  0
ACDSSCHEMA
 90
        3
  1
AcDbDs::IndexedPropertySchema
  2
AcDs:Indexable
280
     1
 91
        0
  0
ACDSSCHEMA
 90
        4
  1
AcDbDs::HandleAttributeSchema
  2
AcDbDs::HandleAttribute
280
     7
 91
        1
284
     1
  0
ACDSRECORD
 90
        0
  2
AcDbDs::ID
280
    10
320
31D05
  2
Thumbnail_Data
280
    15
 94
     1149
310
89504E470D0A1A0A0000000D4948445200000100000000B5080300000087DCD12600000300504C5445FFFFFFFFFFFFFFFFFF0000000000000000000000000000000000000000000000000000330000660000990000CC0000FF0033000033330033660033990033CC0033FF0066000066330066660066990066CC0066FF0099
310
000099330099660099990099CC0099FF00CC0000CC3300CC6600CC9900CCCC00CCFF00FF0000FF3300FF6600FF9900FFCC00FFFF3300003300333300663300993300CC3300FF3333003333333333663333993333CC3333FF3366003366333366663366993366CC3366FF3399003399333399663399993399CC3399FF33CC00
310
33CC3333CC6633CC9933CCCC33CCFF33FF0033FF3333FF6633FF9933FFCC33FFFF6600006600336600666600996600CC6600FF6633006633336633666633996633CC6633FF6666006666336666666666996666CC6666FF6699006699336699666699996699CC6699FF66CC0066CC3366CC6666CC9966CCCC66CCFF66FF0066
310
FF3366FF6666FF9966FFCC66FFFF9900009900339900669900999900CC9900FF9933009933339933669933999933CC9933FF9966009966339966669966999966CC9966FF9999009999339999669999999999CC9999FF99CC0099CC3399CC6699CC9999CCCC99CCFF99FF0099FF3399FF6699FF9999FFCC99FFFFCC0000CC00
310
33CC0066CC0099CC00CCCC00FFCC3300CC3333CC3366CC3399CC33CCCC33FFCC6600CC6633CC6666CC6699CC66CCCC66FFCC9900CC9933CC9966CC9999CC99CCCC99FFCCCC00CCCC33CCCC66CCCC99CCCCCCCCCCFFCCFF00CCFF33CCFF66CCFF99CCFFCCCCFFFFFF0000FF0033FF0066FF0099FF00CCFF00FFFF3300FF3333
310
FF3366FF3399FF33CCFF33FFFF6600FF6633FF6666FF6699FF66CCFF66FFFF9900FF9933FF9966FF9999FF99CCFF99FFFFCC00FFCC33FFCC66FFCC99FFCCCCFFCCFFFFFF00FFFF33FFFF66FFFF99FFFFCCFFFFFF0000000D0D0D1A1A1A2828283535354343435050505D5D5D6B6B6B787878868686939393A1A1A1AEAEAEBB
310
BBBBC9C9C9D6D6D6E4E4E4F1F1F1FFFFFF000000000000000000000000000000000000000000000000000000000000AD4AB4E4000001384944415478DAEDD5B10DC0201004C1EFBF288A214414619C115A22B1B8B98002C6B0AE39B257B3C20700C05A5F0B3CD36F0080ED0900488F20001104208200441080080210410022
310
B8AD5DB113801B3E713B88208014800E2011A00078022208C0131041009E800802F0171041002208400401882000110420820044108008021041002208400401882000110420820044108008021041002208400401882000110420820044108008021041002208400401882000110420820044108008021041002208400401
310
88200011042082004410800802104100220840040188200011042082004410800802104100220840040188200011042082004410800802104100220840040188E0FF01AED8410413160CF021820052003A001104208200441080080210410099115C0B3CD36F400100F0028CECD50CDF03159D3F26F9088E9E000000004945
310
4E44AE426082
  0
ACDSRECORD
 90
        0
  2
AcDbDs::ID
280
    10
320
26
  2
Thumbnail_Data
280
    15
 94
     1564
310
89504E470D0A1A0A0000000D4948445200000100000000900803000000D0BD45A300000300504C5445212830FFFFFF2128300000000000000000000000000000000000000000000000000000330000660000990000CC0000FF0033000033330033660033990033CC0033FF0066000066330066660066990066CC0066FF0099
310
000099330099660099990099CC0099FF00CC0000CC3300CC6600CC9900CCCC00CCFF00FF0000FF3300FF6600FF9900FFCC00FFFF3300003300333300663300993300CC3300FF3333003333333333663333993333CC3333FF3366003366333366663366993366CC3366FF3399003399333399663399993399CC3399FF33CC00
310
33CC3333CC6633CC9933CCCC33CCFF33FF0033FF3333FF6633FF9933FFCC33FFFF6600006600336600666600996600CC6600FF6633006633336633666633996633CC6633FF6666006666336666666666996666CC6666FF6699006699336699666699996699CC6699FF66CC0066CC3366CC6666CC9966CCCC66CCFF66FF0066
310
FF3366FF6666FF9966FFCC66FFFF9900009900339900669900999900CC9900FF9933009933339933669933999933CC9933FF9966009966339966669966999966CC9966FF9999009999339999669999999999CC9999FF99CC0099CC3399CC6699CC9999CCCC99CCFF99FF0099FF3399FF6699FF9999FFCC99FFFFCC0000CC00
310
33CC0066CC0099CC00CCCC00FFCC3300CC3333CC3366CC3399CC33CCCC33FFCC6600CC6633CC6666CC6699CC66CCCC66FFCC9900CC9933CC9966CC9999CC99CCCC99FFCCCC00CCCC33CCCC66CCCC99CCCCCCCCCCFFCCFF00CCFF33CCFF66CCFF99CCFFCCCCFFFFFF0000FF0033FF0066FF0099FF00CCFF00FFFF3300FF3333
310
FF3366FF3399FF33CCFF33FFFF6600FF6633FF6666FF6699FF66CCFF66FFFF9900FF9933FF9966FF9999FF99CCFF99FFFFCC00FFCC33FFCC66FFCC99FFCCCCFFCCFFFFFF00FFFF33FFFF66FFFF99FFFFCCFFFFFF0000000D0D0D1A1A1A2828283535354343435050505D5D5D6B6B6B787878868686939393A1A1A1AEAEAEBB
310
BBBBC9C9C9D6D6D6E4E4E4F1F1F1FFFFFF0000000000000000000000000000000000000000000000000000000000002E4550F1000002D74944415478DAED9DDB7283300C44FDFFFFBBEF9D4E6926D342906F6225ADDF9824209DAC64838DDC5A4703DAF2B6E39C9BDA2E53A31040C03347B132421820F4E9031888E2FE9313
310
409A8B509B0601A8ED3F2D01A4BC9400701A0501A8ED3F2381EA0090FE8202C0660E0440004AFB2F004C04D004A034003401284D004D000460F4A7DFAD2A805FE7C7192098FF38DAFF7F1E6FAD4315E10058648FA91602C0CBD3EBA3E1FFF6110618FBDE15004CE7555E0076214F3901F00278FBF29F9005DE453CE9021059
310
010D0BF2BB23828E1CF8D3C9DD5A8E251D1C6801B8288072AADAD4572F4882CE04D0E17CB30E66D0E210B08F5A8F4E001F73D442004E04560358693A88013884002D808FA970290017028349D00700D7C2CDA38B77EB05580158C6B0687108F48C0405C03D049896AF3FA300220964554037809A0A38EE73CB0240F510F89D
310
EEB0280095016C98FA2001703C12C6ECD40F6E91D126415B2F800F2170FA010100EB2504C01002F70018274CAD00B044017D1EA1250310F98900B0200432009002A480E20AA80C00EB87C20C007AA60632DE0CAD0410F276B817C0CDF2A8780F447A67C7EA2AE0F548E07EF09E16806D91486605F8AD12235580DF2A314600
310
967703568700D92211EB50271800FBE4D0C5986EDF732CCACA466E1D40E32EED84F36304F47F10C0B9EC11D07F5A055407405EDA6A7B0878BE36024205D057B6C2F92122FABF2404420318B9DC5605B8BF3DC805E081F74799002048519F4D3900612A9AEC500010A89CC5158070AFCF0F0398323E4145494CFDBE3A801455
310
656762204561E10909E4A82C9D0E40771E1B0E01D6F2F270524096FD05460130EFB1010700DCBBAC607B0E60DF6707BB159068A3A1210099B69A1A0A8108DB8D0D46731E0083BE1404903504A4000150084801022000CA015280002804629D5A0022581964FF7501A80E609F9D02200002509A4018FF0540008AFBBFC9D6EA
310
0022F9BFC55A0168B50904F35F00561BFCB4FF5F88A19ED8719BA3630000000049454E44AE426082
  0
ENDSEC
  0
EOF
