  0
SECTION
  2
HEADER
  9
$ACADVER
  1
AC1024
  9
$ACADMAINTVER
 70
   183
  9
$DWGCODEPAGE
  3
ANSI_1252
  9
$LASTSAVEDBY
  1
Zeichner
  9
$INSBASE
 10
0.0
 20
0.0
 30
0.0
  9
$EXTMIN
 10
197.2199003700145
 20
214.7665990970744
 30
-0.0015258207003583
  9
$EXTMAX
 10
5441.166121130014
 20
4829.713901066061
 30
0.0000000349246037
  9
$LIMMIN
 10
0.0
 20
0.0
  9
$LIMMAX
 10
210.0
 20
297.0
  9
$ORTHOMODE
 70
     0
  9
$REGENMODE
 70
     1
  9
$FILLMODE
 70
     1
  9
$QTEXTMODE
 70
     0
  9
$MIRRTEXT
 70
     0
  9
$LTSCALE
 40
1.0
  9
$ATTMODE
 70
     1
  9
$TEXTSIZE
 40
100.0
  9
$TRACEWID
 40
1.0
  9
$TEXTSTYLE
  7
100
  9
$CLAYER
  8
Kontur 25
  9
$CELTYPE
  6
ByLayer
  9
$CECOLOR
 62
   256
  9
$CELTSCALE
 40
1.0
  9
$DISPSILH
 70
     0
  9
$DIMSCALE
 40
1.0
  9
$DIMASZ
 40
100.0
  9
$DIMEXO
 40
30.0
  9
$DIMDLI
 40
100.0
  9
$DIMRND
 40
0.0
  9
$DIMDLE
 40
0.0
  9
$DIMEXE
 40
20.0
  9
$DIMTP
 40
0.0
  9
$DIMTM
 40
0.0
  9
$DIMTXT
 40
100.0
  9
$DIMCEN
 40
100.0
  9
$DIMTSZ
 40
0.0
  9
$DIMTOL
 70
     0
  9
$DIMLIM
 70
     0
  9
$DIMTIH
 70
     0
  9
$DIMTOH
 70
     0
  9
$DIMSE1
 70
     0
  9
$DIMSE2
 70
     0
  9
$DIMTAD
 70
     1
  9
$DIMZIN
 70
     8
  9
$DIMBLK
  1

  9
$DIMASO
 70
     1
  9
$DIMSHO
 70
     1
  9
$DIMPOST
  1

  9
$DIMAPOST
  1

  9
$DIMALT
 70
     0
  9
$DIMALTD
 70
     3
  9
$DIMALTF
 40
0.03937007874016
  9
$DIMLFAC
 40
1.0
  9
$DIMTOFL
 70
     1
  9
$DIMTVP
 40
0.0
  9
$DIMTIX
 70
     0
  9
$DIMSOXD
 70
     0
  9
$DIMSAH
 70
     0
  9
$DIMBLK1
  1

  9
$DIMBLK2
  1

  9
$DIMSTYLE
  2
100
  9
$DIMCLRD
 70
     0
  9
$DIMCLRE
 70
     0
  9
$DIMCLRT
 70
     0
  9
$DIMTFAC
 40
1.0
  9
$DIMGAP
 40
20.0
  9
$DIMJUST
 70
     0
  9
$DIMSD1
 70
     0
  9
$DIMSD2
 70
     0
  9
$DIMTOLJ
 70
     0
  9
$DIMTZIN
 70
     8
  9
$DIMALTZ
 70
     0
  9
$DIMALTTZ
 70
     0
  9
$DIMUPT
 70
     0
  9
$DIMDEC
 70
     2
  9
$DIMTDEC
 70
     2
  9
$DIMALTU
 70
     2
  9
$DIMALTTD
 70
     3
  9
$DIMTXSTY
  7
Standard
  9
$DIMAUNIT
 70
     0
  9
$DIMADEC
 70
     2
  9
$DIMALTRND
 40
0.0
  9
$DIMAZIN
 70
     0
  9
$DIMDSEP
 70
    44
  9
$DIMATFIT
 70
     3
  9
$DIMFRAC
 70
     0
  9
$DIMLDRBLK
  1

  9
$DIMLUNIT
 70
     2
  9
$DIMLWD
 70
    -2
  9
$DIMLWE
 70
    -2
  9
$DIMTMOVE
 70
     0
  9
$DIMFXL
 40
1.0
  9
$DIMFXLON
 70
     0
  9
$DIMJOGANG
 40
1.570796326794896
  9
$DIMTFILL
 70
     0
  9
$DIMTFILLCLR
 70
     0
  9
$DIMARCSYM
 70
     0
  9
$DIMLTYPE
  6
ByBlock
  9
$DIMLTEX1
  6
ByBlock
  9
$DIMLTEX2
  6
ByBlock
  9
$DIMTXTDIRECTION
 70
     0
  9
$LUNITS
 70
     2
  9
$LUPREC
 70
     2
  9
$SKETCHINC
 40
1.0
  9
$FILLETRAD
 40
0.0
  9
$AUNITS
 70
     0
  9
$AUPREC
 70
     0
  9
$MENU
  1
.
  9
$ELEVATION
 40
0.0
  9
$PELEVATION
 40
0.0
  9
$THICKNESS
 40
0.0
  9
$LIMCHECK
 70
     0
  9
$CHAMFERA
 40
0.0
  9
$CHAMFERB
 40
0.0
  9
$CHAMFERC
 40
0.0
  9
$CHAMFERD
 40
0.0
  9
$SKPOLY
 70
     0
  9
$TDCREATE
 40
2453325.357163981
  9
$TDUCREATE
 40
2453325.315497315
  9
$TDUPDATE
 40
2457435.299258183
  9
$TDUUPDATE
 40
2457435.257591516
  9
$TDINDWG
 40
4.7839556944
  9
$TDUSRTIMER
 40
4.7839538889
  9
$USRTIMER
 70
     1
  9
$ANGBASE
 50
0.0
  9
$ANGDIR
 70
     0
  9
$PDMODE
 70
     0
  9
$PDSIZE
 40
0.0
  9
$PLINEWID
 40
0.0
  9
$SPLFRAME
 70
     0
  9
$SPLINETYPE
 70
     6
  9
$SPLINESEGS
 70
     8
  9
$HANDSEED
  5
3A55E
  9
$SURFTAB1
 70
     6
  9
$SURFTAB2
 70
     6
  9
$SURFTYPE
 70
     6
  9
$SURFU
 70
     6
  9
$SURFV
 70
     6
  9
$UCSBASE
  2

  9
$UCSNAME
  2

  9
$UCSORG
 10
0.0
 20
0.0
 30
0.0
  9
$UCSXDIR
 10
1.0
 20
0.0
 30
0.0
  9
$UCSYDIR
 10
0.0
 20
1.0
 30
0.0
  9
$UCSORTHOREF
  2

  9
$UCSORTHOVIEW
 70
     0
  9
$UCSORGTOP
 10
0.0
 20
0.0
 30
0.0
  9
$UCSORGBOTTOM
 10
0.0
 20
0.0
 30
0.0
  9
$UCSORGLEFT
 10
0.0
 20
0.0
 30
0.0
  9
$UCSORGRIGHT
 10
0.0
 20
0.0
 30
0.0
  9
$UCSORGFRONT
 10
0.0
 20
0.0
 30
0.0
  9
$UCSORGBACK
 10
0.0
 20
0.0
 30
0.0
  9
$PUCSBASE
  2

  9
$PUCSNAME
  2

  9
$PUCSORG
 10
0.0
 20
0.0
 30
0.0
  9
$PUCSXDIR
 10
1.0
 20
0.0
 30
0.0
  9
$PUCSYDIR
 10
0.0
 20
1.0
 30
0.0
  9
$PUCSORTHOREF
  2

  9
$PUCSORTHOVIEW
 70
     0
  9
$PUCSORGTOP
 10
0.0
 20
0.0
 30
0.0
  9
$PUCSORGBOTTOM
 10
0.0
 20
0.0
 30
0.0
  9
$PUCSORGLEFT
 10
0.0
 20
0.0
 30
0.0
  9
$PUCSORGRIGHT
 10
0.0
 20
0.0
 30
0.0
  9
$PUCSORGFRONT
 10
0.0
 20
0.0
 30
0.0
  9
$PUCSORGBACK
 10
0.0
 20
0.0
 30
0.0
  9
$USERI1
 70
     0
  9
$USERI2
 70
     0
  9
$USERI3
 70
     0
  9
$USERI4
 70
     0
  9
$USERI5
 70
     0
  9
$USERR1
 40
0.0
  9
$USERR2
 40
0.0
  9
$USERR3
 40
0.0
  9
$USERR4
 40
0.0
  9
$USERR5
 40
0.0
  9
$WORLDVIEW
 70
     1
  9
$SHADEDGE
 70
     3
  9
$SHADEDIF
 70
    70
  9
$TILEMODE
 70
     1
  9
$MAXACTVP
 70
    64
  9
$PINSBASE
 10
0.0
 20
0.0
 30
0.0
  9
$PLIMCHECK
 70
     0
  9
$PEXTMIN
 10
2.455500926958166
 20
-107.3633929224151
 30
0.0
  9
$PEXTMAX
 10
289.1205251029935
 20
302.4338438862712
 30
0.0
  9
$PLIMMIN
 10
-2.635227827915969
 20
-112.4174557166379
  9
$PLIMMAX
 10
294.2907670451309
 20
307.5291995567996
  9
$UNITMODE
 70
     0
  9
$VISRETAIN
 70
     1
  9
$PLINEGEN
 70
     0
  9
$PSLTSCALE
 70
     1
  9
$TREEDEPTH
 70
  3020
  9
$CMLSTYLE
  2
Standard
  9
$CMLJUST
 70
     0
  9
$CMLSCALE
 40
20.0
  9
$PROXYGRAPHICS
 70
     1
  9
$MEASUREMENT
 70
     1
  9
$CELWEIGHT
370
    -1
  9
$ENDCAPS
280
     0
  9
$JOINSTYLE
280
     0
  9
$LWDISPLAY
290
     0
  9
$INSUNITS
 70
     4
  9
$HYPERLINKBASE
  1

  9
$STYLESHEET
  1
monochrome.ctb
  9
$XEDIT
290
     1
  9
$CEPSNTYPE
380
     0
  9
$PSTYLEMODE
290
     1
  9
$FINGERPRINTGUID
  2
{84C6DA88-BD7E-44D7-AD8D-086D7E86F6BE}
  9
$VERSIONGUID
  2
{DB874E7D-F66E-4C1D-9774-5A3F8102FC9A}
  9
$EXTNAMES
290
     1
  9
$PSVPSCALE
 40
0.0
  9
$OLESTARTUP
290
     0
  9
$SORTENTS
280
   127
  9
$INDEXCTL
280
     0
  9
$HIDETEXT
280
     1
  9
$XCLIPFRAME
280
     2
  9
$HALOGAP
280
     0
  9
$OBSCOLOR
 70
   257
  9
$OBSLTYPE
280
     0
  9
$INTERSECTIONDISPLAY
280
     0
  9
$INTERSECTIONCOLOR
 70
   257
  9
$DIMASSOC
280
     2
  9
$PROJECTNAME
  1

  9
$CAMERADISPLAY
290
     0
  9
$LENSLENGTH
 40
50.0
  9
$CAMERAHEIGHT
 40
0.0
  9
$STEPSPERSEC
 40
2.0
  9
$STEPSIZE
 40
6.0
  9
$3DDWFPREC
 40
2.0
  9
$PSOLWIDTH
 40
0.25
  9
$PSOLHEIGHT
 40
4.0
  9
$LOFTANG1
 40
1.570796326794896
  9
$LOFTANG2
 40
1.570796326794896
  9
$LOFTMAG1
 40
0.0
  9
$LOFTMAG2
 40
0.0
  9
$LOFTPARAM
 70
     7
  9
$LOFTNORMALS
280
     1
  9
$LATITUDE
 40
37.795
  9
$LONGITUDE
 40
-122.394
  9
$NORTHDIRECTION
 40
0.0
  9
$TIMEZONE
 70
 -8000
  9
$LIGHTGLYPHDISPLAY
280
     1
  9
$TILEMODELIGHTSYNCH
280
     1
  9
$CMATERIAL
347
1D8F
  9
$SOLIDHIST
280
     0
  9
$SHOWHIST
280
     1
  9
$DWFFRAME
280
     2
  9
$DGNFRAME
280
     0
  9
$REALWORLDSCALE
290
     1
  9
$INTERFERECOLOR
 62
     1
  9
$INTERFEREOBJVS
345
1D9C
  9
$INTERFEREVPVS
346
1D99
  9
$CSHADOW
280
     0
  9
$SHADOWPLANELOCATION
 40
0.0
  0
ENDSEC
  0
SECTION
  2
CLASSES
  0
CLASS
  1
ACDBDICTIONARYWDFLT
  2
AcDbDictionaryWithDefault
  3
ObjectDBX Classes
 90
        0
 91
        1
280
     0
281
     0
  0
CLASS
  1
TABLESTYLE
  2
AcDbTableStyle
  3
ObjectDBX Classes
 90
     4095
 91
        2
280
     0
281
     0
  0
CLASS
  1
DICTIONARYVAR
  2
AcDbDictionaryVar
  3
ObjectDBX Classes
 90
        0
 91
       16
280
     0
281
     0
  0
CLASS
  1
ACDBPLACEHOLDER
  2
AcDbPlaceHolder
  3
ObjectDBX Classes
 90
        0
 91
        1
280
     0
281
     0
  0
CLASS
  1
LAYOUT
  2
AcDbLayout
  3
ObjectDBX Classes
 90
        0
 91
        7
280
     0
281
     0
  0
CLASS
  1
DIMASSOC
  2
AcDbDimAssoc
  3
"AcDbDimAssoc|Product Desc:     AcDim ARX App For Dimension|Company:          Autodesk, Inc.|WEB Address:      www.autodesk.com"
 90
        0
 91
       12
280
     0
281
     0
  0
CLASS
  1
SORTENTSTABLE
  2
AcDbSortentsTable
  3
ObjectDBX Classes
 90
        0
 91
       13
280
     0
281
     0
  0
CLASS
  1
MATERIAL
  2
AcDbMaterial
  3
ObjectDBX Classes
 90
     1153
 91
        3
280
     0
281
     0
  0
CLASS
  1
VISUALSTYLE
  2
AcDbVisualStyle
  3
ObjectDBX Classes
 90
     4095
 91
       26
280
     0
281
     0
  0
CLASS
  1
ACAD_EVALUATION_GRAPH
  2
AcDbEvalGraph
  3
ObjectDBX Classes
 90
     1153
 91
        0
280
     0
281
     0
  0
CLASS
  1
ACAECUSTOBJ
  2
AcAeEditorObj
  3
AcAeEditorObj
 90
     1024
 91
        0
280
     0
281
     0
  0
CLASS
  1
ACDB_DYNAMICBLOCKPURGEPREVENTER_VERSION
  2
AcDbDynamicBlockPurgePreventer
  3
ObjectDBX Classes
 90
     1153
 91
        0
280
     0
281
     0
  0
CLASS
  1
SCALE
  2
AcDbScale
  3
ObjectDBX Classes
 90
     1153
 91
       23
280
     0
281
     0
  0
CLASS
  1
MLEADERSTYLE
  2
AcDbMLeaderStyle
  3
ACDB_MLEADERSTYLE_CLASS
 90
     4095
 91
        1
280
     0
281
     0
  0
CLASS
  1
CELLSTYLEMAP
  2
AcDbCellStyleMap
  3
ObjectDBX Classes
 90
     1152
 91
        1
280
     0
281
     0
  0
CLASS
  1
MULTILEADER
  2
AcDbMLeader
  3
ACDB_MLEADER_CLASS
 90
     1025
 91
        0
280
     0
281
     1
  0
CLASS
  1
AEC_REFEDIT_STATUS_TRACKER
  2
AecDbRefEditStatusTracker
  3
AecArchBase60|Product Desc: Autodesk Architectural Desktop 2007 |Company: Autodesk,Inc. |WEB Address: www.autodesk.com
 90
      129
 91
        0
280
     0
281
     0
  0
CLASS
  1
NPOCOLLECTION
  2
AcDbImpNonPersistentObjectsCollection
  3
ObjectDBX Classes
 90
     1153
 91
        0
280
     0
281
     0
  0
CLASS
  1
IMAGEDEF
  2
AcDbRasterImageDef
  3
ISM
 90
        0
 91
        2
280
     0
281
     0
  0
CLASS
  1
RASTERVARIABLES
  2
AcDbRasterVariables
  3
ISM
 90
        0
 91
        1
280
     0
281
     0
  0
CLASS
  1
IMAGEDEF_REACTOR
  2
AcDbRasterImageDefReactor
  3
ISM
 90
        1
 91
       10
280
     0
281
     0
  0
CLASS
  1
IMAGE
  2
AcDbRasterImage
  3
ISM
 90
     2175
 91
       10
280
     0
281
     1
  0
CLASS
  1
ACDB_BLOCKREPRESENTATION_DATA
  2
AcDbBlockRepresentationData
  3
ObjectDBX Classes
 90
     1153
 91
        0
280
     0
281
     0
  0
CLASS
  1
SOLID_BACKGROUND
  2
AcDbSolidBackground
  3
SCENEOE
 90
     4095
 91
        0
280
     0
281
     0
  0
CLASS
  1
EXACXREFPANELOBJECT
  2
ExAcXREFPanelObject
  3
EXAC_ESW
 90
     1025
 91
        0
280
     0
281
     0
  0
CLASS
  1
WIPEOUT
  2
AcDbWipeout
  3
WipeOut|Product Desc: Object Enabler for WipeOut entity | Company: Autodesk, Inc. | WEB Address: www.autodesk.com
 90
     2175
 91
        0
280
     0
281
     1
  0
CLASS
  1
WIPEOUTVARIABLES
  2
AcDbWipeoutVariables
  3
"WipeOut|Product Desc:     WipeOut Dbx Application|Company:          Autodesk, Inc.|WEB Address:      www.autodesk.com"
 90
        0
 91
        1
280
     0
281
     0
  0
CLASS
  1
ARC_DIMENSION
  2
AcDbArcDimension
  3
ObjectDBX Classes
 90
     1025
 91
        0
280
     0
281
     1
  0
CLASS
  1
PDFDEFINITION
  2
AcDbPdfDefinition
  3
ObjectDBX Classes
 90
     1153
 91
        0
280
     0
281
     0
  0
CLASS
  1
PDFUNDERLAY
  2
AcDbPdfReference
  3
ObjectDBX Classes
 90
     4095
 91
        0
280
     0
281
     1
  0
CLASS
  1
ACDBSECTIONVIEWSTYLE
  2
AcDbSectionViewStyle
  3
ObjectDBX Classes
 90
     1025
 91
        2
280
     0
281
     0
  0
CLASS
  1
ACDBDETAILVIEWSTYLE
  2
AcDbDetailViewStyle
  3
ObjectDBX Classes
 90
     1025
 91
        2
280
     0
281
     0
  0
CLASS
  1
ACAD_TABLE
  2
AcDbTable
  3
ObjectDBX Classes
 90
     1025
 91
        1
280
     0
281
     1
  0
CLASS
  1
TABLECONTENT
  2
AcDbTableContent
  3
ObjectDBX Classes
 90
     1152
 91
        1
280
     0
281
     0
  0
CLASS
  1
TABLEGEOMETRY
  2
AcDbTableGeometry
  3
ObjectDBX Classes
 90
     1152
 91
        1
280
     0
281
     0
  0
CLASS
  1
DATATABLE
  2
AcDbDataTable
  3
ObjectDBX Classes
 90
        0
 91
        0
280
     0
281
     0
  0
CLASS
  1
ACME_DOCUMENT
  2
AcMeDbDoc
  3
AcMeServices
 90
     1024
 91
        0
280
     0
281
     0
  0
CLASS
  1
AMGSETTINGSOBJ
  2
AmgSettingsObj
  3
"AcadM|Product Description: AutoCAD Mechanical|Company: Autodesk, Inc."
 90
     1024
 91
        2
280
     0
281
     0
  0
CLASS
  1
ACMESCOPE
  2
AcMeScope
  3
AcMeServices
 90
     1024
 91
        1
280
     0
281
     0
  0
CLASS
  1
ACMECOMMANDHISTORY
  2
AcMeCommandHistory
  3
AcMeServices
 90
     1024
 91
        1
280
     0
281
     0
  0
CLASS
  1
ACIMSYSVARMAN
  2
AcImSysVarManager
  3
AcMeServices
 90
     1024
 91
        3
280
     0
281
     0
  0
CLASS
  1
ACIMINTSYSVAR
  2
AcImIntSysVar
  3
AcMeServices
 90
     1024
 91
        2
280
     0
281
     0
  0
CLASS
  1
ACMESTATEMGR
  2
AcMeStateMgr
  3
AcMeServices
 90
     1024
 91
        1
280
     0
281
     0
  0
CLASS
  1
ACDBENTITYCACHE
  2
AcMeEntityCache
  3
AcMeServices
 90
     1024
 91
        0
280
     0
281
     0
  0
CLASS
  1
ACGREFMASTER
  2
AcGrefMaster
  3
AcAttribServices
 90
     1024
 91
        1
280
     0
281
     0
  0
CLASS
  1
ACME_DATABASE
  2
AcMeDbDatabase
  3
AcMeServices
 90
     1024
 91
        0
280
     0
281
     0
  0
CLASS
  1
ACRFINSADJUSTERMGR
  2
AcRfInsAdjusterMgr
  3
AcMeServices
 90
     1024
 91
        0
280
     0
281
     0
  0
CLASS
  1
ACGREFACADMASTER
  2
AcGrefacadMaster
  3
AcGrefServices
 90
     1024
 91
        1
280
     0
281
     0
  0
CLASS
  1
AMDTMENUSTATEMGR
  2
AmdtMenuStateMgr
  3
McadcomServices
 90
     1024
 91
        0
280
     0
281
     0
  0
CLASS
  1
AMDTMCOMMENUSTATE
  2
AmdtMcomMenuState
  3
McadcomServices
 90
     1024
 91
        0
280
     0
281
     0
  0
CLASS
  1
AMIMASTER
  2
AmiMaster
  3
AmiServices
 90
     1024
 91
        1
280
     0
281
     0
  0
CLASS
  1
MAPIAMMOUDLE
  2
MApiAmModule
  3
MApiAmServices
 90
     1024
 91
        1
280
     0
281
     0
  0
CLASS
  1
ACIMSTRSYSVAR
  2
AcImStrSysVar
  3
AcMeServices
 90
     1024
 91
        5
280
     0
281
     0
  0
CLASS
  1
AMDTAMMENUSTATE
  2
AmdtAmMenuState
  3
DesignerAssemblies
 90
     1024
 91
        0
280
     0
281
     0
  0
CLASS
  1
ACAMPROJECT
  2
AcAmProject
  3
DesignerAssemblies
 90
     1024
 91
        1
280
     0
281
     0
  0
CLASS
  1
ACAMGRCOMPDEF
  2
AcAmGrCompDef
  3
DesignerAssemblies
 90
     1024
 91
        1
280
     0
281
     0
  0
CLASS
  1
ACAMCOMPDEF
  2
AcAmCompDef
  3
DesignerAssemblies
 90
     1024
 91
        1
280
     0
281
     0
  0
CLASS
  1
ACAMCOMPDEFMGR
  2
AcAmCompDefMgr
  3
DesignerAssemblies
 90
     1024
 91
        1
280
     0
281
     0
  0
CLASS
  1
AMCONTEXTMGR
  2
AcAmContextMgr
  3
DesignerAssemblies
 90
     1024
 91
        1
280
     0
281
     0
  0
CLASS
  1
ACAMCONTEXTMODELER
  2
AcAmContextModeler
  3
DesignerAssemblies
 90
     1024
 91
        1
280
     0
281
     0
  0
CLASS
  1
ACMDATADICTIONARY
  2
AcmDataDictionary
  3
"AcmSymBB|Product Description: AutoCAD Mechanical|Company: Autodesk, Inc."
 90
     1024
 91
        1
280
     0
281
     0
  0
CLASS
  1
ACAMGRCOMPDEFSET
  2
AcAmGrCompDefSet
  3
DesignerAssemblies
 90
     1024
 91
        0
280
     0
281
     0
  0
CLASS
  1
AMDTBROWSERDBTAB
  2
AmdtBrowserDbTab
  3
McadcomServices
 90
     1024
 91
        0
280
     0
281
     0
  0
CLASS
  1
CBROWSERAPPOBJECT
  2
CBrowserAppObject
  3
McadcomServices
 90
     1024
 91
        0
280
     0
281
     0
  0
CLASS
  1
DM_PLACEHOLDER
  2
AcDmSelsetPlaceholder
  3
McadcomServices
 90
     1024
 91
        0
280
     0
281
     0
  0
CLASS
  1
ACMSTANDARDDIN
  2
AcmStandardDIN
  3
"Amdt_StdImp|Product Description: AutoCAD Mechanical|Company: Autodesk, Inc."
 90
     1024
 91
        1
280
     0
281
     0
  0
CLASS
  1
AMDTEDGESTANDARDDIN13715
  2
AmdtEdgeStdDIN13715
  3
"Amdt_StdImp|Product Description: AutoCAD Mechanical|Company: Autodesk, Inc."
 90
     1024
 91
        1
280
     0
281
     0
  0
CLASS
  1
ACMSURFSTANDARDDIN2002
  2
AcmSurfTextStdDIN2002
  3
"Amdt_StdImp|Product Description: AutoCAD Mechanical|Company: Autodesk, Inc."
 90
     1024
 91
        1
280
     0
281
     0
  0
CLASS
  1
ACMFCFSTANDARDDIN2008
  2
AcmFCFStdDIN2008
  3
"Amdt_StdImp|Product Description: AutoCAD Mechanical|Company: Autodesk, Inc."
 90
     1024
 91
        1
280
     0
281
     0
  0
CLASS
  1
ACMWELDSTANDARDDIN
  2
AcmWeldingStdDIN
  3
"Amdt_StdImp|Product Description: AutoCAD Mechanical|Company: Autodesk, Inc."
 90
     1024
 91
        1
280
     0
281
     0
  0
CLASS
  1
ACMIDSTANDARDDIN2012
  2
AcmIdStdDIN2012
  3
"Amdt_StdImp|Product Description: AutoCAD Mechanical|Company: Autodesk, Inc."
 90
     1024
 91
        1
280
     0
281
     0
  0
CLASS
  1
ACMDATUMSTANDARDDIN2008
  2
AcmDatumStdDIN2008
  3
"Amdt_StdImp|Product Description: AutoCAD Mechanical|Company: Autodesk, Inc."
 90
     1024
 91
        1
280
     0
281
     0
  0
CLASS
  1
ACMBOMSTANDARDDIN
  2
AcmBOMStdDIN
  3
"Amdt_StdImp|Product Description: AutoCAD Mechanical|Company: Autodesk, Inc."
 90
     1024
 91
        1
280
     0
281
     0
  0
CLASS
  1
ACMDETAILSTANDARDDIN
  2
AmdtDetailSymStdDIN
  3
"Amdt_StdImp|Product Description: AutoCAD Mechanical|Company: Autodesk, Inc."
 90
     1024
 91
        1
280
     0
281
     0
  0
CLASS
  1
ACMSECTIONSTANDARDDIN
  2
AmdtSectionSymStdDIN
  3
"Amdt_StdImp|Product Description: AutoCAD Mechanical|Company: Autodesk, Inc."
 90
     1024
 91
        1
280
     0
281
     0
  0
CLASS
  1
ACMCENTERLINESTANDARDDIN
  2
AmdtCenterLineStdDIN
  3
"Amdt_StdImp|Product Description: AutoCAD Mechanical|Company: Autodesk, Inc."
 90
     1024
 91
        1
280
     0
281
     0
  0
CLASS
  1
ACMTHREADLINESTANDARDDIN
  2
AmdtThreadLineStdDIN
  3
"Amdt_StdImp|Product Description: AutoCAD Mechanical|Company: Autodesk, Inc."
 90
     1024
 91
        1
280
     0
281
     0
  0
CLASS
  1
ACMNOTESTANDARDDIN
  2
AmdtNoteStdDIN
  3
"Amdt_StdImp|Product Description: AutoCAD Mechanical|Company: Autodesk, Inc."
 90
     1024
 91
        1
280
     0
281
     0
  0
CLASS
  1
ACMTAPERSTANDARDDIN
  2
AcmTaperStdDIN
  3
"Amdt_StdImp|Product Description: AutoCAD Mechanical|Company: Autodesk, Inc."
 90
     1024
 91
        1
280
     0
281
     0
  0
CLASS
  1
ACMANOOTATIONVIEWSTANDARDDIN
  2
AmdtAnViewStdDIN
  3
"Amdt_StdImp|Product Description: AutoCAD Mechanical|Company: Autodesk, Inc."
 90
     1024
 91
        1
280
     0
281
     0
  0
CLASS
  1
ACAMGLAYSTD
  2
AcAmgLayStd
  3
"AmgLay|Product Description: AutoCAD Mechanical|Company: Autodesk, Inc."
 90
     1024
 91
        1
280
     0
281
     0
  0
CLASS
  1
ACAMGDIMSTD
  2
AcAmgDimStd
  3
"AmgDim|Product Description: AutoCAD Mechanical|Company: Autodesk, Inc."
 90
     1024
 91
        1
280
     0
281
     0
  0
CLASS
  1
AMGOBJPROPCFG
  2
AmgObjPropCfg
  3
"AmgLay|Product Description: AutoCAD Mechanical|Company: Autodesk, Inc."
 90
     1024
 91
        1
280
     0
281
     0
  0
CLASS
  1
ACAMGHOLECHARTSTDDIN
  2
AcAmgHoleChartStdDIN
  3
AmgDim|Product Description: AutoCAD Mechanical|Company: Autodesk, Inc.
 90
     1024
 91
        1
280
     0
281
     0
  0
CLASS
  1
ACAMGTITLESTD
  2
AcAmgTitleStd
  3
"AmgTitle|Product Description: AutoCAD Mechanical|Company: Autodesk, Inc."
 90
     1024
 91
        1
280
     0
281
     0
  0
CLASS
  1
ACMSECTIONSTANDARDCUSTOM
  2
AmdtSectionSymStdCustom
  3
"Amdt_StdImp|Product Description: AutoCAD Mechanical|Company: Autodesk, Inc."
 90
     1024
 91
        1
280
     0
281
     0
  0
CLASS
  1
ACMDETAILTANDARDCUSTOM
  2
AmdtDetailSymStdCustom
  3
"Amdt_StdImp|Product Description: AutoCAD Mechanical|Company: Autodesk, Inc."
 90
     1024
 91
        1
280
     0
281
     0
  0
CLASS
  1
FIELD
  2
AcDbField
  3
ObjectDBX Classes
 90
     1152
 91
        6
280
     0
281
     0
  0
CLASS
  1
FIELDLIST
  2
AcDbFieldList
  3
ObjectDBX Classes
 90
     1152
 91
        1
280
     0
281
     0
  0
CLASS
  1
AMDTNOTETEMPLATEDB
  2
AmdtNoteTemplateDB
  3
AcmSymBB|Product Description: AutoCAD Mechanical|Company: Autodesk, Inc.
 90
     1024
 91
        7
280
     0
281
     0
  0
CLASS
  1
ACAMGFILTERDAT
  2
AcAmgFilterDat
  3
"AcadM|Product Description: AutoCAD Mechanical|Company: Autodesk, Inc."
 90
     1024
 91
        0
280
     0
281
     0
  0
CLASS
  1
ACMDATAENTRYBLOCK
  2
AcmDataEntryBlock
  3
AcmSymBB|Product Description: AutoCAD Mechanical|Company: Autodesk, Inc.
 90
     1024
 91
        0
280
     0
281
     0
  0
CLASS
  1
ACRFATTGENMGR
  2
AcRfAttGeneralMgr
  3
AcAttribServices
 90
     1024
 91
        0
280
     0
281
     0
  0
CLASS
  1
ACRFOBJATTMGR
  2
AcRfObjAttGroupMgr
  3
AcAttribServices
 90
     1024
 91
        0
280
     0
281
     0
  0
CLASS
  1
ACRFMCADAPIATTHOLDER
  2
AcRfMCADAPIAttHolder
  3
AcAttribServices
 90
     1024
 91
        0
280
     0
281
     0
  0
CLASS
  1
AMDTSYSATTR
  2
AmdtSystemAttribute
  3
AcAttribServices
 90
     1024
 91
        0
280
     0
281
     0
  0
CLASS
  1
ACMBOM
  2
AcmBom
  3
"AcmSymBB|Product Description: AutoCAD Mechanical|Company: Autodesk, Inc."
 90
     1024
 91
        0
280
     0
281
     0
  0
CLASS
  1
AMDTFORMULAUPDATEDISPATCHER
  2
AmdtFormulaUpdateDispatcher
  3
AcMeServices
 90
     1024
 91
        0
280
     0
281
     0
  0
CLASS
  1
CAMSSTRUCTBTNSTATE
  2
StructBtnState
  3
DesignerAssemblies
 90
     1024
 91
        1
280
     0
281
     0
  0
ENDSEC
  0
SECTION
  2
TABLES
  0
TABLE
  2
VPORT
  5
8
102
{ACAD_XDICTIONARY
360
592E
102
}
330
0
100
AcDbSymbolTable
 70
     1
  0
VPORT
  5
1D8D
330
8
100
AcDbSymbolTableRecord
100
AcDbViewportTableRecord
  2
*Active
 70
     0
 10
0.0
 20
0.0
 11
1.0
 21
1.0
 12
199.9827063335615
 22
217.0095809560734
 13
0.0
 23
0.0
 14
10.0
 24
10.0
 15
10.0
 25
10.0
 16
0.0
 26
0.0
 36
1.0
 17
0.0
 27
0.0
 37
0.0
 40
9.732173658954634
 41
2.238950276243093
 42
50.0
 43
0.0
 44
0.0
 50
0.0
 51
0.0
 71
     0
 72
  1000
 73
     1
 74
     3
 75
     0
 76
     0
 77
     0
 78
     0
281
     0
 65
     0
110
0.0
120
0.0
130
0.0
111
1.0
121
0.0
131
0.0
112
0.0
122
1.0
132
0.0
 79
     0
146
0.0
348
1D98
 60
     3
 61
     5
292
     1
282
     1
141
0.0
142
0.0
 63
   250
421
  3355443
1001
ACAD_NAV_VCDISPLAY
1070
     3
  0
ENDTAB
  0
TABLE
  2
LTYPE
  5
5
330
0
100
AcDbSymbolTable
 70
    29
  0
LTYPE
  5
14
330
5
100
AcDbSymbolTableRecord
100
AcDbLinetypeTableRecord
  2
ByBlock
 70
     0
  3

 72
    65
 73
     0
 40
0.0
  0
LTYPE
  5
15
330
5
100
AcDbSymbolTableRecord
100
AcDbLinetypeTableRecord
  2
ByLayer
 70
     0
  3

 72
    65
 73
     0
 40
0.0
  0
LTYPE
  5
16
330
5
100
AcDbSymbolTableRecord
100
AcDbLinetypeTableRecord
  2
Continuous
 70
     0
  3
Solid line
 72
    65
 73
     0
 40
0.0
  0
LTYPE
  5
38200
330
5
100
AcDbSymbolTableRecord
100
AcDbLinetypeTableRecord
  2
Amconstr
 70
     0
  3
_______________________
 72
    65
 73
     2
 40
9999.0
 49
9999.0
 74
     0
 49
0.0
 74
     0
  0
LTYPE
  5
38203
330
5
100
AcDbSymbolTableRecord
100
AcDbLinetypeTableRecord
  2
Amzigzag
 70
     0
  3
/\/-/\/-/\/-/\/-/\/-/\/
 72
    65
 73
     2
 40
11.0001
 49
0.0001
 74
     4
 75
   136
340
3336A
 46
0.04
 50
0.0
 44
0.0
 45
0.0
 49
-11.0
 74
     0
  0
LTYPE
  5
38204
330
5
100
AcDbSymbolTableRecord
100
AcDbLinetypeTableRecord
  2
AM_DIN_F_W050
 70
     0
  3
__ __ __ __ __ __ __ __ __ __ __ __ __ __ __
 72
    65
 73
     2
 40
6.25
 49
4.75
 74
     0
 49
-1.5
 74
     0
  0
LTYPE
  5
38205
330
5
100
AcDbSymbolTableRecord
100
AcDbLinetypeTableRecord
  2
AM_DIN_G_W050
 70
     0
  3
____ . ____ . ____ . ____ . ____ . ____ . ____
 72
    65
 73
     4
 40
13.75
 49
9.75
 74
     0
 49
-1.5
 74
     0
 49
1.0
 74
     0
 49
-1.5
 74
     0
  0
LTYPE
  5
38206
330
5
100
AcDbSymbolTableRecord
100
AcDbLinetypeTableRecord
  2
AM_DIN_K_W050
 70
     0
  3
_____ . . _____ . . _____ . . ____ .. ____
 72
    65
 73
     6
 40
16.25
 49
9.75
 74
     0
 49
-1.5
 74
     0
 49
1.0
 74
     0
 49
-1.5
 74
     0
 49
1.0
 74
     0
 49
-1.5
 74
     0
  0
LTYPE
  5
38207
330
5
100
AcDbSymbolTableRecord
100
AcDbLinetypeTableRecord
  2
AM_DIN_G_W050x2
 70
     0
  3
__ . __ . __ . __ . __ . __
 72
    65
 73
     4
 40
6.875
 49
4.75
 74
     0
 49
-0.875
 74
     0
 49
0.375
 74
     0
 49
-0.875
 74
     0
  0
LTYPE
  5
38208
330
5
100
AcDbSymbolTableRecord
100
AcDbLinetypeTableRecord
  2
AM_DIN_F_W050x2
 70
     0
  3
 _ _ _ _ _ _ _ _ _ _ _ _
 72
    65
 73
     2
 40
3.125
 49
2.25
 74
     0
 49
-0.875
 74
     0
  0
LTYPE
  5
38219
330
5
100
AcDbSymbolTableRecord
100
AcDbLinetypeTableRecord
  2
ACDINWELD
 70
     0
  3
_ _ _ _ _
 72
    65
 73
     2
 40
2.0
 49
2.0
 74
     0
 49
-1.0
 74
     0
  0
LTYPE
  5
3821A
330
5
100
AcDbSymbolTableRecord
100
AcDbLinetypeTableRecord
  2
ACDINTGL
 70
     0
  3
_ _ _ _ _
 72
    65
 73
     2
 40
3.0
 49
2.0
 74
     0
 49
-1.0
 74
     0
  0
LTYPE
  5
3821B
330
5
100
AcDbSymbolTableRecord
100
AcDbLinetypeTableRecord
  2
ACDINTGB
 70
     0
  3
__ . . __ . .
 72
    65
 73
     6
 40
9.0
 49
4.0
 74
     0
 49
-1.0
 74
     0
 49
1.0
 74
     0
 49
-1.0
 74
     0
 49
1.0
 74
     0
 49
-1.0
 74
     0
  0
ENDTAB
  0
TABLE
  2
LAYER
  5
2
102
{ACAD_XDICTIONARY
360
48
102
}
330
0
100
AcDbSymbolTable
 70
    24
  0
LAYER
  5
10
102
{ACAD_XDICTIONARY
360
253B
102
}
330
2
100
AcDbSymbolTableRecord
100
AcDbLayerTableRecord
  2
0
 70
     0
 62
     7
  6
Continuous
370
    -3
390
F
347
1D91
  0
LAYER
  5
38
102
{ACAD_XDICTIONARY
360
253D
102
}
330
2
100
AcDbSymbolTableRecord
100
AcDbLayerTableRecord
  2
Text
 70
     0
 62
     3
  6
Continuous
370
    25
390
F
347
1D91
1001
AcAecLayerStandard
1000

1000

  0
LAYER
  5
3A
102
{ACAD_XDICTIONARY
360
253F
102
}
330
2
100
AcDbSymbolTableRecord
100
AcDbLayerTableRecord
  2
Bemaßung
 70
     0
 62
     9
  6
Continuous
370
     5
390
F
347
1D91
1001
AcAecLayerStandard
1000

1000

  0
LAYER
  5
3E
102
{ACAD_XDICTIONARY
360
2547
102
}
330
2
100
AcDbSymbolTableRecord
100
AcDbLayerTableRecord
  2
Kontur 25
 70
     0
 62
     7
  6
Continuous
370
    25
390
F
347
1D91
1001
AcAecLayerStandard
1000

1000

  0
LAYER
  5
3F
102
{ACAD_XDICTIONARY
360
2549
102
}
330
2
100
AcDbSymbolTableRecord
100
AcDbLayerTableRecord
  2
Kontur 18
 70
     0
 62
     1
  6
Continuous
370
    18
390
F
347
1D91
1001
AcAecLayerStandard
1000

1000

  0
LAYER
  5
42
102
{ACAD_XDICTIONARY
360
254F
102
}
330
2
100
AcDbSymbolTableRecord
100
AcDbLayerTableRecord
  2
Ansichtsfenster
 70
     0
 62
     7
  6
Continuous
290
     0
370
    -3
390
F
347
1D91
1001
AcAecLayerStandard
1000

1000

  0
LAYER
  5
2D3
330
2
100
AcDbSymbolTableRecord
100
AcDbLayerTableRecord
  2
Defpoints
 70
     0
 62
     7
  6
Continuous
290
     0
370
    -3
390
F
347
1D91
  0
LAYER
  5
3A470
330
2
100
AcDbSymbolTableRecord
100
AcDbLayerTableRecord
  2
ESF_Spielgeraet
 70
     0
 62
     7
  6
Continuous
370
    15
390
F
347
1D91
1001
AcAecLayerStandard
1000

1000

1001
ACCMTRANSPARENCY
1071
        0
  0
ENDTAB
  0
TABLE
  2
STYLE
  5
3
330
0
100
AcDbSymbolTable
 70
    14
  0
STYLE
  5
11
330
3
100
AcDbSymbolTableRecord
100
AcDbTextStyleTableRecord
  2
Standard
 70
     0
 40
0.0
 41
1.0
 50
0.0
 71
     0
 42
150.0
  3
tahoma.ttf
  4

1001
ACAD
1000
Tahoma
1071
       34
  0
STYLE
  5
BA8
330
3
100
AcDbSymbolTableRecord
100
AcDbTextStyleTableRecord
  2
100
 70
     0
 40
100.0
 41
1.0
 50
0.0
 71
     0
 42
100.0
  3
tahoma.ttf
  4

1001
ACAD
1000
Tahoma
1071
       34
  0
STYLE
  5
BA9
330
3
100
AcDbSymbolTableRecord
100
AcDbTextStyleTableRecord
  2
2.5
 70
     0
 40
2.5
 41
1.0
 50
0.0
 71
     0
 42
2.5
  3
tahoma.ttf
  4

1001
ACAD
1000
Tahoma
1071
       34
  0
STYLE
  5
3336A
330
3
100
AcDbSymbolTableRecord
100
AcDbTextStyleTableRecord
  2

 70
     1
 40
0.0
 41
1.0
 50
0.0
 71
     0
 42
100.0
  3
genltshp.shx
  4

  0
STYLE
  5
38218
330
3
100
AcDbSymbolTableRecord
100
AcDbTextStyleTableRecord
  2
ACDINGDT
 70
     0
 40
0.0
 41
1.0
 50
0.0
 71
     0
 42
100.0
  3
amgdt.shx
  4

  0
ENDTAB
  0
TABLE
  2
VIEW
  5
6
330
0
100
AcDbSymbolTable
 70
     0
  0
ENDTAB
  0
TABLE
  2
UCS
  5
7
330
0
100
AcDbSymbolTable
 70
     0
  0
ENDTAB
  0
TABLE
  2
APPID
  5
9
330
0
100
AcDbSymbolTable
 70
    42
  0
APPID
  5
12
330
9
100
AcDbSymbolTableRecord
100
AcDbRegAppTableRecord
  2
ACAD
 70
     0
  0
APPID
  5
2F
330
9
100
AcDbSymbolTableRecord
100
AcDbRegAppTableRecord
  2
ACAD_PSEXT
 70
     0
  0
APPID
  5
39
330
9
100
AcDbSymbolTableRecord
100
AcDbRegAppTableRecord
  2
AcAecLayerStandard
 70
     0
  0
APPID
  5
1DB7
330
9
100
AcDbSymbolTableRecord
100
AcDbRegAppTableRecord
  2
ACAD_EXEMPT_FROM_CAD_STANDARDS
 70
     0
  0
APPID
  5
2091
330
9
100
AcDbSymbolTableRecord
100
AcDbRegAppTableRecord
  2
ACAUTHENVIRON
 70
     0
  0
APPID
  5
2096
330
9
100
AcDbSymbolTableRecord
100
AcDbRegAppTableRecord
  2
AcDbDynamicBlockTrueName
 70
     0
  0
APPID
  5
2097
330
9
100
AcDbSymbolTableRecord
100
AcDbRegAppTableRecord
  2
AcDbDynamicBlockGUID
 70
     0
  0
APPID
  5
2099
330
9
100
AcDbSymbolTableRecord
100
AcDbRegAppTableRecord
  2
AcDbBlockRepETag
 70
     0
  0
APPID
  5
2115
330
9
100
AcDbSymbolTableRecord
100
AcDbRegAppTableRecord
  2
ACAD_DSTYLE_DIMTEXT_FILL
 70
     0
  0
APPID
  5
2116
330
9
100
AcDbSymbolTableRecord
100
AcDbRegAppTableRecord
  2
AcDbBlockRepBTag
 70
     0
  0
APPID
  5
252F
330
9
100
AcDbSymbolTableRecord
100
AcDbRegAppTableRecord
  2
ACAD_MLEADERVER
 70
     0
  0
APPID
  5
257F
330
9
100
AcDbSymbolTableRecord
100
AcDbRegAppTableRecord
  2
ACAD_DSTYLE_DIMJAG
 70
     0
  0
APPID
  5
2580
330
9
100
AcDbSymbolTableRecord
100
AcDbRegAppTableRecord
  2
ACAD_DSTYLE_DIMTALN
 70
     0
  0
APPID
  5
26EC
330
9
100
AcDbSymbolTableRecord
100
AcDbRegAppTableRecord
  2
ACADANNOAV
 70
     0
  0
APPID
  5
2738
330
9
100
AcDbSymbolTableRecord
100
AcDbRegAppTableRecord
  2
ACAD_DSTYLE_DIMBREAK
 70
     0
  0
APPID
  5
273B
330
9
100
AcDbSymbolTableRecord
100
AcDbRegAppTableRecord
  2
AcadAnnoPO
 70
     0
  0
APPID
  5
828C
330
9
100
AcDbSymbolTableRecord
100
AcDbRegAppTableRecord
  2
AcadAnnotative
 70
     0
  0
APPID
  5
C44A
330
9
100
AcDbSymbolTableRecord
100
AcDbRegAppTableRecord
  2
ACAD_DSTYLE_DIMRADIAL_EXTENSION
 70
     0
  0
APPID
  5
CB35
330
9
100
AcDbSymbolTableRecord
100
AcDbRegAppTableRecord
  2
GradientColor1ACI
 70
     0
  0
APPID
  5
CB36
330
9
100
AcDbSymbolTableRecord
100
AcDbRegAppTableRecord
  2
GradientColor2ACI
 70
     0
  0
APPID
  5
12C71
330
9
100
AcDbSymbolTableRecord
100
AcDbRegAppTableRecord
  2
ACCMTRANSPARENCY
 70
     0
  0
APPID
  5
2268C
330
9
100
AcDbSymbolTableRecord
100
AcDbRegAppTableRecord
  2
ADESKUNDERLAYLAYEROVERRIDEDATA
 70
     0
  0
APPID
  5
31C07
330
9
100
AcDbSymbolTableRecord
100
AcDbRegAppTableRecord
  2
ACAD_NAV_VCDISPLAY
 70
     0
  0
APPID
  5
33321
330
9
100
AcDbSymbolTableRecord
100
AcDbRegAppTableRecord
  2
MCAD_NO_VIS
 70
     0
  0
APPID
  5
33322
330
9
100
AcDbSymbolTableRecord
100
AcDbRegAppTableRecord
  2
ACAD_TEMP_GRAPHIC
 70
     0
  0
APPID
  5
3332F
330
9
100
AcDbSymbolTableRecord
100
AcDbRegAppTableRecord
  2
ACATTRIBSERVICES
 70
     0
  0
APPID
  5
33347
330
9
100
AcDbSymbolTableRecord
100
AcDbRegAppTableRecord
  2
DESIGNERASSEMBLIES
 70
     0
  0
APPID
  5
3339C
330
9
100
AcDbSymbolTableRecord
100
AcDbRegAppTableRecord
  2
GENIUS_GENSCREG_15
 70
     0
  0
APPID
  5
3339D
330
9
100
AcDbSymbolTableRecord
100
AcDbRegAppTableRecord
  2
GENIUS_GENODEF_13
 70
     0
  0
APPID
  5
3339E
330
9
100
AcDbSymbolTableRecord
100
AcDbRegAppTableRecord
  2
GENIUS_GENOBJ-N-SDF_13
 70
     0
  0
APPID
  5
35E1D
330
9
100
AcDbSymbolTableRecord
100
AcDbRegAppTableRecord
  2
ACAD_DSTYLE_DIMJOGGED_JOGANGLE_SYMBOL
 70
     0
  0
APPID
  5
35E1E
330
9
100
AcDbSymbolTableRecord
100
AcDbRegAppTableRecord
  2
ACAD_DSTYLE_DIM_LINETYPE
 70
     0
  0
APPID
  5
35E1F
330
9
100
AcDbSymbolTableRecord
100
AcDbRegAppTableRecord
  2
ACAD_DSTYLE_DIM_EXT1_LINETYPE
 70
     0
  0
APPID
  5
35E20
330
9
100
AcDbSymbolTableRecord
100
AcDbRegAppTableRecord
  2
ACAD_DSTYLE_DIM_EXT2_LINETYPE
 70
     0
  0
APPID
  5
38A07
330
9
100
AcDbSymbolTableRecord
100
AcDbRegAppTableRecord
  2
GENIUS_GENREC_14
 70
     0
  0
APPID
  5
38A08
330
9
100
AcDbSymbolTableRecord
100
AcDbRegAppTableRecord
  2
GENIUS_GENOBJ-N-REC_13
 70
     0
  0
APPID
  5
39897
330
9
100
AcDbSymbolTableRecord
100
AcDbRegAppTableRecord
  2
GENIUS_GENDTOL_13
 70
     0
  0
APPID
  5
39898
330
9
100
AcDbSymbolTableRecord
100
AcDbRegAppTableRecord
  2
ACAD_DSTYLE_DIMINSPECT
 70
     0
  0
APPID
  5
398AB
330
9
100
AcDbSymbolTableRecord
100
AcDbRegAppTableRecord
  2
AcadAnnoMonitorAlertIconDisabled
 70
     0
  0
APPID
  5
39AA9
330
9
100
AcDbSymbolTableRecord
100
AcDbRegAppTableRecord
  2
ACAD_DSTYLE_DIMANGULAR_EXTENSION
 70
     0
  0
APPID
  5
3A01D
330
9
100
AcDbSymbolTableRecord
100
AcDbRegAppTableRecord
  2
GENIUS_GENOBJ-N-CEN_13
 70
     0
  0
APPID
  5
3A01E
330
9
100
AcDbSymbolTableRecord
100
AcDbRegAppTableRecord
  2
GENIUS_GENCEN_19
 70
     0
  0
ENDTAB
  0
TABLE
  2
DIMSTYLE
  5
A
330
0
100
AcDbSymbolTable
 70
    29
100
AcDbDimStyleTable
 71
     1
340
BA4
  0
DIMSTYLE
105
BA4
330
A
100
AcDbSymbolTableRecord
100
AcDbDimStyleTableRecord
  2
100
 70
     0
 41
100.0
 42
30.0
 43
100.0
 44
20.0
 73
     0
 74
     0
 77
     1
 78
     8
140
100.0
141
100.0
143
0.03937007874016
147
20.0
171
     3
172
     1
179
     2
271
     2
272
     2
274
     3
278
    44
283
     0
284
     8
340
11
1001
ACAD_DSTYLE_DIMJAG
1070
   388
1040
1.5
1001
ACAD_DSTYLE_DIMTALN
1070
   392
1070
     0
  0
DIMSTYLE
105
BF95
330
A
100
AcDbSymbolTableRecord
100
AcDbDimStyleTableRecord
  2
STANDARD
 70
     0
340
11
  0
DIMSTYLE
105
381FB
102
{ACAD_REACTORS
330
3A134
102
}
330
A
100
AcDbSymbolTableRecord
100
AcDbDimStyleTableRecord
  2
AM_DIN
 70
     0
  4
"
 41
3.5
 42
1.0
 43
10.0
 44
1.0
 47
0.1
 48
0.1
 50
90.0
 73
     0
 74
     0
 77
     1
 78
     8
 79
     2
140
3.5
141
0.0
143
0.0393701
146
0.71
147
1.5
172
     1
176
   256
177
   256
178
     2
271
     2
272
     3
274
     4
283
     0
284
     8
340
11
345
14
346
14
347
14
371
    -1
372
    -1
1001
ACAD_DSTYLE_DIMJAG
1070
   388
1040
1.5
1001
ACAD_DSTYLE_DIMBREAK
1070
   391
1040
3.75
  0
DIMSTYLE
105
38209
330
A
100
AcDbSymbolTableRecord
100
AcDbDimStyleTableRecord
  2
AM_DIN$3
 70
     0
  4
"
 41
3.5
 42
1.0
 43
10.0
 44
1.0
 47
0.1
 48
0.1
 50
90.0
 73
     0
 77
     1
 78
     8
 79
     2
140
3.5
141
0.0
143
0.0393701
146
0.71
147
1.5
176
   256
177
   256
178
     2
271
     2
272
     3
274
     4
283
     0
284
     8
288
     1
289
     0
340
11
345
14
346
14
347
14
371
    -1
372
    -1
1001
ACAD_DSTYLE_DIMBREAK
1070
   391
1040
3.75
1001
ACAD_DSTYLE_DIMJAG
1070
   388
1040
1.5
  0
DIMSTYLE
105
3820A
330
A
100
AcDbSymbolTableRecord
100
AcDbDimStyleTableRecord
  2
AM_DIN$4
 70
     0
  4
"
 41
3.5
 42
1.0
 43
10.0
 44
1.0
 47
0.1
 48
0.1
 50
90.0
 73
     0
 77
     1
 78
     8
 79
     2
140
3.5
141
0.0
143
0.0393701
146
0.71
147
1.5
176
   256
177
   256
178
     2
271
     2
272
     3
274
     4
283
     0
284
     8
288
     1
289
     0
340
11
345
14
346
14
347
14
371
    -1
372
    -1
1001
ACAD_DSTYLE_DIMBREAK
1070
   391
1040
3.75
1001
ACAD_DSTYLE_DIMJAG
1070
   388
1040
1.5
  0
DIMSTYLE
105
3820B
330
A
100
AcDbSymbolTableRecord
100
AcDbDimStyleTableRecord
  2
AM_DIN$6
 70
     0
  4
"
 41
3.5
 42
1.0
 43
10.0
 44
1.0
 47
0.1
 48
0.1
 50
90.0
 73
     0
 74
     0
 78
     8
 79
     2
140
3.5
141
0.0
143
0.0393701
146
0.71
147
1.5
172
     1
176
   256
177
   256
178
     2
271
     2
272
     3
274
     4
283
     0
284
     8
340
11
345
14
346
14
347
14
371
    -1
372
    -1
1001
ACAD_DSTYLE_DIMBREAK
1070
   391
1040
3.75
1001
ACAD_DSTYLE_DIMJAG
1070
   388
1040
1.5
  0
DIMSTYLE
105
3820C
330
A
100
AcDbSymbolTableRecord
100
AcDbDimStyleTableRecord
  2
AM_DIN$7
 70
     0
  4
"
 41
3.5
 42
1.0
 43
10.0
 44
1.0
 47
0.1
 48
0.1
 50
90.0
 73
     0
 74
     0
 77
     1
 78
     8
 79
     2
140
3.5
141
0.0
143
0.0393701
146
0.71
147
1.5
172
     1
176
   256
177
   256
178
     2
271
     2
272
     3
274
     4
283
     0
284
     8
340
11
345
14
346
14
347
14
371
    -1
372
    -1
1001
ACAD_DSTYLE_DIMBREAK
1070
   391
1040
3.75
1001
ACAD_DSTYLE_DIMJAG
1070
   388
1040
1.5
  0
DIMSTYLE
105
3820D
330
A
100
AcDbSymbolTableRecord
100
AcDbDimStyleTableRecord
  2
AM_DIN$SF
 70
     0
  4
"
 41
3.5
 42
1.0
 43
10.0
 44
1.0
 47
0.1
 48
0.1
 50
90.0
 73
     0
 74
     0
 75
     1
 76
     1
 77
     1
 78
     8
 79
     2
140
3.5
141
0.0
143
0.0393701
146
0.71
147
1.5
172
     1
176
   256
177
   256
178
     2
271
     2
272
     3
274
     4
283
     0
284
     8
340
11
345
14
346
14
347
14
371
    -1
372
    -1
1001
ACAD_DSTYLE_DIMBREAK
1070
   391
1040
3.75
1001
ACAD_DSTYLE_DIMJAG
1070
   388
1040
1.5
  0
DIMSTYLE
105
38212
330
A
100
AcDbSymbolTableRecord
100
AcDbDimStyleTableRecord
  2
AM_DIN$SH
 70
     0
  4
"
 41
3.5
 42
1.0
 43
10.0
 44
1.0
 47
0.1
 48
0.1
 50
90.0
 73
     0
 74
     0
 75
     1
 76
     1
 77
     1
 78
     8
 79
     2
140
3.5
141
0.0
143
0.0393701
144
2.0
146
0.71
147
1.5
172
     1
173
     1
176
   256
177
   256
178
     2
271
     2
272
     3
274
     4
283
     0
284
     8
340
11
343
3820E
345
14
346
14
347
14
371
    -1
372
    -1
1001
ACAD_DSTYLE_DIMBREAK
1070
   391
1040
3.75
1001
ACAD_DSTYLE_DIMJAG
1070
   388
1040
1.5
  0
DIMSTYLE
105
3987D
102
{ACAD_REACTORS
330
3A50D
102
}
330
A
100
AcDbSymbolTableRecord
100
AcDbDimStyleTableRecord
  2
100$0
 70
     0
 41
100.0
 42
30.0
 43
100.0
 44
20.0
 73
     0
 74
     0
 77
     1
 78
     8
140
100.0
141
100.0
143
0.03937007874016
147
20.0
171
     3
172
     1
179
     2
271
     2
272
     2
274
     3
278
    44
283
     0
284
     8
340
11
1001
ACAD_DSTYLE_DIMBREAK
1070
   391
1040
3.75
1001
ACAD_DSTYLE_DIMJAG
1070
   388
1040
1.5
  0
ENDTAB
  0
TABLE
  2
BLOCK_RECORD
  5
1
330
0
100
AcDbSymbolTable
 70
    32
  0
BLOCK_RECORD
  5
23
102
{ACAD_XDICTIONARY
360
1FDD
102
}
330
1
100
AcDbSymbolTableRecord
100
AcDbBlockTableRecord
  2
*Model_Space
340
26
 70
     0
280
     1
281
     0
  0
BLOCK_RECORD
  5
32A3E
102
{ACAD_XDICTIONARY
360
32A3F
102
}
330
1
100
AcDbSymbolTableRecord
100
AcDbBlockTableRecord
  2
*Paper_Space
340
32A60
 70
     0
280
     1
281
     0
  0
BLOCK_RECORD
  5
D72C
102
{ACAD_XDICTIONARY
360
22BF0
102
}
330
1
100
AcDbSymbolTableRecord
100
AcDbBlockTableRecord
  2
Eigentum
340
0
102
{BLKREFS
331
2239F
331
223DF
331
3A519
331
32AEA
331
32B59
331
32EEE
331
35F9F
102
}
 70
     4
280
     1
281
     0
1001
AcDbDynamicBlockGUID
1000
{89490C01-1628-4992-B26F-174A79DA4DED}
  0
BLOCK_RECORD
  5
217C1
102
{ACAD_XDICTIONARY
360
2190A
102
}
330
1
100
AcDbSymbolTableRecord
100
AcDbBlockTableRecord
  2
Ausführungsgenehmigung
340
0
310
2800000020000000200000000100080000000000000400000000000000000000000000000000000000000000000080000080000000808000800000008000800080800000C0C0C000C0DCC000F0CAA6000020400000206000002080000020A0000020C0000020E00000400000004020000040400000406000004080000040A0
310
000040C0000040E00000600000006020000060400000606000006080000060A0000060C0000060E00000800000008020000080400000806000008080000080A0000080C0000080E00000A0000000A0200000A0400000A0600000A0800000A0A00000A0C00000A0E00000C0000000C0200000C0400000C0600000C0800000C0
310
A00000C0C00000C0E00000E0000000E0200000E0400000E0600000E0800000E0A00000E0C00000E0E00040000000400020004000400040006000400080004000A0004000C0004000E00040200000402020004020400040206000402080004020A0004020C0004020E000404000004040200040404000404060004040800040
310
40A0004040C0004040E00040600000406020004060400040606000406080004060A0004060C0004060E00040800000408020004080400040806000408080004080A0004080C0004080E00040A0000040A0200040A0400040A0600040A0800040A0A00040A0C00040A0E00040C0000040C0200040C0400040C0600040C08000
310
40C0A00040C0C00040C0E00040E0000040E0200040E0400040E0600040E0800040E0A00040E0C00040E0E00080000000800020008000400080006000800080008000A0008000C0008000E00080200000802020008020400080206000802080008020A0008020C0008020E00080400000804020008040400080406000804080
310
008040A0008040C0008040E00080600000806020008060400080606000806080008060A0008060C0008060E00080800000808020008080400080806000808080008080A0008080C0008080E00080A0000080A0200080A0400080A0600080A0800080A0A00080A0C00080A0E00080C0000080C0200080C0400080C0600080C0
310
800080C0A00080C0C00080C0E00080E0000080E0200080E0400080E0600080E0800080E0A00080E0C00080E0E000C0000000C0002000C0004000C0006000C0008000C000A000C000C000C000E000C0200000C0202000C0204000C0206000C0208000C020A000C020C000C020E000C0400000C0402000C0404000C0406000C0
310
408000C040A000C040C000C040E000C0600000C0602000C0604000C0606000C0608000C060A000C060C000C060E000C0800000C0802000C0804000C0806000C0808000C080A000C080C000C080E000C0A00000C0A02000C0A04000C0A06000C0A08000C0A0A000C0A0C000C0A0E000C0C00000C0C02000C0C04000C0C06000
310
C0C08000C0C0A000F0FBFF00A4A0A000808080000000FF0000FF000000FFFF00FF000000FF00FF00FFFF0000FFFFFF00FFFFFFFFFFFFFFFFFFFFFFFFFFFFFFFFFFFFFFFFFFFFFFFFFFFFFFFFFFFFFFFFFFFFFFFFFFFFFFFFFFFFFFFFFFFFFFFFFFFFFFFFFFFFFFFFFFFFFFFFFFFFFFFFFFFFFFFFFFFFFFFFFFFFFFFFFFFFFF
310
FFFFFFFFFFFFFFFFFFFFFFFFFFFFFFFFFFFFFFFFFFFFFFFFFFFFFFFFFFFFFFFFFFFFFFFFFFFFFFFFFFFFFFFFFFFFFFFFFFFFFFFFFFFFFFFFFFFFFFFFFFFFFFFFFFFFFFFFFFFFFFFFFFFFFFFFFFFFFFFFFFFFFFFFFFFFFFFFFFFFFFFFFFFFFFFFFFFFFFFFFFFFFFFFFFFFFFFFFFFFFFFFFFFFFFFFFFFFFFFFFFFFFFFFFFFFFF
310
FFFFFFFFFFFFFFFFFFFFFFFFFFFFFFFFFFFFFFFFFFFFFFFFFFFFFFFFFFFFFFFFFFFFFFFFFFFFFFFFFFFFFFFFFFFFFFFFFFFFFFFFFFFFFFFFFFFFFFFFFFFFFFFFFFFFFFFFFFFFFFFFFFFFFFFFFFFFFFFFFFFFFFFFFFFFFFFFFFFFFFFFFFFFFFFFFFFFFFFFFFFFFFFFFFFFFFFFFFFFFFFFFFFFFFFFFFFFFFFFFFFFFFFFFFFFFF
310
FFFFFFFFFFFFFFFFFFFFFFFFFFFFFFFFFFFFFFFFFFFFFFFFFFFFFFFFFFFFFFFFFFFFFFFFFFFFFFFFFFFFFFFFFFFFFFFFFFFFFFFFFFFFFFFFFFFFFFFFFFFFFFFFFFFFFFFFFFFFFFFFFFFFFFFFFFFFFFFFFFFFFFFFFFFFFFFFFFFFFFFFFFFFFFFFFFFFFFFFFFFFFFFFFFFFFFFFFFFFFFFFFFFFFFFFFFFFFFFFFFFFFFFFFFFFFF
310
FFFFFFFFFFFFFFFFFFFFFFFFFFFFFFFFFFFFFFFFFFFAFAFAFAFAFFFAFAFAFAFAFAFAFAFAFAFAFAFAFAFAFAFAFAFFFFFFFFFFFFFFFFFAFAFAFAFAFAFAFAFAFAFAFAFAFAFAFAFAFAFAFAFAFAFAFAFFFFFFFFFFFFFFFFFFFFFFFFFFFFFFFFFFFFFFFFFFFFFFFFFFFFFFFFFFFFFFFFFFFFFFFFFFFFFFFFFFFFFFFFFFFFFFFFFFFF
310
FFFFFFFFFFFFFFFFFFFFFFFFFFFFFFFFFFFFFFFFFFFFFFFFFFFFFFFFFFFFFFFFFFFFFFFFFFFFFFFFFFFFFFFFFFFFFFFFFFFFFFFFFFFFFFFFFFFFFFFFFFFFFFFFFFFFFFFFFFFFFFFFFFFFFFFFFFFFFFFFFFFFFFFFFFFFFFFFFFFFFFFFFFFFFFFFFFFFFFFFFFFFFFFFFFFFFFFFFFFFFFFFFFFFFFFFFFFFFFFFFFFFFFFFFFFFFF
310
FFFFFFFFFFFFFFFFFFFFFFFFFFFFFFFFFFFFFFFFFFFFFFFFFFFFFFFFFFFFFFFFFFFFFFFFFFFFFFFFFFFFFFFFFFFFFFFFFFFFFFFFFFFFFFFFFFFFFFFFFFFFFFFFFFFFFFFFFFFFFFFFFFFFFFFFFFFFFFFFFFFFFFFFFFFFFFFFFFFFFFFFFFFFFFFFFFFFFFFFFFFFFFFFFFFFFFFFFFFFFFFFFFFFFFFFFFFFFFFFFFFFFFFFFFFFFF
310
FFFFFFFFFFFFFFFFFFFFFFFFFFFFFFFFFFFFFFFFFFFFFFFFFFFFFFFFFFFFFFFFFFFFFFFFFFFFFFFFFFFFFFFFFFFFFFFFFFFFFFFFFFFFFFFFFFFFFFFFFFFFFFFFFFFFFFFFFFFFFFFFFFFFFFFFFFFFFFFFFFFFFFFFFFFFFFFFFFFFFFFFFFFFFFFFFFFFFFFFFFFFFFFFFFFFFFFFFFFFFFFFFFFFFFFFFFFFFFFFFFFFFFFFFFFFFF
310
FFFFFFFFFFFFFFFFFFFFFFFFFFFFFFFFFFFFFFFFFFFFFFFFFFFFFFFFFFFFFFFFFFFFFFFFFFFFFFFFFFFFFFFFFFFFFFFFFFFFFFFFFFFFFFFF
102
{BLKREFS
331
22440
102
}
 70
     4
280
     1
281
     0
1001
AcDbDynamicBlockGUID
1000
{1D5A3ACF-BC2E-40A3-96CC-A8FE9CC24EFD}
  0
BLOCK_RECORD
  5
22399
102
{ACAD_XDICTIONARY
360
2239A
102
}
330
1
100
AcDbSymbolTableRecord
100
AcDbBlockTableRecord
  2
*Paper_Space2
340
223BB
 70
     0
280
     1
281
     0
  0
BLOCK_RECORD
  5
32E6B
102
{ACAD_XDICTIONARY
360
32E6C
102
}
330
1
100
AcDbSymbolTableRecord
100
AcDbBlockTableRecord
  2
*Paper_Space3
340
32E90
 70
     0
280
     1
281
     0
  0
BLOCK_RECORD
  5
223D9
102
{ACAD_XDICTIONARY
360
223DA
102
}
330
1
100
AcDbSymbolTableRecord
100
AcDbBlockTableRecord
  2
*Paper_Space4
340
223FB
 70
     0
280
     1
281
     0
  0
BLOCK_RECORD
  5
32BE5
102
{ACAD_XDICTIONARY
360
32BE6
102
}
330
1
100
AcDbSymbolTableRecord
100
AcDbBlockTableRecord
  2
*Paper_Space5
340
32C07
 70
     0
280
     1
281
     0
  0
BLOCK_RECORD
  5
32B50
102
{ACAD_XDICTIONARY
360
32B51
102
}
330
1
100
AcDbSymbolTableRecord
100
AcDbBlockTableRecord
  2
*Paper_Space6
340
32B72
 70
     0
280
     1
281
     0
  0
BLOCK_RECORD
  5
33540
330
1
100
AcDbSymbolTableRecord
100
AcDbBlockTableRecord
  2
*T7
340
0
102
{BLKREFS
331
3353F
102
}
 70
     0
280
     1
281
     0
  0
BLOCK_RECORD
  5
37A32
330
1
100
AcDbSymbolTableRecord
100
AcDbBlockTableRecord
  2
_TagCircle
340
0
 70
     4
280
     1
281
     0
  0
BLOCK_RECORD
  5
3820E
330
1
100
AcDbSymbolTableRecord
100
AcDbBlockTableRecord
  2
GENAXEH
340
0
 70
     0
280
     1
281
     0
  0
BLOCK_RECORD
  5
38223
330
1
100
AcDbSymbolTableRecord
100
AcDbBlockTableRecord
  2
_ACMFILLED30
340
0
 70
     0
280
     1
281
     0
  0
BLOCK_RECORD
  5
3A124
330
1
100
AcDbSymbolTableRecord
100
AcDbBlockTableRecord
  2
*U20
340
0
 70
     0
280
     1
281
     0
  0
BLOCK_RECORD
  5
3A37A
330
1
100
AcDbSymbolTableRecord
100
AcDbBlockTableRecord
  2
*D26
340
0
 70
     0
280
     1
281
     0
  0
BLOCK_RECORD
  5
3A4E6
330
1
100
AcDbSymbolTableRecord
100
AcDbBlockTableRecord
  2
Dreieckssandspieltische im Duo
340
0
310
28000000200000002000000001002000000000000010000001000000010000000000000000000000302821FF302821FF302821FF302821FF302821FF302821FF302821FF302821FF302821FF302821FF302821FF302821FF302821FF302821FF302821FF302821FF302821FF302821FF302821FF302821FF302821FF302821
310
FF302821FF302821FF302821FF302821FF302821FF302821FF302821FF302821FF302821FF302821FF302821FF302821FF302821FF302821FF302821FF302821FF302821FF302821FF302821FF302821FF302821FF302821FF302821FF302821FF302821FF302821FF302821FF302821FF302821FF302821FF302821FF3028
310
21FF302821FF302821FF302821FF302821FF302821FF302821FF302821FF302821FF302821FF302821FF302821FF302821FF302821FF302821FF302821FF302821FF302821FF302821FF302821FF302821FF302821FF302821FF302821FF302821FF302821FF302821FF302821FF302821FF302821FF302821FF302821FF30
310
2821FF302821FF302821FF302821FF302821FF302821FF302821FF302821FF302821FF302821FF302821FF302821FF302821FF302821FF302821FF302821FF302821FF302821FF302821FF302821FF302821FF302821FF302821FF302821FF302821FF302821FF302821FF302821FF302821FF302821FF302821FF302821FF
310
302821FF302821FF302821FF302821FF302821FF302821FF302821FF302821FF302821FF302821FF302821FF302821FF302821FF302821FF302821FF302821FF302821FF302821FF302821FF302821FF302821FF302821FF302821FF302821FFFFFFFFFFFFFFFFFFFFFFFFFFFFFFFFFFFFFFFFFFFFFFFFFF302821FF302821
310
FF302821FF302821FF302821FF302821FF302821FF302821FF302821FF302821FF302821FF302821FF302821FF302821FF302821FF302821FF302821FF302821FF302821FF302821FF302821FF302821FF302821FFFFFFFFFFFFFFFFFFFFFFFFFF302821FF302821FF302821FF302821FF302821FF302821FFFFFFFFFFFFFF
310
FFFFFFFFFFFF302821FF302821FF302821FF302821FF302821FF302821FF302821FF302821FF302821FF302821FF302821FF302821FF302821FF302821FF302821FF302821FF302821FF302821FFFFFFFFFFFFFFFFFF302821FF302821FF302821FF302821FF302821FF302821FF302821FF302821FF302821FF302821FF30
310
2821FF302821FFFFFFFFFFFFFFFFFF302821FF302821FF302821FF302821FF302821FF302821FF302821FF302821FF302821FF302821FF302821FF302821FF302821FF302821FF302821FFFFFFFFFF302821FF302821FF302821FF302821FF302821FF302821FF302821FF302821FF302821FF302821FF302821FF302821FF
310
302821FF302821FF302821FF302821FFFFFFFFFF302821FF302821FF302821FF302821FF302821FF302821FF302821FF302821FF302821FF302821FF302821FF302821FFFFFFFFFFFFFFFFFF302821FF302821FF302821FF302821FF302821FF302821FF302821FF302821FF302821FF302821FF302821FF302821FF302821
310
FF302821FF302821FF302821FF302821FF302821FFFFFFFFFFFFFFFFFF302821FF302821FF302821FF302821FF302821FF302821FF302821FF302821FF302821FFFFFFFFFF302821FF302821FF302821FF302821FF302821FF302821FF302821FF302821FF302821FF302821FF302821FF302821FF302821FF302821FF3028
310
21FF302821FF302821FF302821FF302821FF302821FF302821FF302821FFFFFFFFFF302821FF302821FF302821FF302821FF302821FF302821FF302821FFFFFFFFFF302821FF302821FF302821FF302821FF302821FF302821FF302821FF302821FF302821FF302821FF302821FF302821FF302821FF302821FF302821FF30
310
2821FF302821FF302821FF302821FF302821FF302821FF302821FF302821FF302821FFFFFFFFFF302821FF302821FF302821FF302821FF302821FF302821FFFFFFFFFF302821FF302821FF302821FF302821FF302821FF302821FFFFFFFFFFFFFFFFFFFFFFFFFFFFFFFFFFFFFFFFFFFFFFFFFFFFFFFFFFFFFFFFFFFFFFFFFF
310
FFFFFFFFFFFFFFFFFFFFFFFF302821FF302821FF302821FF302821FF302821FF302821FF302821FFFFFFFFFF302821FF302821FF302821FF302821FFFFFFFFFF302821FF302821FF302821FF302821FF302821FF302821FF302821FFFFFFFFFF302821FF302821FF302821FFFFFFFFFFFFFFFFFFFFFFFFFF302821FF302821
310
FF302821FF302821FFFFFFFFFF302821FF302821FF302821FF302821FF302821FF302821FF302821FFFFFFFFFF302821FF302821FF302821FF302821FFFFFFFFFF302821FF302821FF302821FF302821FF302821FF302821FF302821FFFFFFFFFF302821FF302821FF302821FFFFFFFFFFFFFFFFFFFFFFFFFFFFFFFFFF3028
310
21FF302821FF302821FFFFFFFFFF302821FF302821FF302821FF302821FF302821FF302821FF302821FFFFFFFFFF302821FF302821FF302821FF302821FFFFFFFFFF302821FF302821FF302821FF302821FF302821FF302821FF302821FFFFFFFFFF302821FFFFFFFFFFFFFFFFFFFFFFFFFFFFFFFFFFFFFFFFFFFFFFFFFFFF
310
FFFFFFFFFFFFFF302821FFFFFFFFFF302821FF302821FF302821FF302821FF302821FF302821FF302821FF302821FFFFFFFFFF302821FF302821FFFFFFFFFF302821FF302821FF302821FF302821FF302821FF302821FF302821FF302821FFFFFFFFFFFFFFFFFFFFFFFFFF302821FF302821FFFFFFFFFFFFFFFFFF302821FF
310
302821FFFFFFFFFFFFFFFFFFFFFFFFFF302821FF302821FF302821FF302821FF302821FF302821FF302821FF302821FFFFFFFFFF302821FF302821FFFFFFFFFF302821FF302821FF302821FF302821FF302821FF302821FF302821FF302821FFFFFFFFFFFFFFFFFFFFFFFFFF302821FF302821FFFFFFFFFFFFFFFFFF302821
310
FF302821FFFFFFFFFFFFFFFFFFFFFFFFFF302821FF302821FF302821FF302821FF302821FF302821FF302821FF302821FFFFFFFFFF302821FF302821FF302821FFFFFFFFFF302821FF302821FF302821FF302821FF302821FF302821FF302821FF302821FF302821FFFFFFFFFFFFFFFFFFFFFFFFFFFFFFFFFFFFFFFFFFFFFF
310
FFFFFFFFFFFFFFFFFFFF302821FF302821FF302821FF302821FF302821FF302821FF302821FF302821FF302821FF302821FFFFFFFFFF302821FF302821FF302821FFFFFFFFFF302821FF302821FF302821FF302821FF302821FF302821FF302821FF302821FF302821FF302821FF302821FFFFFFFFFFFFFFFFFFFFFFFFFFFF
310
FFFFFF302821FF302821FF302821FF302821FF302821FF302821FF302821FF302821FF302821FF302821FF302821FFFFFFFFFF302821FF302821FF302821FF302821FFFFFFFFFF302821FF302821FF302821FF302821FF302821FF302821FF302821FF302821FF302821FF302821FF302821FF302821FFFFFFFFFFFFFFFFFF
310
302821FF302821FF302821FF302821FF302821FF302821FF302821FF302821FF302821FF302821FF302821FF302821FFFFFFFFFF302821FF302821FF302821FF302821FF302821FFFFFFFFFF302821FF302821FF302821FF302821FF302821FF302821FF302821FF302821FF302821FF302821FF302821FF302821FF302821
310
FF302821FF302821FF302821FF302821FF302821FF302821FF302821FF302821FF302821FF302821FF302821FF302821FFFFFFFFFF302821FF302821FF302821FF302821FF302821FFFFFFFFFF302821FF302821FF302821FF302821FF302821FF302821FF302821FF302821FF302821FF302821FF302821FF302821FF3028
310
21FF302821FF302821FF302821FF302821FF302821FF302821FF302821FF302821FF302821FF302821FF302821FFFFFFFFFF302821FF302821FF302821FF302821FF302821FF302821FF302821FFFFFFFFFFFFFFFFFF302821FF302821FF302821FF302821FF302821FF302821FF302821FF302821FF302821FF302821FF30
310
2821FF302821FF302821FF302821FF302821FF302821FF302821FF302821FF302821FF302821FFFFFFFFFFFFFFFFFF302821FF302821FF302821FF302821FF302821FF302821FF302821FF302821FF302821FF302821FFFFFFFFFF302821FF302821FF302821FF302821FF302821FF302821FF302821FF302821FF302821FF
310
302821FF302821FF302821FF302821FF302821FF302821FF302821FF302821FF302821FFFFFFFFFF302821FF302821FF302821FF302821FF302821FF302821FF302821FF302821FF302821FF302821FF302821FF302821FF302821FFFFFFFFFFFFFFFFFF302821FF302821FF302821FF302821FF302821FF302821FF302821
310
FF302821FF302821FF302821FF302821FF302821FF302821FF302821FFFFFFFFFFFFFFFFFF302821FF302821FF302821FF302821FF302821FF302821FF302821FF302821FF302821FF302821FF302821FF302821FF302821FF302821FF302821FF302821FFFFFFFFFF302821FF302821FF302821FF302821FF302821FF3028
310
21FF302821FF302821FF302821FF302821FF302821FF302821FFFFFFFFFF302821FF302821FF302821FF302821FF302821FF302821FF302821FF302821FF302821FF302821FF302821FF302821FF302821FF302821FF302821FF302821FF302821FF302821FF302821FFFFFFFFFFFFFFFFFFFFFFFFFF302821FF302821FF30
310
2821FF302821FF302821FF302821FFFFFFFFFFFFFFFFFFFFFFFFFF302821FF302821FF302821FF302821FF302821FF302821FF302821FF302821FF302821FF302821FF302821FF302821FF302821FF302821FF302821FF302821FF302821FF302821FF302821FF302821FF302821FF302821FF302821FFFFFFFFFFFFFFFFFF
310
FFFFFFFFFFFFFFFFFFFFFFFFFFFFFFFF302821FF302821FF302821FF302821FF302821FF302821FF302821FF302821FF302821FF302821FF302821FF302821FF302821FF302821FF302821FF302821FF302821FF302821FF302821FF302821FF302821FF302821FF302821FF302821FF302821FF302821FF302821FF302821
310
FF302821FF302821FF302821FF302821FF302821FF302821FF302821FF302821FF302821FF302821FF302821FF302821FF302821FF302821FF302821FF302821FF302821FF302821FF302821FF302821FF302821FF302821FF302821FF302821FF302821FF302821FF302821FF302821FF302821FF302821FF302821FF3028
310
21FF302821FF302821FF302821FF302821FF302821FF302821FF302821FF302821FF302821FF302821FF302821FF302821FF302821FF302821FF302821FF302821FF302821FF302821FF302821FF302821FF302821FF302821FF302821FF302821FF302821FF302821FF302821FF302821FF302821FF302821FF302821FF30
310
2821FF302821FF302821FF302821FF302821FF302821FF302821FF302821FF302821FF302821FF302821FF302821FF302821FF302821FF302821FF302821FF302821FF302821FF302821FF302821FF302821FF302821FF302821FF302821FF302821FF302821FF302821FF302821FF302821FF302821FF302821FF302821FF
310
302821FF302821FF302821FF302821FF302821FF302821FF302821FF302821FF302821FF302821FF302821FF302821FF302821FF302821FF302821FF302821FF302821FF302821FF
102
{BLKREFS
331
3A510
102
}
 70
     4
280
     1
281
     0
  0
ENDTAB
  0
ENDSEC
  0
SECTION
  2
BLOCKS
  0
BLOCK
  5
24
330
23
100
AcDbEntity
  8
0
100
AcDbBlockBegin
  2
*Model_Space
 70
     0
 10
0.0
 20
0.0
 30
0.0
  3
*Model_Space
  1

  0
ENDBLK
  5
25
330
23
100
AcDbEntity
  8
0
100
AcDbBlockEnd
  0
BLOCK
  5
32A41
330
32A3E
100
AcDbEntity
 67
     1
  8
0
100
AcDbBlockBegin
  2
*Paper_Space
 70
     0
 10
0.0
 20
0.0
 30
0.0
  3
*Paper_Space
  1

  0
ENDBLK
  5
32A5F
330
32A3E
100
AcDbEntity
 67
     1
  8
0
100
AcDbBlockEnd
  0
BLOCK
  5
D72F
330
D72C
100
AcDbEntity
  8
0
100
AcDbBlockBegin
  2
Eigentum
 70
     0
 10
0.0
 20
0.0
 30
0.0
  3
Eigentum
  1

  0
MTEXT
  5
22BEF
102
{ACAD_XDICTIONARY
360
360B3
102
}
330
D72C
100
AcDbEntity
  8
Text
100
AcDbMText
 10
0.1881376586563874
 20
0.0
 30
0.0
 40
1.9
 41
64.70781219287403
 46
0.0
 71
     4
 72
     5
  3
{\LDiese Zeichnung ist Eigentum der Firma:\P}ESF Emsland Spiel- und Freizeitgeräte GmbH & Co. KG\PThyssenstraße 7, 49744 Geeste\PTel: 05937/ 97189-0 ; Fax: 05937/ 97189-90\PAlle Rechte sind bei den Autoren.\PDiese Unterlagen dürfen nicht ohne Zustimm
  1
ung der\Po. g. Firma in den Ausschreibungen verwendet werden.\PDer nicht autorisierte Nachbau ist kostenpflichtig.
  7
2.5
 73
     1
 44
1.0
  0
ENDBLK
  5
D731
330
D72C
100
AcDbEntity
  8
0
100
AcDbBlockEnd
  0
BLOCK
  5
217C2
330
217C1
100
AcDbEntity
  8
0
100
AcDbBlockBegin
  2
Ausführungsgenehmigung
 70
     0
 10
0.0
 20
0.0
 30
0.0
  3
Ausführungsgenehmigung
  1

  0
LINE
  5
21907
330
217C1
100
AcDbEntity
  8
Text
100
AcDbLine
 10
0.0153688661059732
 20
5.298141867052081
 30
0.0
 11
72.79466775557671
 21
5.298141867052081
 31
0.0
  0
MTEXT
  5
21908
102
{ACAD_XDICTIONARY
360
36099
102
}
330
217C1
100
AcDbEntity
  8
Text
100
AcDbMText
 10
0.0
 20
3.33948959032908
 30
0.0
 40
2.0
 41
91.63035393548602
 46
0.0
 71
     1
 72
     5
  1
Datum:      Ausführung genehmigt (Unterschrift)
 73
     1
 44
1.0
  0
ENDBLK
  5
217C3
330
217C1
100
AcDbEntity
  8
0
100
AcDbBlockEnd
  0
BLOCK
  5
2239C
330
22399
100
AcDbEntity
 67
     1
  8
0
100
AcDbBlockBegin
  2
*Paper_Space2
 70
     0
 10
0.0
 20
0.0
 30
0.0
  3
*Paper_Space2
  1

  0
VIEWPORT
  5
2239D
330
22399
100
AcDbEntity
 67
     1
  8
0
100
AcDbViewport
 10
145.7674073588126
 20
97.34628396511002
 30
0.0
 40
953.1982992538226
 41
500.0784423468551
 68
     0
 69
     0
 12
145.7674073588126
 22
97.34628396511002
 13
0.0
 23
0.0
 14
10.0
 24
10.0
 15
10.0
 25
10.0
 16
0.0
 26
0.0
 36
1.0
 17
0.0
 27
0.0
 37
0.0
 42
50.0
 43
0.0
 44
0.0
 45
500.0784423468551
 50
0.0
 51
0.0
 72
  1000
 90
    32800
  1

281
     0
 71
     1
 74
     0
110
0.0
120
0.0
130
0.0
111
1.0
121
0.0
131
0.0
112
0.0
122
1.0
132
0.0
 79
     0
146
0.0
170
     0
 61
     5
348
1D98
292
     1
282
     1
141
0.0
142
0.0
 63
   250
421
  3355443
1001
GENIUS_GENOBJ-N-SDF_13
1002
{
1000
OWNER
1000
GEN
1002
}
1001
GENIUS_GENODEF_13
1002
{
1000
HIER
1070
     0
1002
}
1002
{
1000
MANEDIT
1070
     0
1002
}
1002
{
1000
NOSEL
1070
     0
1002
}
1002
{
1000
BEHIND
1070
     0
1002
}
1002
{
1000
OTHER
1070
     0
1002
}
1002
{
1000
REACTOR
1002
}
1001
GENIUS_GENSCREG_15
1000
PF
1040
1.0
1000
DF
1040
1.0
1000
MIN
1011
-330.8317422680986
1021
-152.6929372083175
1031
0.0
1000
MAX
1011
622.3665569857239
1021
347.3855051385376
1031
0.0
1000
FLAGS
1070
     4
  0
MTEXT
  5
2239E
102
{ACAD_XDICTIONARY
360
3609D
102
}
330
22399
100
AcDbEntity
 67
     1
  8
Text
100
AcDbMText
 10
279.2114961928998
 20
-24.94202591221313
 30
0.0
 40
1.869999999998981
 41
46.33850439650123
 46
0.0
 71
     1
 72
     5
  1
{\H1.2299x;ESF Emsland Spiel- und Freizeitgeräte GmbH & Co KG\H1.1383x;\P\H0.57296x;Thyssenstraße 7, 49744 Geeste\PTelefon: 05937 97189-0  Telefax: 05937 97189-90\Pkinderland@emsland-spielgeraete.de\Pwww.emsland-spielgeraete.de}
 73
     1
 44
1.0
1001
AcDbBlockRepETag
1070
     1
1071
       14
1005
2239E
  0
INSERT
  5
2239F
330
22399
100
AcDbEntity
 67
     1
  8
Kontur 25
100
AcDbBlockReference
  2
Eigentum
 10
178.4690809856935
 20
-29.55492923260795
 30
0.0
 41
0.8
 42
0.8
 43
0.8
  0
LINE
  5
223A0
330
22399
100
AcDbEntity
 67
     1
  8
Kontur 25
100
AcDbLine
 10
236.7385561775801
 20
0.8039510955352469
 30
0.0
 11
349.5190424205459
 21
0.8039510955352469
 31
0.0
1001
AcDbBlockRepETag
1070
     1
1071
        0
1005
223A0
  0
LINE
  5
223A1
330
22399
100
AcDbEntity
 67
     1
  8
Kontur 25
100
AcDbLine
 10
349.5190424205459
 20
0.8039510955352469
 30
0.0
 11
349.5190424205459
 21
-44.4500489044401
 31
0.0
1001
AcDbBlockRepETag
1070
     1
1071
        1
1005
223A1
  0
LINE
  5
223A2
330
22399
100
AcDbEntity
 67
     1
  8
Kontur 25
100
AcDbLine
 10
333.0630424205548
 20
0.8039510955352469
 30
0.0
 11
333.0630424205548
 21
-44.4500489044401
 31
0.0
1001
AcDbBlockRepETag
1070
     1
1071
        2
1005
223A2
  0
LINE
  5
223A3
330
22399
100
AcDbEntity
 67
     1
  8
Kontur 25
100
AcDbLine
 10
349.5190424205459
 20
-44.4500489044401
 30
0.0
 11
236.7385561775801
 21
-44.4500489044401
 31
0.0
1001
AcDbBlockRepETag
1070
     1
1071
        3
1005
223A3
  0
LINE
  5
223A4
330
22399
100
AcDbEntity
 67
     1
  8
Kontur 25
100
AcDbLine
 10
236.7385561775801
 20
-44.4500489044401
 30
0.0
 11
236.7385561775801
 21
0.8039510955352469
 31
0.0
1001
AcDbBlockRepETag
1070
     1
1071
        4
1005
223A4
  0
LINE
  5
223A5
330
22399
100
AcDbEntity
 67
     1
  8
Kontur 25
100
AcDbLine
 10
236.7385561775801
 20
-23.05308942890831
 30
0.0
 11
349.5190424205459
 21
-23.05308942890831
 31
0.0
1001
AcDbBlockRepETag
1070
     1
1071
        5
1005
223A5
  0
LINE
  5
223A6
330
22399
100
AcDbEntity
 67
     1
  8
Kontur 25
100
AcDbLine
 10
236.7385561775801
 20
-7.627883383186066
 30
0.0
 11
349.5190424205459
 21
-7.627883383186066
 31
0.0
1001
AcDbBlockRepETag
1070
     1
1071
        6
1005
223A6
  0
LINE
  5
223A7
330
22399
100
AcDbEntity
 67
     1
  8
Kontur 25
100
AcDbLine
 10
349.5190424205459
 20
-33.75156916667421
 30
0.0
 11
333.0630424205548
 21
-33.75156916667421
 31
0.0
1001
AcDbBlockRepETag
1070
     1
1071
        8
1005
223A7
  0
MTEXT
  5
223A8
330
22399
100
AcDbEntity
 67
     1
  8
Text
100
AcDbMText
 10
341.4035031686834
 20
-39.15719466338135
 30
0.0
 40
2.057
 41
13.70835466788307
 46
0.0
 71
     2
 72
     5
  1
.....
 73
     1
 44
1.0
  0
MTEXT
  5
223A9
330
22399
100
AcDbEntity
 67
     1
  8
Text
100
AcDbMText
 10
341.4062058936365
 20
-28.38337836657343
 30
0.0
 40
2.057
 41
11.56270230355944
 46
0.0
 71
     2
 72
     5
  1
......
 73
     1
 44
1.0
  0
MTEXT
  5
223AA
330
22399
100
AcDbEntity
 67
     1
  8
Text
100
AcDbMText
 10
341.1090042197904
 20
-3.334792245009083
 30
0.0
 40
2.057
 41
15.606264551133
 46
0.0
 71
     2
 72
     5
  1
1:...
 73
     1
 44
1.0
  0
MTEXT
  5
223AB
102
{ACAD_XDICTIONARY
360
3609F
102
}
330
22399
100
AcDbEntity
 67
     1
  8
Text
100
AcDbMText
 10
340.9426451904286
 20
-0.403746364297561
 30
0.0
 40
1.481039999999193
 41
4.417149580655754
 46
0.0
 71
     2
 72
     5
  1
Maßstab
 73
     1
 44
1.0
1001
AcDbBlockRepETag
1070
     1
1071
        9
1005
0
  0
MTEXT
  5
223AC
330
22399
100
AcDbEntity
 67
     1
  8
Text
100
AcDbMText
 10
341.2569076101271
 20
-24.77332201481616
 30
0.0
 40
1.481039999999193
 41
3.909875974208751
 46
0.0
 71
     2
 72
     5
  1
Datum
 73
     1
 44
1.0
1001
AcDbBlockRepETag
1070
     1
1071
       12
1005
0
  0
MTEXT
  5
223AD
330
22399
100
AcDbEntity
 67
     1
  8
Text
100
AcDbMText
 10
341.3690831740278
 20
-34.99650663584053
 30
0.0
 40
1.481039999999193
 41
3.544837908392965
 46
0.0
 71
     2
 72
     5
  1
gez.
 73
     1
 44
1.0
1001
AcDbBlockRepETag
1070
     1
1071
       13
1005
0
  0
IMAGE
  5
223AE
330
22399
100
AcDbEntity
 67
     1
  8
Bemaßung
160
               140
310
8C0000000100000084000000060000000500000066A613F2354D6E40C032FFA02FB445C0000000000000000066A613F2354D6E404D00FC16F4BB37C0000000000000000041372F5FEA1471404D00FC16F4BB37C0000000000000000041372F5FEA147140C032FFA02FB445C0000000000000000066A613F2354D6E40C032FF
310
A02FB445C00000000000000000
100
AcDbRasterImage
 90
        0
 10
242.4128351577557
 20
-43.40770351849414
 30
0.0
 11
0.0211315899613181
 21
0.0
 31
0.0
 12
0.0
 22
0.0211315899613181
 32
0.0
 13
1462.0
 23
931.0
340
17ED4
 70
     7
280
     0
281
    50
282
    50
283
     0
290
     0
360
223AF
 71
     1
 91
        2
 14
-0.5
 24
-0.5
 14
1461.5
 24
930.4999999999999
  0
MTEXT
  5
223B0
330
22399
100
AcDbEntity
 67
     1
  8
Text
100
AcDbMText
 10
242.7637417780629
 20
-1.496652413461106
 30
0.0
 40
3.399999999999999
 41
91.63035393548602
 46
0.0
 71
     1
 72
     5
  1
Angebotszeichnung
 73
     1
 44
1.0
  0
VIEWPORT
  5
223B2
102
{ACAD_XDICTIONARY
360
223B3
102
}
330
22399
100
AcDbEntity
 67
     1
  8
Ansichtsfenster
100
AcDbViewport
 10
145.7878849863688
 20
97.61743953044646
 30
0.0
 40
409.2808244028508
 41
286.5906838583529
 68
     0
 69
     0
 12
16284.00991364929
 22
36889.2243892746
 13
0.0
 23
0.0
 14
10.0
 24
10.0
 15
10.0
 25
10.0
 16
0.0
 26
0.0
 36
1.0
 17
0.0
 27
0.0
 37
0.0
 42
50.0
 43
0.0
 44
0.0
 45
14329.53437739946
 50
0.0
 51
0.0
 72
  1000
 90
   819296
  1

281
     0
 71
     1
 74
     0
110
0.0
120
0.0
130
0.0
111
1.0
121
0.0
131
0.0
112
0.0
122
1.0
132
0.0
 79
     0
146
0.0
170
     0
 61
     5
348
1D98
292
     1
282
     1
141
0.0
142
0.0
 63
   250
421
  3355443
1001
GENIUS_GENOBJ-N-SDF_13
1002
{
1000
OWNER
1000
GEN
1002
}
1001
GENIUS_GENODEF_13
1002
{
1000
HIER
1070
     0
1002
}
1002
{
1000
MANEDIT
1070
     0
1002
}
1002
{
1000
NOSEL
1070
     0
1002
}
1002
{
1000
BEHIND
1070
     0
1002
}
1002
{
1000
OTHER
1070
     0
1002
}
1002
{
1000
REACTOR
1002
}
1001
GENIUS_GENSCREG_15
1000
PF
1040
0.0
1000
DF
1040
0.0
1000
MIN
1011
-58.85252721505662
1021
-45.67790239873
1031
0.0
1000
MAX
1011
350.4282971877942
1021
240.9127814596229
1031
0.0
1000
FLAGS
1070
     4
  0
LINE
  5
223B5
330
22399
100
AcDbEntity
 67
     1
  8
Kontur 25
100
AcDbLine
 10
333.0630424205548
 20
-14.4838513885367
 30
0.0
 11
349.5190424205459
 21
-14.4838513885367
 31
0.0
  0
MTEXT
  5
223B6
330
22399
100
AcDbEntity
 67
     1
  8
Text
100
AcDbMText
 10
341.1090042197904
 20
-10.90999170621991
 30
0.0
 40
2.057
 41
15.606264551133
 46
0.0
 71
     2
 72
     5
  1
A ...
 73
     1
 44
1.0
  0
MTEXT
  5
223B7
102
{ACAD_XDICTIONARY
360
360A2
102
}
330
22399
100
AcDbEntity
 67
     1
  8
Text
100
AcDbMText
 10
341.5291346669163
 20
-8.384720519078541
 30
0.0
 40
1.481039999999193
 41
8.574395385718057
 46
0.0
 71
     2
 72
     5
  1
Blattgröße
 73
     1
 44
1.0
1001
AcDbBlockRepETag
1070
     1
1071
        9
1005
0
  0
MTEXT
  5
223B8
330
22399
100
AcDbEntity
 67
     1
  8
Text
100
AcDbMText
 10
341.4411405564012
 20
-19.4318312080311
 30
0.0
 40
2.057
 41
15.606264551133
 46
0.0
 71
     2
 72
     5
  1
...../15
 73
     1
 44
1.0
  0
MTEXT
  5
223B9
330
22399
100
AcDbEntity
 67
     1
  8
Text
100
AcDbMText
 10
341.5086909699859
 20
-15.62866735769171
 30
0.0
 40
1.481039999999193
 41
14.94369972815082
 46
0.0
 71
     2
 72
     5
  1
Angebots- Nr.:
 73
     1
 44
1.0
1001
AcDbBlockRepETag
1070
     1
1071
        9
1005
0
  0
MTEXT
  5
32717
330
22399
100
AcDbEntity
 67
     1
  8
Text
100
AcDbMText
 10
243.1990029495025
 20
-9.693685060647794
 30
0.0
 40
3.399999999999999
 41
88.77835617452729
 46
0.0
 71
     1
 72
     5
  1
Bezeichnung\PBV: 
 73
     1
 44
1.0
  0
IMAGE
  5
37DFC
330
22399
100
AcDbEntity
 67
     1
  8
Bemaßung
160
               140
310
8C000000010000008400000006000000050000005E7632A25D724DC094B20583AE1F6E400000000000000000617632A25D724DC07C8335FB132647C000000000000000009260121AE5B037C07C8335FB132647C000000000000000008E60121AE5B037C094B20583AE1F6E4000000000000000005E7632A25D724DC094B205
310
83AE1F6E400000000000000000
100
AcDbRasterImage
 90
        0
 10
-58.89348247016892
 20
-46.2974847804353
 30
0.0
 11
0.0878018146366414
 21
0.0
 31
0.0
 12
0.0
 22
0.0878018146366414
 32
0.0
 13
2228.0
 23
3272.0
340
37DFA
 70
     7
280
     1
281
    50
282
    50
283
     0
290
     0
360
37DFB
 71
     1
 91
        2
 14
-0.5
 24
-0.5
 14
400.4311971416066
 24
3271.5
  0
ENDBLK
  5
223BA
330
22399
100
AcDbEntity
 67
     1
  8
0
100
AcDbBlockEnd
  0
BLOCK
  5
32E6E
330
32E6B
100
AcDbEntity
 67
     1
  8
0
100
AcDbBlockBegin
  2
*Paper_Space3
 70
     0
 10
0.0
 20
0.0
 30
0.0
  3
*Paper_Space3
  1

  0
VIEWPORT
  5
32E6F
330
32E6B
100
AcDbEntity
 67
     1
  8
0
100
AcDbViewport
 10
225.2252598751402
 20
60.66846756216317
 30
0.0
 40
160.8103583258829
 41
84.36627884019452
 68
     0
 69
     0
 12
225.2252598751402
 22
60.66846756216317
 13
0.0
 23
0.0
 14
10.0
 24
10.0
 15
10.0
 25
10.0
 16
0.0
 26
0.0
 36
1.0
 17
0.0
 27
0.0
 37
0.0
 42
50.0
 43
0.0
 44
0.0
 45
84.36627884019452
 50
0.0
 51
0.0
 72
  1000
 90
    32800
  1

281
     0
 71
     1
 74
     0
110
0.0
120
0.0
130
0.0
111
1.0
121
0.0
131
0.0
112
0.0
122
1.0
132
0.0
 79
     0
146
0.0
170
     0
 61
     5
348
1D98
292
     1
282
     1
141
0.0
142
0.0
 63
   250
421
  3355443
1001
GENIUS_GENOBJ-N-SDF_13
1002
{
1000
OWNER
1000
GEN
1002
}
1001
GENIUS_GENODEF_13
1002
{
1000
HIER
1070
     0
1002
}
1002
{
1000
MANEDIT
1070
     0
1002
}
1002
{
1000
NOSEL
1070
     0
1002
}
1002
{
1000
BEHIND
1070
     0
1002
}
1002
{
1000
OTHER
1070
     0
1002
}
1002
{
1000
REACTOR
1002
}
1001
GENIUS_GENSCREG_15
1000
PF
1040
1.0
1000
DF
1040
1.0
1000
MIN
1011
144.8200807121987
1021
18.48532814206591
1031
0.0
1000
MAX
1011
305.6304390380816
1021
102.8516069822604
1031
0.0
1000
FLAGS
1070
     4
  0
VIEWPORT
  5
32E70
102
{ACAD_XDICTIONARY
360
32E71
102
}
330
32E6B
100
AcDbEntity
 67
     1
  8
Ansichtsfenster
100
AcDbViewport
 10
146.0667596687075
 20
161.3500241202954
 30
0.0
 40
194.7665900975091
 41
157.3846958867293
 68
     0
 69
     0
 12
9206.090986128126
 22
3232.344361719873
 13
0.0
 23
0.0
 14
10.0
 24
10.0
 15
10.0
 25
10.0
 16
0.0
 26
0.0
 36
1.0
 17
0.0
 27
0.0
 37
0.0
 42
50.0
 43
0.0
 44
0.0
 45
7869.234832911927
 50
0.0
 51
0.0
 72
  1000
 90
   819296
  1

281
     0
 71
     1
 74
     0
110
0.0
120
0.0
130
0.0
111
1.0
121
0.0
131
0.0
112
0.0
122
1.0
132
0.0
 79
     0
146
0.0
170
     0
 61
     5
348
1D98
292
     1
282
     1
141
0.0
142
0.0
 63
   250
421
  3355443
1001
GENIUS_GENOBJ-N-SDF_13
1002
{
1000
OWNER
1000
GEN
1002
}
1001
GENIUS_GENODEF_13
1002
{
1000
HIER
1070
     0
1002
}
1002
{
1000
MANEDIT
1070
     0
1002
}
1002
{
1000
NOSEL
1070
     0
1002
}
1002
{
1000
BEHIND
1070
     0
1002
}
1002
{
1000
OTHER
1070
     0
1002
}
1002
{
1000
REACTOR
1002
}
1001
GENIUS_GENSCREG_15
1000
PF
1040
0.0
1000
DF
1040
0.0
1000
MIN
1011
48.68346461995293
1021
82.65767617693075
1031
0.0
1000
MAX
1011
243.4500547174621
1021
240.0423720636601
1031
0.0
1000
FLAGS
1070
     4
  0
MTEXT
  5
32EED
102
{ACAD_XDICTIONARY
360
360D1
102
}
330
32E6B
100
AcDbEntity
 67
     1
  8
Text
100
AcDbMText
 10
156.099540641112
 20
-24.39841338082556
 30
0.0
 40
1.869999999998981
 41
46.33850439650123
 46
0.0
 71
     1
 72
     5
  1
{\H1.2299x;ESF Emsland Spiel- und Freizeitgeräte GmbH & Co KG\H1.1383x;\P\H0.57296x;Thyssenstraße 7, 49744 Geeste\PTelefon: 05937 97189-0  Telefax: 05937 97189-90\Pkinderland@emsland-spielgeraete.de\Pwww.emsland-spielgeraete.de}
 73
     1
 44
1.0
1001
AcDbBlockRepETag
1070
     1
1071
       14
1005
32EED
  0
INSERT
  5
32EEE
330
32E6B
100
AcDbEntity
 67
     1
  8
Kontur 25
100
AcDbBlockReference
  2
Eigentum
 10
65.03165609813073
 20
-2.792413537969878
 30
0.0
 41
0.6400000000000002
 42
0.6400000000000002
 43
0.6400000000000002
  0
LINE
  5
32EEF
330
32E6B
100
AcDbEntity
 67
     1
  8
Kontur 25
100
AcDbLine
 10
113.6266006257924
 20
1.347563626922806
 30
0.0
 11
244.5266006257211
 21
1.347563626922806
 31
0.0
1001
AcDbBlockRepETag
1070
     1
1071
        0
1005
32EEF
  0
LINE
  5
32EF0
330
32E6B
100
AcDbEntity
 67
     1
  8
Kontur 25
100
AcDbLine
 10
244.5266006257211
 20
1.347563626922806
 30
0.0
 11
244.5266006257211
 21
-43.90643637305254
 31
0.0
1001
AcDbBlockRepETag
1070
     1
1071
        1
1005
32EF0
  0
LINE
  5
32EF1
330
32E6B
100
AcDbEntity
 67
     1
  8
Kontur 25
100
AcDbLine
 10
228.0706006257301
 20
1.347563626922806
 30
0.0
 11
228.0706006257301
 21
-43.90643637305254
 31
0.0
1001
AcDbBlockRepETag
1070
     1
1071
        2
1005
32EF1
  0
LINE
  5
32EF2
330
32E6B
100
AcDbEntity
 67
     1
  8
Kontur 25
100
AcDbLine
 10
244.5266006257211
 20
-43.90643637305254
 30
0.0
 11
113.6266006257924
 21
-43.90643637305254
 31
0.0
1001
AcDbBlockRepETag
1070
     1
1071
        3
1005
32EF2
  0
LINE
  5
32EF3
330
32E6B
100
AcDbEntity
 67
     1
  8
Kontur 25
100
AcDbLine
 10
113.6266006257924
 20
-43.90643637305254
 30
0.0
 11
113.6266006257924
 21
1.347563626922806
 31
0.0
1001
AcDbBlockRepETag
1070
     1
1071
        4
1005
32EF3
  0
LINE
  5
32EF4
330
32E6B
100
AcDbEntity
 67
     1
  8
Kontur 25
100
AcDbLine
 10
113.6266006257924
 20
-22.50947689752075
 30
0.0
 11
244.5266006257211
 21
-22.50947689752075
 31
0.0
1001
AcDbBlockRepETag
1070
     1
1071
        5
1005
32EF4
  0
LINE
  5
32EF5
330
32E6B
100
AcDbEntity
 67
     1
  8
Kontur 25
100
AcDbLine
 10
228.0706006257301
 20
-29.64281019752076
 30
0.0
 11
244.5266006257211
 21
-29.64281019752076
 31
0.0
1001
AcDbBlockRepETag
1070
     1
1071
        5
1005
32EF4
  0
LINE
  5
32EF6
330
32E6B
100
AcDbEntity
 67
     1
  8
Kontur 25
100
AcDbLine
 10
228.0706006257301
 20
-36.77614349752076
 30
0.0
 11
244.5266006257211
 21
-36.77614349752076
 31
0.0
1001
AcDbBlockRepETag
1070
     1
1071
        5
1005
32EF4
  0
LINE
  5
32EF7
330
32E6B
100
AcDbEntity
 67
     1
  8
Kontur 25
100
AcDbLine
 10
113.6266006257924
 20
-7.084270851798493
 30
0.0
 11
244.5266006257211
 21
-7.084270851798493
 31
0.0
1001
AcDbBlockRepETag
1070
     1
1071
        6
1005
32EF7
  0
MTEXT
  5
32EF8
330
32E6B
100
AcDbEntity
 67
     1
  8
Text
100
AcDbMText
 10
236.4110613738586
 20
-33.81247771719791
 30
0.0
 40
2.057
 41
13.70835466788307
 46
0.0
 71
     2
 72
     5
  1
....
 73
     1
 44
1.0
  0
MTEXT
  5
32EF9
330
32E6B
100
AcDbEntity
 67
     1
  8
Text
100
AcDbMText
 10
236.4137640988117
 20
-26.34860318300503
 30
0.0
 40
2.057
 41
11.56270230355944
 46
0.0
 71
     2
 72
     5
  1
........
 73
     1
 44
1.0
  0
MTEXT
  5
32EFA
330
32E6B
100
AcDbEntity
 67
     1
  8
Text
100
AcDbMText
 10
236.1165624249657
 20
-2.791179713621517
 30
0.0
 40
2.057
 41
15.606264551133
 46
0.0
 71
     2
 72
     5
  1
...
 73
     1
 44
1.0
  0
MTEXT
  5
32EFB
102
{ACAD_XDICTIONARY
360
360D3
102
}
330
32E6B
100
AcDbEntity
 67
     1
  8
Text
100
AcDbMText
 10
235.9502033956039
 20
0.1398661670900054
 30
0.0
 40
1.481039999999193
 41
4.417149580655754
 46
0.0
 71
     2
 72
     5
  1
Maßstab
 73
     1
 44
1.0
1001
AcDbBlockRepETag
1070
     1
1071
        9
1005
0
  0
MTEXT
  5
32EFC
330
32E6B
100
AcDbEntity
 67
     1
  8
Text
100
AcDbMText
 10
236.2644658153024
 20
-23.55144240535606
 30
0.0
 40
1.481039999999193
 41
3.909875974208751
 46
0.0
 71
     2
 72
     5
  1
Datum
 73
     1
 44
1.0
1001
AcDbBlockRepETag
1070
     1
1071
       12
1005
0
  0
MTEXT
  5
32EFD
330
32E6B
100
AcDbEntity
 67
     1
  8
Text
100
AcDbMText
 10
236.3766413792031
 20
-30.68572306881117
 30
0.0
 40
1.481039999999193
 41
9.618196027932976
 46
0.0
 71
     2
 72
     5
  1
gez.
 73
     1
 44
1.0
1001
AcDbBlockRepETag
1070
     1
1071
       13
1005
0
  0
IMAGE
  5
32EFE
330
32E6B
100
AcDbEntity
 67
     1
  8
Bemaßung
160
               140
310
8C00000001000000840000000600000005000000A0EA889C41D35D40103291889A6E45C00000000000000000A0EA889C41D35D40EDFE1FE6C93037C000000000000000006C3D8F9A3FC66240EDFE1FE6C93037C000000000000000006C3D8F9A3FC66240103291889A6E45C00000000000000000A0EA889C41D35D40103291
310
889A6E45C00000000000000000
100
AcDbRasterImage
 90
        0
 10
119.300879605968
 20
-42.86409098710658
 30
0.0
 11
0.0211315899613181
 21
0.0
 31
0.0
 12
0.0
 22
0.0211315899613181
 32
0.0
 13
1462.0
 23
931.0
340
17ED4
 70
     7
280
     0
281
    50
282
    50
283
     0
290
     0
360
32EFF
 71
     1
 91
        2
 14
-0.5
 24
-0.5
 14
1461.5
 24
930.4999999999999
  0
MTEXT
  5
32F00
330
32E6B
100
AcDbEntity
 67
     1
  8
Text
100
AcDbMText
 10
119.6517862262751
 20
-0.9530398820735399
 30
0.0
 40
3.399999999999999
 41
91.63035393548602
 46
0.0
 71
     1
 72
     5
  1
Fertigungszeichnung
 73
     1
 44
1.0
  0
MTEXT
  5
32F01
330
32E6B
100
AcDbEntity
 67
     1
  8
Text
100
AcDbMText
 10
119.3682363913487
 20
-9.827388284632661
 30
0.0
 40
3.399999999999999
 41
88.77835617452729
 46
0.0
 71
     1
 72
     5
  1
BV:\PArt.-Nr.
 73
     1
 44
1.0
  0
MTEXT
  5
32F02
330
32E6B
100
AcDbEntity
 67
     1
  8
Text
100
AcDbMText
 10
236.1165624249657
 20
-14.76493419764733
 30
0.0
 40
2.057
 41
15.606264551133
 46
0.0
 71
     2
 72
     5
  1
A4
 73
     1
 44
1.0
  0
MTEXT
  5
32F03
102
{ACAD_XDICTIONARY
360
360D5
102
}
330
32E6B
100
AcDbEntity
 67
     1
  8
Text
100
AcDbMText
 10
236.5366928720916
 20
-11.0660663905553
 30
0.0
 40
1.481039999999193
 41
8.574395385718057
 46
0.0
 71
     2
 72
     5
  1
Blattgröße
 73
     1
 44
1.0
1001
AcDbBlockRepETag
1070
     1
1071
        9
1005
0
  0
MTEXT
  5
32F04
330
32E6B
100
AcDbEntity
 67
     1
  8
Text
100
AcDbMText
 10
236.4110613738586
 20
-40.94581101719791
 30
0.0
 40
2.057
 41
13.70835466788307
 46
0.0
 71
     2
 72
     5
  1
........
 73
     1
 44
1.0
  0
MTEXT
  5
32F05
330
32E6B
100
AcDbEntity
 67
     1
  8
Text
100
AcDbMText
 10
236.3766413792031
 20
-37.69216386671826
 30
0.0
 40
1.481039999999193
 41
6.535762878169712
 46
0.0
 71
     2
 72
     5
  1
gepr.
 73
     1
 44
1.0
1001
AcDbBlockRepETag
1070
     1
1071
       13
1005
0
  0
LINE
  5
32F06
330
32E6B
100
AcDbEntity
 67
     1
  8
Kontur 25
100
AcDbLine
 10
113.6266006257924
 20
-43.90643637305254
 30
0.0
 11
48.38658301147006
 21
-43.90643637305254
 31
0.0
1001
AcDbBlockRepETag
1070
     1
1071
        3
1005
0
  0
LINE
  5
32F07
330
32E6B
100
AcDbEntity
 67
     1
  8
Kontur 25
100
AcDbLine
 10
48.38658301147006
 20
-17.12667963032233
 30
0.0
 11
113.6266006257924
 21
-17.12667963032233
 31
0.0
1001
AcDbBlockRepETag
1070
     1
1071
        6
1005
0
  0
LINE
  5
32F08
330
32E6B
100
AcDbEntity
 67
     1
  8
Kontur 25
100
AcDbLine
 10
48.38658301147006
 20
-17.12667963032233
 30
0.0
 11
48.38658301147006
 21
-43.90643637305254
 31
0.0
  0
LINE
  5
32F09
330
32E6B
100
AcDbEntity
 67
     1
  8
Kontur 25
100
AcDbLine
 10
113.6266006257924
 20
-38.87051633527062
 30
0.0
 11
48.38658301147006
 21
-38.87051633527062
 31
0.0
1001
AcDbBlockRepETag
1070
     1
1071
        3
1005
0
  0
LINE
  5
32F0A
330
32E6B
100
AcDbEntity
 67
     1
  8
Kontur 25
100
AcDbLine
 10
113.6266006257924
 20
-37.87051633527062
 30
0.0
 11
48.38658301147006
 21
-37.87051633527062
 31
0.0
1001
AcDbBlockRepETag
1070
     1
1071
        3
1005
0
  0
MTEXT
  5
32F0B
102
{ACAD_XDICTIONARY
360
360D7
102
}
330
32E6B
100
AcDbEntity
 67
     1
  8
Text
100
AcDbMText
 10
50.18709809194263
 20
-40.09266352686066
 30
0.0
 40
2.0
 41
28.25394854524562
 46
0.0
 71
     1
 72
     5
  1
Änderung
  7
2.5
 73
     1
 44
1.0
  0
LINE
  5
32F0C
330
32E6B
100
AcDbEntity
 67
     1
  8
Kontur 25
100
AcDbLine
 10
79.58732530551833
 20
-17.12667963032233
 30
0.0
 11
79.58732530551833
 21
-43.90643637305254
 31
0.0
  0
LINE
  5
32F0D
330
32E6B
100
AcDbEntity
 67
     1
  8
Kontur 25
100
AcDbLine
 10
92.29581019032911
 20
-17.12667963032233
 30
0.0
 11
92.29581019032911
 21
-43.90643637305254
 31
0.0
  0
MTEXT
  5
32F0E
330
32E6B
100
AcDbEntity
 67
     1
  8
Text
100
AcDbMText
 10
80.80026275458147
 20
-40.02892268375094
 30
0.0
 40
2.0
 41
28.25394854524562
 46
0.0
 71
     1
 72
     5
  1
Datum
  7
2.5
 73
     1
 44
1.0
  0
LINE
  5
32F0F
330
32E6B
100
AcDbEntity
 67
     1
  8
Kontur 25
100
AcDbLine
 10
113.6266006257924
 20
-33.19404221891432
 30
0.0
 11
48.38658301147006
 21
-33.19404221891432
 31
0.0
1001
AcDbBlockRepETag
1070
     1
1071
        3
1005
0
  0
LINE
  5
32F10
330
32E6B
100
AcDbEntity
 67
     1
  8
Kontur 25
100
AcDbLine
 10
113.6266006257924
 20
-27.94468482074012
 30
0.0
 11
48.38658301147006
 21
-27.94468482074012
 31
0.0
1001
AcDbBlockRepETag
1070
     1
1071
        3
1005
0
  0
MTEXT
  5
32F11
330
32E6B
100
AcDbEntity
 67
     1
  8
Text
100
AcDbMText
 10
93.12362042962979
 20
-39.97036615303708
 30
0.0
 40
2.0
 41
6.691653729677547
 46
0.0
 71
     1
 72
     5
  1
gez.
  7
2.5
 73
     1
 44
1.0
  0
MTEXT
  5
32F12
330
32E6B
100
AcDbEntity
 67
     1
  8
Text
100
AcDbMText
 10
50.3805785677639
 20
27.59879416414583
 30
0.0
 40
2.5
 41
91.63035393548602
 46
0.0
 71
     1
 72
     5
  1
Verwendung: \P\P\P 
 73
     1
 44
1.0
  0
LINE
  5
32F15
330
32E6B
100
AcDbEntity
 67
     1
  8
Kontur 25
100
AcDbLine
 10
113.6266006257924
 20
-22.50947689752075
 30
0.0
 11
48.38658301147006
 21
-22.50947689752075
 31
0.0
  0
MTEXT
  5
33025
330
32E6B
100
AcDbEntity
 67
     1
  8
Text
100
AcDbMText
 10
107.3656184311206
 20
-40.7904630436675
 30
0.0
 40
1.481039999999193
 41
6.535762878169712
 46
0.0
 71
     2
 72
     5
  1
gepr.
 73
     1
 44
1.0
1001
AcDbBlockRepETag
1070
     1
1071
       13
1005
0
  0
LINE
  5
33026
330
32E6B
100
AcDbEntity
 67
     1
  8
Kontur 25
100
AcDbLine
 10
100.7465830114415
 20
-17.12667963032233
 30
0.0
 11
100.7465830114415
 21
-43.90643637305254
 31
0.0
  0
ACAD_TABLE
  5
3353F
102
{ACAD_XDICTIONARY
360
3A51B
102
}
330
32E6B
100
AcDbEntity
 67
     1
  8
Bemaßung
160
              3088
310
100C00004A000000880000001D000000000000000000F03F00000000000000000000000000000000A0DB82391A685C400000000000000000000000000000F03F0000000000000000009AAEE09E8FF53F00000000000000000000000000000000000000000000F03F0000000000000000000000000000000000000000000000
310
000000000000000000000000000000F03F0C00000016000000090000C30C00000017000000050000000C0000001200000000000000C0000000260000009FF9B2EAA10E0440AE3891FE4215FF3F000000000000000000000000000000000000000000000000000000000000F03F000000000000F03F00000000000000000000
310
00000000000050006F0073002E000000000004000000010000000000000000000440000000000000F03F0000000000000000000000000000F03F0000000000000000000000000000000000000000000000000000000001000000220000005400610068006F006D0061000000000000000000000000000C0000001600000009
310
0000C30C00000017000000050000000C0000001200000000000000CC00000026000000B840BEA83B9A39400CAE912665B90140000000000000000000000000000000000000000000000000000000000000F03F000000000000F03F00000000000000000000000000000000420065007A0065006900630068006E0075006E00
310
670000000B000000010000000000000000000440000000000000F03F0000000000000000000000000000F03F0000000000000000000000000000000000000000000000000000000001000000220000005400610068006F006D0061000000690000000000000075000C00000016000000090000C30C00000017000000050000
310
000C0000001200000000000000C800000026000000F7FE7505BF304F407A7EDB4EE0F2FE3F000000000000000000000000000000000000000000000000000000000000F03F000000000000F03F00000000000000000000000000000000440069006D0065006E00730069006F006E0000000900000001000000000000000000
310
0440000000000000F03F0000000000000000000000000000F03F0000000000000000000000000000000000000000000000000000000001000000220000005400610068006F006D0061000000000000000000000000000C00000016000000090000C30C00000017000000050000000C0000001200000000000000C000000026
310
0000009177414EF8B6554083CD8ACE641B0240000000000000000000000000000000000000000000000000000000000000F03F000000000000F03F000000000000000000000000000000004C00E4006E0067006500000005000000010000000000000000000440000000000000F03F0000000000000000000000000000F03F
310
0000000000000000000000000000000000000000000000000000000001000000220000005400610068006F006D0061000000000000000000000000000C00000016000000090000C30C00000017000000050000000C0000001200000000000000C4000000260000005C71176AF0185A40AAAAAAAAAAAAFE3F00000000000000
310
0000000000000000000000000000000000000000000000F03F000000000000F03F0000000000000000000000000000000045004B002E004E0072002E000000410006000000010000000000000000000440000000000000F03F0000000000000000000000000000F03F00000000000000000000000000000000000000000000
310
00000000000001000000220000005400610068006F006D0061000000622E000000000000622E0C00000016000000090000C30C00000017000000050000000C0000001200000000000000C4000000260000007232A677D7BE5D40903FE9FEE02EFE3F0000000000000000000000000000000000000000000000000000000000
310
00F03F000000000000F03F0000000000000000000000000000000041006E007A00610068006C000000000006000000010000000000000000000440000000000000F03F0000000000000000000000000000F03F0000000000000000000000000000000000000000000000000000000001000000220000005400610068006F00
310
6D00610000000000000000000000622E0C00000016000000090000C30C00000017000000050000000C0000001200000000000000B800000026000000E30134AF689D12405CA404D5D97D2040000000000000000000000000000000000000000000000000000000000000F03F000000000000F03F0000000000000000000000
310
00000000003100000001000000010000000000000000000440000000000000F03F0000000000000000000000000000F03F0000000000000000000000000000000000000000000000000000000001000000220000005400610068006F006D0061000000320000000000000000000C00000016000000090000C30C0000001700
310
0000050000000C000000120000000000000054000000200000000200000000000000000000000000000000000000000000000000000002462828365D60400000000000000000000000000000000000000000000000000000000000000000000000000000F03F0C00000016000000090000C30C00000017000000050000000C
310
000000120000000000000054000000200000000200000000000000000000005655555555551940000000000000000002462828365D60405655555555551940000000000000000000000000000000000000000000000000000000000000F03F0C00000016000000090000C30C00000017000000050000000C00000012000000
310
0000000054000000200000000200000000000000000000005655555555552940000000000000000002462828365D60405655555555552940000000000000000000000000000000000000000000000000000000000000F03F0C00000016000000090000C30C00000017000000050000000C0000001200000000000000540000
310
00200000000200000000000000000000000000000000000000000000000000000000000000000000005655555555552940000000000000000000000000000000000000000000000000000000000000F03F0C00000016000000090000C30C00000017000000050000000C000000120000000000000054000000200000000200
310
0000004742CC0F92264000000000000000000000000000000000004742CC0F9226405655555555552940000000000000000000000000000000000000000000000000000000000000F03F0C00000016000000090000C30C00000017000000050000000C000000120000000000000054000000200000000200000080174E21E6
310
874D400000000000000000000000000000000080174E21E6874D405655555555552940000000000000000000000000000000000000000000000000000000000000F03F0C00000016000000090000C30C00000017000000050000000C0000001200000000000000540000002000000002000000C097A256E364544000000000
310
000000000000000000000000C097A256E36454405655555555552940000000000000000000000000000000000000000000000000000000000000F03F0C00000016000000090000C30C00000017000000050000000C0000001200000000000000540000002000000002000000E0FF4C4EAC5C59400000000000000000000000
310
0000000000E0FF4C4EAC5C59405655555555552940000000000000000000000000000000000000000000000000000000000000F03F0C00000016000000090000C30C00000017000000050000000C000000120000000000000054000000200000000200000040DA73052F355D400000000000000000000000000000000040DA
310
73052F355D405655555555552940000000000000000000000000000000000000000000000000000000000000F03F0C00000016000000090000C30C00000017000000050000000C000000120000000000000054000000200000000200000002462828365D60400000000000000000000000000000000002462828365D604056
310
55555555552940000000000000000000000000000000000000000000000000000000000000F03F0C00000016000000080000C30C00000017000000000000000C000000120000000000000054000000200000000200000000000000000000000000000000000000000000000000000000000000000000000000000000000000
310
000000000000000000000000000000000000000000000000000000000000F03F080000001F000000
100
AcDbBlockReference
  2
*T7
 10
113.6266006257924
 20
1.347563626922806
 30
0.0
100
AcDbTable
280
     0
342
1E
343
33540
 11
1.0
 21
0.0
 31
0.0
 90
        6
 91
        2
 92
        6
 93
        5
 94
        0
 95
        0
 96
        0
 70
     1
280
     1
141
6.333333333333333
141
6.333333333333333
142
11.28527677830743
142
47.77643373493219
142
22.51466512265324
142
19.87164107934268
142
15.38297823709718
142
14.08186599304378
171
     1
172
     0
173
     0
174
     0
175
     1
176
     1
 91
       32
178
     0
145
0.0
140
2.5
 92
        0
301
CELL_VALUE
 93
        4
 90
        4
  1
Pos.
 94
        0
300

302
Pos.
304
ACVALUE_END
171
     1
172
     0
173
     0
174
     0
175
     1
176
     1
 91
       32
178
     0
145
0.0
140
2.5
 92
        0
301
CELL_VALUE
 93
        4
 90
        4
  1
Bezeichnung
 94
        0
300

302
Bezeichnung
304
ACVALUE_END
171
     1
172
     0
173
     0
174
     0
175
     1
176
     1
 91
       32
178
     0
145
0.0
140
2.5
 92
        0
301
CELL_VALUE
 93
        4
 90
        4
  1
Dimension
 94
        0
300

302
Dimension
304
ACVALUE_END
171
     1
172
     0
173
     0
174
     0
175
     1
176
     1
 91
       32
178
     0
145
0.0
140
2.5
 92
        0
301
CELL_VALUE
 93
        4
 90
        4
  1
Länge
 94
        0
300

302
Länge
304
ACVALUE_END
171
     1
172
     0
173
     0
174
     0
175
     1
176
     1
 91
       32
178
     0
145
0.0
140
2.5
 92
        0
301
CELL_VALUE
 93
        4
 90
        4
  1
EK.Nr.
 94
        0
300

302
EK.Nr.
304
ACVALUE_END
171
     1
172
     0
173
     0
174
     0
175
     1
176
     1
 91
       32
178
     0
145
0.0
140
2.5
 92
        0
301
CELL_VALUE
 93
        4
 90
        4
  1
Anzahl
 94
        0
300

302
Anzahl
304
ACVALUE_END
171
     1
172
     0
173
     0
174
     0
175
     1
176
     1
 91
       33
178
     0
145
0.0
170
     5
140
2.5
 92
        0
301
CELL_VALUE
 93
        6
 90
        4
  1
1
 94
        0
300

302
1
304
ACVALUE_END
171
     1
172
     0
173
     0
174
     0
175
     1
176
     1
 91
        1
178
     0
145
0.0
170
     5
 92
        0
301
CELL_VALUE
 93
        3
 90
        0
 94
        0
300

302

304
ACVALUE_END
171
     1
172
     0
173
     0
174
     0
175
     1
176
     1
 91
        1
178
     0
145
0.0
170
     5
 92
        0
301
CELL_VALUE
 93
        3
 90
        0
 94
        0
300

302

304
ACVALUE_END
171
     1
172
     0
173
     0
174
     0
175
     1
176
     1
 91
        1
178
     0
145
0.0
170
     5
 92
        0
301
CELL_VALUE
 93
        3
 90
        0
 94
        0
300

302

304
ACVALUE_END
171
     1
172
     0
173
     0
174
     0
175
     1
176
     1
 91
       33
178
     0
145
0.0
170
     5
140
2.5
 92
        0
301
CELL_VALUE
 93
        4
 90
        0
 91
        0
 94
        0
300

302

304
ACVALUE_END
171
     1
172
     0
173
     0
174
     0
175
     1
176
     1
 91
        1
178
     0
145
0.0
170
     5
 92
        0
301
CELL_VALUE
 93
        3
 90
        0
 94
        0
300

302

304
ACVALUE_END
  0
MTEXT
  5
380BC
330
32E6B
100
AcDbEntity
 67
     1
  8
Text
100
AcDbMText
 10
197.810359273634
 20
72.01324602656064
 30
0.0
 40
2.5
 41
3708.352802702974
 46
0.0
 71
     1
 72
     5
  1
{\Lnicht bemaßte Schweißnähte}:\PKehlnähte: a = 0,5 x t\PStumpfnähte: s = t\PSchweißnahtvorbereitung nach \PDIN EN ISO 9692-1
 73
     1
 44
1.0
  0
MTEXT
  5
381A9
330
32E6B
100
AcDbEntity
 67
     1
  8
Text
100
AcDbMText
 10
197.6105916402689
 20
51.12474529109511
 30
0.0
 40
2.5
 41
3708.352802702974
 46
0.0
 71
     1
 72
     5
  1
Kanten gebrochen
 73
     1
 44
1.0
  0
ENDBLK
  5
32E8F
330
32E6B
100
AcDbEntity
 67
     1
  8
0
100
AcDbBlockEnd
  0
BLOCK
  5
223DC
330
223D9
100
AcDbEntity
 67
     1
  8
0
100
AcDbBlockBegin
  2
*Paper_Space4
 70
     0
 10
0.0
 20
0.0
 30
0.0
  3
*Paper_Space4
  1

  0
VIEWPORT
  5
223DD
330
223D9
100
AcDbEntity
 67
     1
  8
0
100
AcDbViewport
 10
151.1180845621631
 20
121.3231856609952
 30
0.0
 40
620.6943296502802
 41
290.3138139228608
 68
     0
 69
     0
 12
151.1180845621631
 22
121.3231856609952
 13
0.0
 23
0.0
 14
10.0
 24
10.0
 15
10.0
 25
10.0
 16
0.0
 26
0.0
 36
1.0
 17
0.0
 27
0.0
 37
0.0
 42
50.0
 43
0.0
 44
0.0
 45
290.3138139228608
 50
0.0
 51
0.0
 72
  1000
 90
    32800
  1

281
     0
 71
     1
 74
     0
110
0.0
120
0.0
130
0.0
111
1.0
121
0.0
131
0.0
112
0.0
122
1.0
132
0.0
 79
     0
146
0.0
170
     0
 61
     5
348
1D98
292
     1
282
     1
141
0.0
142
0.0
 63
   250
421
  3355443
1001
GENIUS_GENODEF_13
1002
{
1000
HIER
1070
     0
1002
}
1002
{
1000
MANEDIT
1070
     0
1002
}
1002
{
1000
NOSEL
1070
     0
1002
}
1002
{
1000
BEHIND
1070
     0
1002
}
1002
{
1000
OTHER
1070
     0
1002
}
1002
{
1000
REACTOR
1002
}
1001
GENIUS_GENOBJ-N-SDF_13
1002
{
1000
OWNER
1000
GEN
1002
}
1001
GENIUS_GENSCREG_15
1000
PF
1040
1.0
1000
DF
1040
1.0
1000
MIN
1011
-159.229080262977
1021
-23.83372130043517
1031
0.0
1000
MAX
1011
461.4652493873032
1021
266.4800926224257
1031
0.0
1000
FLAGS
1070
     4
  0
MTEXT
  5
223DE
102
{ACAD_XDICTIONARY
360
360A7
102
}
330
223D9
100
AcDbEntity
 67
     1
  8
Text
100
AcDbMText
 10
277.0088429483699
 20
-23.53235856687786
 30
0.0
 40
1.869999999998981
 41
46.33850439650123
 46
0.0
 71
     1
 72
     5
  1
{\H1.2299x;ESF Emsland Spiel- und Freizeitgeräte GmbH & Co KG\H1.1383x;\P\H0.57296x;Thyssenstraße 7, 49744 Geeste\PTelefon: 05937 97189-0  Telefax: 05937 97189-90\Pkinderland@emsland-spielgeraete.de\Pwww.emsland-spielgeraete.de}
 73
     1
 44
1.0
1001
AcDbBlockRepETag
1070
     1
1071
       14
1005
223DE
  0
INSERT
  5
223DF
330
223D9
100
AcDbEntity
 67
     1
  8
Kontur 25
100
AcDbBlockReference
  2
Eigentum
 10
170.7421823558133
 20
6.502124584520288
 30
0.0
 41
0.8
 42
0.8
 43
0.8
  0
LINE
  5
223E0
330
223D9
100
AcDbEntity
 67
     1
  8
Kontur 25
100
AcDbLine
 10
234.5359029330502
 20
2.213618440870511
 30
0.0
 11
347.3163891760159
 21
2.213618440870511
 31
0.0
1001
AcDbBlockRepETag
1070
     1
1071
        0
1005
223E0
  0
LINE
  5
223E1
330
223D9
100
AcDbEntity
 67
     1
  8
Kontur 25
100
AcDbLine
 10
347.3163891760159
 20
2.213618440870511
 30
0.0
 11
347.3163891760159
 21
-43.04038155910484
 31
0.0
1001
AcDbBlockRepETag
1070
     1
1071
        1
1005
223E1
  0
LINE
  5
223E2
330
223D9
100
AcDbEntity
 67
     1
  8
Kontur 25
100
AcDbLine
 10
330.8603891760249
 20
2.213618440870511
 30
0.0
 11
330.8603891760249
 21
-43.04038155910484
 31
0.0
1001
AcDbBlockRepETag
1070
     1
1071
        2
1005
223E2
  0
LINE
  5
223E3
330
223D9
100
AcDbEntity
 67
     1
  8
Kontur 25
100
AcDbLine
 10
347.3163891760159
 20
-43.04038155910484
 30
0.0
 11
234.5359029330502
 21
-43.04038155910484
 31
0.0
1001
AcDbBlockRepETag
1070
     1
1071
        3
1005
223E3
  0
LINE
  5
223E4
330
223D9
100
AcDbEntity
 67
     1
  8
Kontur 25
100
AcDbLine
 10
234.5359029330502
 20
-43.04038155910484
 30
0.0
 11
234.5359029330502
 21
2.213618440870511
 31
0.0
1001
AcDbBlockRepETag
1070
     1
1071
        4
1005
223E4
  0
LINE
  5
223E5
330
223D9
100
AcDbEntity
 67
     1
  8
Kontur 25
100
AcDbLine
 10
234.5359029330502
 20
-21.64342208357304
 30
0.0
 11
347.3163891760159
 21
-21.64342208357304
 31
0.0
1001
AcDbBlockRepETag
1070
     1
1071
        5
1005
223E5
  0
LINE
  5
223E6
330
223D9
100
AcDbEntity
 67
     1
  8
Kontur 25
100
AcDbLine
 10
234.5359029330502
 20
-6.218216037850801
 30
0.0
 11
347.3163891760159
 21
-6.218216037850801
 31
0.0
1001
AcDbBlockRepETag
1070
     1
1071
        6
1005
223E6
  0
MTEXT
  5
223EA
330
223D9
100
AcDbEntity
 67
     1
  8
Text
100
AcDbMText
 10
338.9063509752605
 20
-1.925124899673818
 30
0.0
 40
2.057
 41
15.606264551133
 46
0.0
 71
     2
 72
     5
  1
1:.......
 73
     1
 44
1.0
  0
MTEXT
  5
223EB
102
{ACAD_XDICTIONARY
360
360A9
102
}
330
223D9
100
AcDbEntity
 67
     1
  8
Text
100
AcDbMText
 10
338.7399919458987
 20
1.005920981037704
 30
0.0
 40
1.481039999999193
 41
4.417149580655754
 46
0.0
 71
     2
 72
     5
  1
Maßstab
 73
     1
 44
1.0
1001
AcDbBlockRepETag
1070
     1
1071
        9
1005
0
  0
IMAGE
  5
223EE
330
223D9
100
AcDbEntity
 67
     1
  8
Bemaßung
160
               140
310
8C0000000100000084000000060000000500000080706BCFB9066E40A0F839A6BFFF44C0000000000000000080706BCFB9066E400D8C7121145336C000000000000000004E1CDB4DACF170400D8C7121145336C000000000000000004E1CDB4DACF17040A0F839A6BFFF44C0000000000000000080706BCFB9066E40A0F839
310
A6BFFF44C00000000000000000
100
AcDbRasterImage
 90
        0
 10
240.2101819132258
 20
-41.99803617315888
 30
0.0
 11
0.0211315899613181
 21
0.0
 31
0.0
 12
0.0
 22
0.0211315899613181
 32
0.0
 13
1462.0
 23
931.0
340
17ED4
 70
     7
280
     0
281
    50
282
    50
283
     0
290
     0
360
223EF
 71
     1
 91
        2
 14
-0.5
 24
-0.5
 14
1461.5
 24
930.4999999999999
  0
MTEXT
  5
223F0
102
{ACAD_XDICTIONARY
360
360AB
102
}
330
223D9
100
AcDbEntity
 67
     1
  8
Text
100
AcDbMText
 10
240.5610885335329
 20
-0.0869850681258413
 30
0.0
 40
3.399999999999999
 41
91.63035393548602
 46
0.0
 71
     1
 72
     5
  1
Ausführungszeichnung
 73
     1
 44
1.0
  0
MTEXT
  5
223F1
330
223D9
100
AcDbEntity
 67
     1
  8
Text
100
AcDbMText
 10
240.2775386986066
 20
-8.961333470684962
 30
0.0
 40
3.399999999999999
 41
88.77835617452729
 46
0.0
 71
     1
 72
     5
  1
Bezeichnung\PBV: 
 73
     1
 44
1.0
  0
VIEWPORT
  5
223F2
102
{ACAD_XDICTIONARY
360
223F3
102
}
330
223D9
100
AcDbEntity
 67
     1
  8
Ansichtsfenster
100
AcDbViewport
 10
146.5864487102228
 20
120.3816361423901
 30
0.0
 40
404.8768117995209
 41
234.5495125874977
 68
     0
 69
     0
 12
9499.432450507319
 22
13775.72745319717
 13
0.0
 23
0.0
 14
10.0
 24
10.0
 15
10.0
 25
10.0
 16
0.0
 26
0.0
 36
1.0
 17
0.0
 27
0.0
 37
0.0
 42
50.0
 43
0.0
 44
0.0
 45
11727.47563245848
 50
0.0
 51
0.0
 72
  1000
 90
   819296
  1

281
     0
 71
     1
 74
     0
110
0.0
120
0.0
130
0.0
111
1.0
121
0.0
131
0.0
112
0.0
122
1.0
132
0.0
 79
     0
146
0.0
170
     0
 61
     5
348
1D98
292
     1
282
     1
141
0.0
142
0.0
 63
   250
421
  3355443
1001
GENIUS_GENOBJ-N-SDF_13
1002
{
1000
OWNER
1000
GEN
1002
}
1001
GENIUS_GENODEF_13
1002
{
1000
HIER
1070
     0
1002
}
1002
{
1000
MANEDIT
1070
     0
1002
}
1002
{
1000
NOSEL
1070
     0
1002
}
1002
{
1000
BEHIND
1070
     0
1002
}
1002
{
1000
OTHER
1070
     0
1002
}
1002
{
1000
REACTOR
1002
}
1001
GENIUS_GENSCREG_15
1000
PF
1040
0.0
1000
DF
1040
0.0
1000
MIN
1011
-55.85195718953764
1021
3.106879848641256
1031
0.0
1000
MAX
1011
349.0248546099833
1021
237.656392436139
1031
0.0
1000
FLAGS
1070
     4
  0
LINE
  5
223F5
330
223D9
100
AcDbEntity
 67
     1
  8
Kontur 25
100
AcDbLine
 10
330.8603891760249
 20
-13.07418404320144
 30
0.0
 11
347.3163891760159
 21
-13.07418404320144
 31
0.0
  0
MTEXT
  5
223F6
330
223D9
100
AcDbEntity
 67
     1
  8
Text
100
AcDbMText
 10
338.9063509752605
 20
-9.500324360884647
 30
0.0
 40
2.057
 41
15.606264551133
 46
0.0
 71
     2
 72
     5
  1
A ......
 73
     1
 44
1.0
  0
MTEXT
  5
223F7
102
{ACAD_XDICTIONARY
360
360AE
102
}
330
223D9
100
AcDbEntity
 67
     1
  8
Text
100
AcDbMText
 10
339.3264814223864
 20
-6.975053173743276
 30
0.0
 40
1.481039999999193
 41
8.574395385718057
 46
0.0
 71
     2
 72
     5
  1
Blattgröße
 73
     1
 44
1.0
1001
AcDbBlockRepETag
1070
     1
1071
        9
1005
0
  0
MTEXT
  5
223F8
330
223D9
100
AcDbEntity
 67
     1
  8
Text
100
AcDbMText
 10
339.2384873118713
 20
-18.02216386269583
 30
0.0
 40
2.057
 41
15.606264551133
 46
0.0
 71
     2
 72
     5
  1
......./15
 73
     1
 44
1.0
  0
MTEXT
  5
223F9
330
223D9
100
AcDbEntity
 67
     1
  8
Text
100
AcDbMText
 10
339.306037725456
 20
-14.21900001235644
 30
0.0
 40
1.481039999999193
 41
14.94369972815082
 46
0.0
 71
     2
 72
     5
  1
AB - Nr.:
 73
     1
 44
1.0
1001
AcDbBlockRepETag
1070
     1
1071
        9
1005
0
  0
INSERT
  5
22440
330
223D9
100
AcDbEntity
 67
     1
  8
Text
100
AcDbBlockReference
  2
Ausführungsgenehmigung
 10
269.1521844027502
 20
8.858791036540196
 30
0.0
  0
LINE
  5
2245D
330
223D9
100
AcDbEntity
 67
     1
  8
Kontur 25
100
AcDbLine
 10
234.5359029330502
 20
-43.04038155910484
 30
0.0
 11
182.1759029330787
 21
-43.04038155910484
 31
0.0
1001
AcDbBlockRepETag
1070
     1
1071
        3
1005
0
  0
LINE
  5
2245E
330
223D9
100
AcDbEntity
 67
     1
  8
Kontur 25
100
AcDbLine
 10
182.1759029330787
 20
-16.26062481637463
 30
0.0
 11
234.5359029330502
 21
-16.26062481637463
 31
0.0
1001
AcDbBlockRepETag
1070
     1
1071
        6
1005
0
  0
LINE
  5
2245F
330
223D9
100
AcDbEntity
 67
     1
  8
Kontur 25
100
AcDbLine
 10
182.1759029330787
 20
-16.26062481637463
 30
0.0
 11
182.1759029330787
 21
-43.04038155910484
 31
0.0
  0
LINE
  5
22460
330
223D9
100
AcDbEntity
 67
     1
  8
Kontur 25
100
AcDbLine
 10
234.5359029330502
 20
-38.00446152132293
 30
0.0
 11
182.1759029330787
 21
-38.00446152132293
 31
0.0
1001
AcDbBlockRepETag
1070
     1
1071
        3
1005
0
  0
LINE
  5
22461
330
223D9
100
AcDbEntity
 67
     1
  8
Kontur 25
100
AcDbLine
 10
234.5359029330502
 20
-37.00446152132292
 30
0.0
 11
182.1759029330787
 21
-37.00446152132292
 31
0.0
1001
AcDbBlockRepETag
1070
     1
1071
        3
1005
0
  0
MTEXT
  5
22462
102
{ACAD_XDICTIONARY
360
360B1
102
}
330
223D9
100
AcDbEntity
 67
     1
  8
Text
100
AcDbMText
 10
183.9764180135513
 20
-39.22660871291297
 30
0.0
 40
2.0
 41
28.25394854524562
 46
0.0
 71
     1
 72
     5
  1
Änderung
  7
2.5
 73
     1
 44
1.0
  0
LINE
  5
22463
330
223D9
100
AcDbEntity
 67
     1
  8
Kontur 25
100
AcDbLine
 10
213.376645227127
 20
-16.26062481637463
 30
0.0
 11
213.376645227127
 21
-43.04038155910484
 31
0.0
  0
LINE
  5
22464
330
223D9
100
AcDbEntity
 67
     1
  8
Kontur 25
100
AcDbLine
 10
226.0851301119378
 20
-16.26062481637463
 30
0.0
 11
226.0851301119378
 21
-43.04038155910484
 31
0.0
  0
MTEXT
  5
22465
330
223D9
100
AcDbEntity
 67
     1
  8
Text
100
AcDbMText
 10
214.5895826761901
 20
-39.16286786980325
 30
0.0
 40
2.0
 41
28.25394854524562
 46
0.0
 71
     1
 72
     5
  1
Datum
  7
2.5
 73
     1
 44
1.0
  0
LINE
  5
22466
330
223D9
100
AcDbEntity
 67
     1
  8
Kontur 25
100
AcDbLine
 10
234.5359029330502
 20
-32.69463512176901
 30
0.0
 11
182.1759029330787
 21
-32.69463512176901
 31
0.0
1001
AcDbBlockRepETag
1070
     1
1071
        3
1005
0
  0
LINE
  5
22467
330
223D9
100
AcDbEntity
 67
     1
  8
Kontur 25
100
AcDbLine
 10
234.5359029330502
 20
-27.47895648599081
 30
0.0
 11
182.1759029330787
 21
-27.47895648599081
 31
0.0
1001
AcDbBlockRepETag
1070
     1
1071
        3
1005
0
  0
LINE
  5
22468
330
223D9
100
AcDbEntity
 67
     1
  8
Kontur 25
100
AcDbLine
 10
234.5359029330502
 20
-22.28702880680976
 30
0.0
 11
182.1759029330787
 21
-22.28702880680976
 31
0.0
1001
AcDbBlockRepETag
1070
     1
1071
        3
1005
0
  0
MTEXT
  5
22469
330
223D9
100
AcDbEntity
 67
     1
  8
Text
100
AcDbMText
 10
226.9129403512385
 20
-39.10431133908938
 30
0.0
 40
2.0
 41
6.691653729677547
 46
0.0
 71
     1
 72
     5
  1
gez.
  7
2.5
 73
     1
 44
1.0
  0
MTEXT
  5
2246A
330
223D9
100
AcDbEntity
 67
     1
  8
Text
100
AcDbMText
 10
339.2008499241534
 20
-32.9464229032502
 30
0.0
 40
2.057
 41
13.70835466788307
 46
0.0
 71
     2
 72
     5
  1
......
 73
     1
 44
1.0
  0
MTEXT
  5
2246B
330
223D9
100
AcDbEntity
 67
     1
  8
Text
100
AcDbMText
 10
339.2035526491065
 20
-25.69132825812186
 30
0.0
 40
2.057
 41
11.56270230355944
 46
0.0
 71
     2
 72
     5
  1
TT.MM.JJ
 73
     1
 44
1.0
  0
MTEXT
  5
2246C
330
223D9
100
AcDbEntity
 67
     1
  8
Text
100
AcDbMText
 10
339.0542543655972
 20
-22.50994472894875
 30
0.0
 40
1.481039999999193
 41
3.909875974208751
 46
0.0
 71
     2
 72
     5
  1
Datum
 73
     1
 44
1.0
1001
AcDbBlockRepETag
1070
     1
1071
       12
1005
0
  0
MTEXT
  5
2246D
330
223D9
100
AcDbEntity
 67
     1
  8
Text
100
AcDbMText
 10
339.1664299294979
 20
-29.81966825486346
 30
0.0
 40
1.481039999999193
 41
9.618196027932976
 46
0.0
 71
     2
 72
     5
  1
gez.
 73
     1
 44
1.0
1001
AcDbBlockRepETag
1070
     1
1071
       13
1005
0
  0
MTEXT
  5
2246E
330
223D9
100
AcDbEntity
 67
     1
  8
Text
100
AcDbMText
 10
339.2008499241534
 20
-40.07975620325019
 30
0.0
 40
2.057
 41
13.70835466788307
 46
0.0
 71
     2
 72
     5
  1
.......
 73
     1
 44
1.0
  0
MTEXT
  5
2246F
330
223D9
100
AcDbEntity
 67
     1
  8
Text
100
AcDbMText
 10
339.1664299294979
 20
-36.82610905277055
 30
0.0
 40
1.481039999999193
 41
6.535762878169712
 46
0.0
 71
     2
 72
     5
  1
gepr.
 73
     1
 44
1.0
1001
AcDbBlockRepETag
1070
     1
1071
       13
1005
0
  0
LINE
  5
22470
330
223D9
100
AcDbEntity
 67
     1
  8
Kontur 25
100
AcDbLine
 10
330.8603891760249
 20
-28.77675538357305
 30
0.0
 11
347.3163891760159
 21
-28.77675538357305
 31
0.0
1001
AcDbBlockRepETag
1070
     1
1071
        5
1005
0
  0
LINE
  5
22471
330
223D9
100
AcDbEntity
 67
     1
  8
Kontur 25
100
AcDbLine
 10
330.8603891760249
 20
-35.91008868357305
 30
0.0
 11
347.3163891760159
 21
-35.91008868357305
 31
0.0
1001
AcDbBlockRepETag
1070
     1
1071
        5
1005
0
  0
ENDBLK
  5
223FA
330
223D9
100
AcDbEntity
 67
     1
  8
0
100
AcDbBlockEnd
  0
BLOCK
  5
32BE8
330
32BE5
100
AcDbEntity
 67
     1
  8
0
100
AcDbBlockBegin
  2
*Paper_Space5
 70
     0
 10
0.0
 20
0.0
 30
0.0
  3
*Paper_Space5
  1

  0
VIEWPORT
  5
32BE9
330
32BE5
100
AcDbEntity
 67
     1
  8
0
100
AcDbViewport
 10
64.51726559494471
 20
114.3155258899702
 30
0.0
 40
608.7213348026083
 41
284.7137534224454
 68
     0
 69
     0
 12
64.51726559494471
 22
114.3155258899702
 13
0.0
 23
0.0
 14
10.0
 24
10.0
 15
10.0
 25
10.0
 16
0.0
 26
0.0
 36
1.0
 17
0.0
 27
0.0
 37
0.0
 42
50.0
 43
0.0
 44
0.0
 45
284.7137534224454
 50
0.0
 51
0.0
 72
  1000
 90
    32800
  1

281
     0
 71
     1
 74
     0
110
0.0
120
0.0
130
0.0
111
1.0
121
0.0
131
0.0
112
0.0
122
1.0
132
0.0
 79
     0
146
0.0
170
     0
 61
     5
348
1D98
292
     1
282
     1
141
0.0
142
0.0
 63
   250
421
  3355443
1001
GENIUS_GENODEF_13
1002
{
1000
HIER
1070
     0
1002
}
1002
{
1000
MANEDIT
1070
     0
1002
}
1002
{
1000
NOSEL
1070
     0
1002
}
1002
{
1000
BEHIND
1070
     0
1002
}
1002
{
1000
OTHER
1070
     0
1002
}
1002
{
1000
REACTOR
1002
}
1001
GENIUS_GENOBJ-N-SDF_13
1002
{
1000
OWNER
1000
GEN
1002
}
1001
GENIUS_GENSCREG_15
1000
PF
1040
1.0
1000
DF
1040
1.0
1000
MIN
1011
-239.8434018063595
1021
-28.04135082125242
1031
0.0
1000
MAX
1011
368.8779329962489
1021
256.672402601193
1031
0.0
1000
FLAGS
1070
     4
  0
VIEWPORT
  5
32BEA
102
{ACAD_XDICTIONARY
360
32BEB
102
}
330
32BE5
100
AcDbEntity
 67
     1
  8
Ansichtsfenster
100
AcDbViewport
 10
145.7674881198877
 20
122.8226107126899
 30
0.0
 40
198.2101190363305
 41
235.0116928847925
 68
     0
 69
     0
 12
32261.14497116747
 22
10688.54362845688
 13
0.0
 23
0.0
 14
10.0
 24
10.0
 15
10.0
 25
10.0
 16
0.0
 26
0.0
 36
1.0
 17
0.0
 27
0.0
 37
0.0
 42
50.0
 43
0.0
 44
0.0
 45
11750.58493508594
 50
0.0
 51
0.0
 72
  1000
 90
   819296
  1

281
     0
 71
     1
 74
     0
110
0.0
120
0.0
130
0.0
111
1.0
121
0.0
131
0.0
112
0.0
122
1.0
132
0.0
 79
     0
146
0.0
170
     0
 61
     5
348
1D98
292
     1
282
     1
141
0.0
142
0.0
 63
   250
421
  3355443
1001
GENIUS_GENODEF_13
1002
{
1000
HIER
1070
     0
1002
}
1002
{
1000
MANEDIT
1070
     0
1002
}
1002
{
1000
NOSEL
1070
     0
1002
}
1002
{
1000
BEHIND
1070
     0
1002
}
1002
{
1000
OTHER
1070
     0
1002
}
1002
{
1000
REACTOR
1002
}
1001
GENIUS_GENOBJ-N-SDF_13
1002
{
1000
OWNER
1000
GEN
1002
}
1001
GENIUS_GENSCREG_15
1000
PF
1040
0.0
1000
DF
1040
0.0
1000
MIN
1011
46.66242860172246
1021
5.316764270293674
1031
0.0
1000
MAX
1011
244.872547638053
1021
240.3284571550862
1031
0.0
1000
FLAGS
1070
     4
  0
MTEXT
  5
35F9E
102
{ACAD_XDICTIONARY
360
36146
102
}
330
32BE5
100
AcDbEntity
 67
     1
  8
Text
100
AcDbMText
 10
174.3208406480148
 20
-25.2111207100283
 30
0.0
 40
1.869999999998981
 41
46.33850439650123
 46
0.0
 71
     1
 72
     5
  1
{\H1.2299x;ESF Emsland Spiel- und Freizeitgeräte GmbH & Co KG\H1.1383x;\P\H0.57296x;Thyssenstraße 7, 49744 Geeste\PTelefon: 05937 97189-0  Telefax: 05937 97189-90\Pkinderland@emsland-spielgeraete.de\Pwww.emsland-spielgeraete.de}
 73
     1
 44
1.0
1001
AcDbBlockRepETag
1070
     1
1071
       14
1005
35F9E
  0
INSERT
  5
35F9F
330
32BE5
100
AcDbEntity
 67
     1
  8
Kontur 25
100
AcDbBlockReference
  2
Eigentum
 10
73.57842544080859
 20
-29.82402403042312
 30
0.0
 41
0.8
 42
0.8
 43
0.8
  0
LINE
  5
35FA0
330
32BE5
100
AcDbEntity
 67
     1
  8
Kontur 25
100
AcDbLine
 10
131.8479006326952
 20
0.5348562977200757
 30
0.0
 11
244.6283868756609
 21
0.5348562977200757
 31
0.0
1001
AcDbBlockRepETag
1070
     1
1071
        0
1005
35FA0
  0
LINE
  5
35FA1
330
32BE5
100
AcDbEntity
 67
     1
  8
Kontur 25
100
AcDbLine
 10
244.6283868756609
 20
0.5348562977200757
 30
0.0
 11
244.6283868756609
 21
-44.71914370225528
 31
0.0
1001
AcDbBlockRepETag
1070
     1
1071
        1
1005
35FA1
  0
LINE
  5
35FA2
330
32BE5
100
AcDbEntity
 67
     1
  8
Kontur 25
100
AcDbLine
 10
228.1723868756699
 20
0.5348562977200757
 30
0.0
 11
228.1723868756699
 21
-44.71914370225528
 31
0.0
1001
AcDbBlockRepETag
1070
     1
1071
        2
1005
35FA2
  0
LINE
  5
35FA3
330
32BE5
100
AcDbEntity
 67
     1
  8
Kontur 25
100
AcDbLine
 10
244.6283868756609
 20
-44.71914370225528
 30
0.0
 11
131.8479006326952
 21
-44.71914370225528
 31
0.0
1001
AcDbBlockRepETag
1070
     1
1071
        3
1005
35FA3
  0
LINE
  5
35FA4
330
32BE5
100
AcDbEntity
 67
     1
  8
Kontur 25
100
AcDbLine
 10
131.8479006326952
 20
-44.71914370225528
 30
0.0
 11
131.8479006326952
 21
0.5348562977200757
 31
0.0
1001
AcDbBlockRepETag
1070
     1
1071
        4
1005
35FA4
  0
LINE
  5
35FA5
330
32BE5
100
AcDbEntity
 67
     1
  8
Kontur 25
100
AcDbLine
 10
131.8479006326952
 20
-23.32218422672348
 30
0.0
 11
244.6283868756609
 21
-23.32218422672348
 31
0.0
1001
AcDbBlockRepETag
1070
     1
1071
        5
1005
35FA5
  0
LINE
  5
35FA6
330
32BE5
100
AcDbEntity
 67
     1
  8
Kontur 25
100
AcDbLine
 10
131.8479006326952
 20
-7.89697818100123
 30
0.0
 11
244.6283868756609
 21
-7.89697818100123
 31
0.0
1001
AcDbBlockRepETag
1070
     1
1071
        6
1005
35FA6
  0
LINE
  5
35FA7
330
32BE5
100
AcDbEntity
 67
     1
  8
Kontur 25
100
AcDbLine
 10
244.6283868756609
 20
-34.02066396448939
 30
0.0
 11
228.1723868756699
 21
-34.02066396448939
 31
0.0
1001
AcDbBlockRepETag
1070
     1
1071
        8
1005
35FA7
  0
MTEXT
  5
35FA8
330
32BE5
100
AcDbEntity
 67
     1
  8
Text
100
AcDbMText
 10
236.5128476237984
 20
-39.42628946119652
 30
0.0
 40
2.057
 41
13.70835466788307
 46
0.0
 71
     2
 72
     5
  1
.....
 73
     1
 44
1.0
  0
MTEXT
  5
35FA9
330
32BE5
100
AcDbEntity
 67
     1
  8
Text
100
AcDbMText
 10
236.5155503487515
 20
-28.6524731643886
 30
0.0
 40
2.057
 41
11.56270230355944
 46
0.0
 71
     2
 72
     5
  1
......
 73
     1
 44
1.0
  0
MTEXT
  5
35FAA
330
32BE5
100
AcDbEntity
 67
     1
  8
Text
100
AcDbMText
 10
236.2183486749054
 20
-3.603887042824254
 30
0.0
 40
2.057
 41
15.606264551133
 46
0.0
 71
     2
 72
     5
  1
1:...
 73
     1
 44
1.0
  0
MTEXT
  5
35FAB
102
{ACAD_XDICTIONARY
360
36148
102
}
330
32BE5
100
AcDbEntity
 67
     1
  8
Text
100
AcDbMText
 10
236.0519896455437
 20
-0.6728411621127322
 30
0.0
 40
1.481039999999193
 41
4.417149580655754
 46
0.0
 71
     2
 72
     5
  1
Maßstab
 73
     1
 44
1.0
1001
AcDbBlockRepETag
1070
     1
1071
        9
1005
0
  0
MTEXT
  5
35FAC
330
32BE5
100
AcDbEntity
 67
     1
  8
Text
100
AcDbMText
 10
236.3662520652422
 20
-25.04241681263133
 30
0.0
 40
1.481039999999193
 41
3.909875974208751
 46
0.0
 71
     2
 72
     5
  1
Datum
 73
     1
 44
1.0
1001
AcDbBlockRepETag
1070
     1
1071
       12
1005
0
  0
MTEXT
  5
35FAD
330
32BE5
100
AcDbEntity
 67
     1
  8
Text
100
AcDbMText
 10
236.4784276291429
 20
-35.2656014336557
 30
0.0
 40
1.481039999999193
 41
3.544837908392965
 46
0.0
 71
     2
 72
     5
  1
gez.
 73
     1
 44
1.0
1001
AcDbBlockRepETag
1070
     1
1071
       13
1005
0
  0
IMAGE
  5
35FAE
330
32BE5
100
AcDbEntity
 67
     1
  8
Bemaßung
160
               140
310
8C0000000100000084000000060000000500000060FD04B2B5306140A844C553A1D645C0000000000000000060FD04B2B53061401D24887CD70038C000000000000000007CC54F7E540D65401D24887CD70038C000000000000000007CC54F7E540D6540A844C553A1D645C0000000000000000060FD04B2B5306140A844C5
310
53A1D645C00000000000000000
100
AcDbRasterImage
 90
        0
 10
137.5221796128708
 20
-43.67679831630931
 30
0.0
 11
0.0211315899613181
 21
0.0
 31
0.0
 12
0.0
 22
0.0211315899613181
 32
0.0
 13
1462.0
 23
931.0
340
17ED4
 70
     7
280
     0
281
    50
282
    50
283
     0
290
     0
360
35FAF
 71
     1
 91
        2
 14
-0.5
 24
-0.5
 14
1461.5
 24
930.4999999999999
  0
MTEXT
  5
35FB0
330
32BE5
100
AcDbEntity
 67
     1
  8
Text
100
AcDbMText
 10
137.8730862331779
 20
-1.765747211276277
 30
0.0
 40
3.399999999999999
 41
91.63035393548602
 46
0.0
 71
     1
 72
     5
  1
Angebotszeichnung
 73
     1
 44
1.0
  0
LINE
  5
35FB1
330
32BE5
100
AcDbEntity
 67
     1
  8
Kontur 25
100
AcDbLine
 10
228.1723868756699
 20
-14.75294618635188
 30
0.0
 11
244.6283868756609
 21
-14.75294618635188
 31
0.0
  0
MTEXT
  5
35FB2
330
32BE5
100
AcDbEntity
 67
     1
  8
Text
100
AcDbMText
 10
236.2183486749054
 20
-11.17908650403508
 30
0.0
 40
2.057
 41
15.606264551133
 46
0.0
 71
     2
 72
     5
  1
A ...
 73
     1
 44
1.0
  0
MTEXT
  5
35FB3
102
{ACAD_XDICTIONARY
360
3614A
102
}
330
32BE5
100
AcDbEntity
 67
     1
  8
Text
100
AcDbMText
 10
236.6384791220314
 20
-8.653815316893712
 30
0.0
 40
1.481039999999193
 41
8.574395385718057
 46
0.0
 71
     2
 72
     5
  1
Blattgröße
 73
     1
 44
1.0
1001
AcDbBlockRepETag
1070
     1
1071
        9
1005
0
  0
MTEXT
  5
35FB4
330
32BE5
100
AcDbEntity
 67
     1
  8
Text
100
AcDbMText
 10
236.5504850115162
 20
-19.70092600584627
 30
0.0
 40
2.057
 41
15.606264551133
 46
0.0
 71
     2
 72
     5
  1
...../15
 73
     1
 44
1.0
  0
MTEXT
  5
35FB5
330
32BE5
100
AcDbEntity
 67
     1
  8
Text
100
AcDbMText
 10
236.618035425101
 20
-15.89776215550688
 30
0.0
 40
1.481039999999193
 41
14.94369972815082
 46
0.0
 71
     2
 72
     5
  1
Angebots- Nr.:
 73
     1
 44
1.0
1001
AcDbBlockRepETag
1070
     1
1071
        9
1005
0
  0
MTEXT
  5
35FB6
330
32BE5
100
AcDbEntity
 67
     1
  8
Text
100
AcDbMText
 10
138.3083474046175
 20
-9.962779858462965
 30
0.0
 40
3.399999999999999
 41
88.77835617452729
 46
0.0
 71
     1
 72
     5
  1
Bezeichnung\PBV: 
 73
     1
 44
1.0
  0
IMAGE
  5
37E25
330
32BE5
100
AcDbEntity
 67
     1
  8
Bemaßung
160
               140
310
8C00000001000000840000000600000005000000428D0060A9E546405823E385A3216E400000000000000000408D0060A9E5464030F821CB0CEC46C00000000000000000207DA7474703534030F821CB0CEC46C00000000000000000217DA747470353405823E385A3216E400000000000000000428D0060A9E546405823E3
310
85A3216E400000000000000000
100
AcDbRasterImage
 90
        0
 10
45.79423141505185
 20
-45.84414042624155
 30
0.0
 11
0.0876819534625913
 21
0.0
 31
0.0
 12
0.0
 22
0.0876819534625913
 32
0.0
 13
2228.0
 23
3272.0
340
37DFA
 70
     7
280
     1
281
    50
282
    50
283
     0
290
     0
360
37E26
 71
     1
 91
        2
 14
-0.5
 24
-0.5
 14
344.5766431390692
 24
3271.5
  0
ENDBLK
  5
32C06
330
32BE5
100
AcDbEntity
 67
     1
  8
0
100
AcDbBlockEnd
  0
BLOCK
  5
32B53
330
32B50
100
AcDbEntity
 67
     1
  8
0
100
AcDbBlockBegin
  2
*Paper_Space6
 70
     0
 10
0.0
 20
0.0
 30
0.0
  3
*Paper_Space6
  1

  0
VIEWPORT
  5
32B54
330
32B50
100
AcDbEntity
 67
     1
  8
0
100
AcDbViewport
 10
145.9825231674813
 20
95.82478571679894
 30
0.0
 40
586.6065829733106
 41
307.752653895147
 68
     0
 69
     0
 12
145.9825231674813
 22
95.82478571679894
 13
0.0
 23
0.0
 14
10.0
 24
10.0
 15
10.0
 25
10.0
 16
0.0
 26
0.0
 36
1.0
 17
0.0
 27
0.0
 37
0.0
 42
50.0
 43
0.0
 44
0.0
 45
307.752653895147
 50
0.0
 51
0.0
 72
  1000
 90
    32800
  1

281
     0
 71
     1
 74
     0
110
0.0
120
0.0
130
0.0
111
1.0
121
0.0
131
0.0
112
0.0
122
1.0
132
0.0
 79
     0
146
0.0
170
     0
 61
     5
348
1D98
292
     1
282
     1
141
0.0
142
0.0
 63
   250
421
  3355443
1001
GENIUS_GENOBJ-N-SDF_13
1002
{
1000
OWNER
1000
GEN
1002
}
1001
GENIUS_GENODEF_13
1002
{
1000
HIER
1070
     0
1002
}
1002
{
1000
MANEDIT
1070
     0
1002
}
1002
{
1000
NOSEL
1070
     0
1002
}
1002
{
1000
BEHIND
1070
     0
1002
}
1002
{
1000
OTHER
1070
     0
1002
}
1002
{
1000
REACTOR
1002
}
1001
GENIUS_GENSCREG_15
1000
PF
1040
1.0
1000
DF
1040
1.0
1000
MIN
1011
-147.320768319174
1021
-58.05154123077454
1031
0.0
1000
MAX
1011
439.2858146541366
1021
249.7011126643724
1031
0.0
1000
FLAGS
1070
     4
  0
VIEWPORT
  5
32B55
102
{ACAD_XDICTIONARY
360
32B56
102
}
330
32B50
100
AcDbEntity
 67
     1
  8
Ansichtsfenster
100
AcDbViewport
 10
145.9539863858397
 20
97.80224276901197
 30
0.0
 40
286.4680314527573
 41
199.1468164613634
 68
     0
 69
     0
 12
16292.31498372976
 22
36898.46455132184
 13
0.0
 23
0.0
 14
10.0
 24
10.0
 15
10.0
 25
10.0
 16
0.0
 26
0.0
 36
1.0
 17
0.0
 27
0.0
 37
0.0
 42
50.0
 43
0.0
 44
0.0
 45
9957.34095126134
 50
0.0
 51
0.0
 72
  1000
 90
   819296
  1

281
     0
 71
     1
 74
     0
110
0.0
120
0.0
130
0.0
111
1.0
121
0.0
131
0.0
112
0.0
122
1.0
132
0.0
 79
     0
146
0.0
170
     0
 61
     5
348
1D98
292
     1
282
     1
141
0.0
142
0.0
 63
   250
421
  3355443
1001
GENIUS_GENOBJ-N-SDF_13
1002
{
1000
OWNER
1000
GEN
1002
}
1001
GENIUS_GENODEF_13
1002
{
1000
HIER
1070
     0
1002
}
1002
{
1000
MANEDIT
1070
     0
1002
}
1002
{
1000
NOSEL
1070
     0
1002
}
1002
{
1000
BEHIND
1070
     0
1002
}
1002
{
1000
OTHER
1070
     0
1002
}
1002
{
1000
REACTOR
1002
}
1001
GENIUS_GENSCREG_15
1000
PF
1040
0.0
1000
DF
1040
0.0
1000
MIN
1011
2.719970659461068
1021
-1.771165461669738
1031
0.0
1000
MAX
1011
289.1880021122183
1021
197.3756509996936
1031
0.0
1000
FLAGS
1070
     4
  0
MTEXT
  5
32B58
102
{ACAD_XDICTIONARY
360
360C2
102
}
330
32B50
100
AcDbEntity
 67
     1
  8
Text
100
AcDbMText
 10
217.9226244159454
 20
18.35569997161315
 30
0.0
 40
1.869999999998981
 41
46.33850439650123
 46
0.0
 71
     1
 72
     5
  1
{\H1.2299x;ESF Emsland Spiel- und Freizeitgeräte GmbH & Co KG\H1.1383x;\P\H0.57296x;Thyssenstraße 7, 49744 Geeste\PTelefon: 05937 97189-0  Telefax: 05937 97189-90\Pkinderland@emsland-spielgeraete.de\Pwww.emsland-spielgeraete.de}
 73
     1
 44
1.0
1001
AcDbBlockRepETag
1070
     1
1071
       14
1005
32B58
  0
INSERT
  5
32B59
330
32B50
100
AcDbEntity
 67
     1
  8
Kontur 25
100
AcDbBlockReference
  2
Eigentum
 10
117.1802092087391
 20
13.74279665121832
 30
0.0
 41
0.8
 42
0.8
 43
0.8
  0
LINE
  5
32B5A
330
32B50
100
AcDbEntity
 67
     1
  8
Kontur 25
100
AcDbLine
 10
175.4496844006257
 20
44.10167697936151
 30
0.0
 11
288.2301706435915
 21
44.10167697936151
 31
0.0
1001
AcDbBlockRepETag
1070
     1
1071
        0
1005
32B5A
  0
LINE
  5
32B5B
330
32B50
100
AcDbEntity
 67
     1
  8
Kontur 25
100
AcDbLine
 10
288.2301706435915
 20
44.10167697936151
 30
0.0
 11
288.2301706435915
 21
-1.152323020613835
 31
0.0
1001
AcDbBlockRepETag
1070
     1
1071
        1
1005
32B5B
  0
LINE
  5
32B5C
330
32B50
100
AcDbEntity
 67
     1
  8
Kontur 25
100
AcDbLine
 10
271.7741706436004
 20
44.10167697936151
 30
0.0
 11
271.7741706436004
 21
-1.152323020613835
 31
0.0
1001
AcDbBlockRepETag
1070
     1
1071
        2
1005
32B5C
  0
LINE
  5
32B5D
330
32B50
100
AcDbEntity
 67
     1
  8
Kontur 25
100
AcDbLine
 10
288.2301706435915
 20
-1.152323020613835
 30
0.0
 11
175.4496844006257
 21
-1.152323020613835
 31
0.0
1001
AcDbBlockRepETag
1070
     1
1071
        3
1005
32B5D
  0
LINE
  5
32B5E
330
32B50
100
AcDbEntity
 67
     1
  8
Kontur 25
100
AcDbLine
 10
175.4496844006257
 20
-1.152323020613835
 30
0.0
 11
175.4496844006257
 21
44.10167697936151
 31
0.0
1001
AcDbBlockRepETag
1070
     1
1071
        4
1005
32B5E
  0
LINE
  5
32B5F
330
32B50
100
AcDbEntity
 67
     1
  8
Kontur 25
100
AcDbLine
 10
175.4496844006257
 20
20.24463645491797
 30
0.0
 11
288.2301706435915
 21
20.24463645491797
 31
0.0
1001
AcDbBlockRepETag
1070
     1
1071
        5
1005
32B5F
  0
LINE
  5
32B60
330
32B50
100
AcDbEntity
 67
     1
  8
Kontur 25
100
AcDbLine
 10
175.4496844006257
 20
35.66984250064022
 30
0.0
 11
288.2301706435915
 21
35.66984250064022
 31
0.0
1001
AcDbBlockRepETag
1070
     1
1071
        6
1005
32B60
  0
LINE
  5
32B61
330
32B50
100
AcDbEntity
 67
     1
  8
Kontur 25
100
AcDbLine
 10
288.2301706435915
 20
9.546156717152058
 30
0.0
 11
271.7741706436004
 21
9.546156717152058
 31
0.0
1001
AcDbBlockRepETag
1070
     1
1071
        8
1005
32B61
  0
MTEXT
  5
32B62
330
32B50
100
AcDbEntity
 67
     1
  8
Text
100
AcDbMText
 10
280.1146313917289
 20
4.140531220444927
 30
0.0
 40
2.057
 41
13.70835466788307
 46
0.0
 71
     2
 72
     5
  1
.....
 73
     1
 44
1.0
  0
MTEXT
  5
32B63
330
32B50
100
AcDbEntity
 67
     1
  8
Text
100
AcDbMText
 10
280.1173341166821
 20
14.91434751725285
 30
0.0
 40
2.057
 41
11.56270230355944
 46
0.0
 71
     2
 72
     5
  1
......
 73
     1
 44
1.0
  0
MTEXT
  5
32B64
330
32B50
100
AcDbEntity
 67
     1
  8
Text
100
AcDbMText
 10
279.820132442836
 20
39.96293363881719
 30
0.0
 40
2.057
 41
15.606264551133
 46
0.0
 71
     2
 72
     5
  1
1:...
 73
     1
 44
1.0
  0
MTEXT
  5
32B65
102
{ACAD_XDICTIONARY
360
360C4
102
}
330
32B50
100
AcDbEntity
 67
     1
  8
Text
100
AcDbMText
 10
279.6537734134742
 20
42.89397951952871
 30
0.0
 40
1.481039999999193
 41
4.417149580655754
 46
0.0
 71
     2
 72
     5
  1
Maßstab
 73
     1
 44
1.0
1001
AcDbBlockRepETag
1070
     1
1071
        9
1005
0
  0
MTEXT
  5
32B66
330
32B50
100
AcDbEntity
 67
     1
  8
Text
100
AcDbMText
 10
279.9680358331727
 20
18.52440386901011
 30
0.0
 40
1.481039999999193
 41
3.909875974208751
 46
0.0
 71
     2
 72
     5
  1
Datum
 73
     1
 44
1.0
1001
AcDbBlockRepETag
1070
     1
1071
       12
1005
0
  0
MTEXT
  5
32B67
330
32B50
100
AcDbEntity
 67
     1
  8
Text
100
AcDbMText
 10
280.0802113970734
 20
8.301219247985741
 30
0.0
 40
1.481039999999193
 41
3.544837908392965
 46
0.0
 71
     2
 72
     5
  1
gez.
 73
     1
 44
1.0
1001
AcDbBlockRepETag
1070
     1
1071
       13
1005
0
  0
IMAGE
  5
32B68
330
32B50
100
AcDbEntity
 67
     1
  8
Bemaßung
160
               140
310
8C00000001000000840000000600000005000000304E0D82F7A3664000A030887E27BCBF0000000000000000304E0D82F7A3664093347AAC4390334000000000000000004C16584E96806A4093347AAC4390334000000000000000004C16584E96806A4000A030887E27BCBF0000000000000000304E0D82F7A3664000A030
310
887E27BCBF0000000000000000
100
AcDbRasterImage
 90
        0
 10
181.1239633808013
 20
-0.1099776346678709
 30
0.0
 11
0.0211315899613181
 21
0.0
 31
0.0
 12
0.0
 22
0.0211315899613181
 32
0.0
 13
1462.0
 23
931.0
340
17ED4
 70
     7
280
     0
281
    50
282
    50
283
     0
290
     0
360
32B69
 71
     1
 91
        2
 14
-0.5
 24
-0.5
 14
1461.5
 24
930.4999999999999
  0
MTEXT
  5
32B6A
330
32B50
100
AcDbEntity
 67
     1
  8
Text
100
AcDbMText
 10
181.4748700011084
 20
41.80107347036517
 30
0.0
 40
3.399999999999999
 41
91.63035393548602
 46
0.0
 71
     1
 72
     5
  1
Angebotszeichnung
 73
     1
 44
1.0
  0
LINE
  5
32B6B
330
32B50
100
AcDbEntity
 67
     1
  8
Kontur 25
100
AcDbLine
 10
271.7741706436004
 20
28.81387449528957
 30
0.0
 11
288.2301706435915
 21
28.81387449528957
 31
0.0
  0
MTEXT
  5
32B6C
330
32B50
100
AcDbEntity
 67
     1
  8
Text
100
AcDbMText
 10
279.820132442836
 20
32.38773417760636
 30
0.0
 40
2.057
 41
15.606264551133
 46
0.0
 71
     2
 72
     5
  1
A ...
 73
     1
 44
1.0
  0
MTEXT
  5
32B6D
102
{ACAD_XDICTIONARY
360
360C6
102
}
330
32B50
100
AcDbEntity
 67
     1
  8
Text
100
AcDbMText
 10
280.2402628899619
 20
34.91300536474773
 30
0.0
 40
1.481039999999193
 41
8.574395385718057
 46
0.0
 71
     2
 72
     5
  1
Blattgröße
 73
     1
 44
1.0
1001
AcDbBlockRepETag
1070
     1
1071
        9
1005
0
  0
MTEXT
  5
32B6E
330
32B50
100
AcDbEntity
 67
     1
  8
Text
100
AcDbMText
 10
280.1522687794468
 20
23.86589467579518
 30
0.0
 40
2.057
 41
15.606264551133
 46
0.0
 71
     2
 72
     5
  1
...../15
 73
     1
 44
1.0
  0
MTEXT
  5
32B6F
330
32B50
100
AcDbEntity
 67
     1
  8
Text
100
AcDbMText
 10
280.2198191930315
 20
27.66905852613457
 30
0.0
 40
1.481039999999193
 41
14.94369972815082
 46
0.0
 71
     2
 72
     5
  1
Angebots- Nr.:
 73
     1
 44
1.0
1001
AcDbBlockRepETag
1070
     1
1071
        9
1005
0
  0
MTEXT
  5
32B70
330
32B50
100
AcDbEntity
 67
     1
  8
Text
100
AcDbMText
 10
181.910131172548
 20
33.60404082317848
 30
0.0
 40
3.399999999999999
 41
88.77835617452729
 46
0.0
 71
     1
 72
     5
  1
Bezeichnung\PBV: 
 73
     1
 44
1.0
  0
IMAGE
  5
37E3A
330
32B50
100
AcDbEntity
 67
     1
  8
Bemaßung
160
               140
310
8C00000001000000840000000600000005000000CABDC52B05890340627E291BAAC068400000000000000000AFBDC52B0589034080D03F1D233503C00000000000000000BE9A766E5476384080D03F1D233503C00000000000000000C19A766E54763840627E291BAAC068400000000000000000CABDC52B05890340627E29
310
1BAAC068400000000000000000
100
AcDbRasterImage
 90
        0
 10
2.441904394123148
 20
-2.40094588137623
 30
0.0
 11
0.0612535790911958
 21
0.0
 31
0.0
 12
0.0
 22
0.0612535790911958
 32
0.0
 13
2228.0
 23
3272.0
340
37DFA
 70
     7
280
     1
281
    50
282
    50
283
     0
290
     0
360
37E3B
 71
     1
 91
        2
 14
-0.5
 24
-0.5
 14
358.994445140902
 24
3271.5
  0
ENDBLK
  5
32B71
330
32B50
100
AcDbEntity
 67
     1
  8
0
100
AcDbBlockEnd
  0
BLOCK
  5
33565
330
33540
100
AcDbEntity
  8
0
100
AcDbBlockBegin
  2
*T7
 70
     1
 10
0.0
 20
0.0
 30
0.0
  3
*T7
  1

  0
MTEXT
  5
33541
330
33540
100
AcDbEntity
  8
Bemaßung
 62
     0
100
AcDbMText
 10
5.642638389153717
 20
3.166666666666666
 30
0.0
 40
2.5
 41
8.285276778307434
 46
0.0
 71
     5
 72
     5
  1
Pos.
 73
     1
 44
1.0
  0
MTEXT
  5
33542
330
33540
100
AcDbEntity
  8
Bemaßung
 62
     0
100
AcDbMText
 10
35.17349364577353
 20
3.166666666666666
 30
0.0
 40
2.5
 41
44.77643373493219
 46
0.0
 71
     5
 72
     5
  1
Bezeichnung
 73
     1
 44
1.0
  0
MTEXT
  5
33543
330
33540
100
AcDbEntity
  8
Bemaßung
 62
     0
100
AcDbMText
 10
70.31904307456625
 20
3.166666666666666
 30
0.0
 40
2.5
 41
19.51466512265324
 46
0.0
 71
     5
 72
     5
  1
Dimension
 73
     1
 44
1.0
  0
MTEXT
  5
33544
102
{ACAD_XDICTIONARY
360
3613C
102
}
330
33540
100
AcDbEntity
  8
Bemaßung
 62
     0
100
AcDbMText
 10
91.51219617556421
 20
3.166666666666666
 30
0.0
 40
2.5
 41
16.87164107934268
 46
0.0
 71
     5
 72
     5
  1
Länge
 73
     1
 44
1.0
  0
MTEXT
  5
33545
330
33540
100
AcDbEntity
  8
Bemaßung
 62
     0
100
AcDbMText
 10
109.1395058337841
 20
3.166666666666666
 30
0.0
 40
2.5
 41
12.38297823709717
 46
0.0
 71
     5
 72
     5
  1
EK.Nr.
 73
     1
 44
1.0
  0
MTEXT
  5
33546
330
33540
100
AcDbEntity
  8
Bemaßung
 62
     0
100
AcDbMText
 10
123.8719279488546
 20
3.166666666666666
 30
0.0
 40
2.5
 41
11.08186599304378
 46
0.0
 71
     5
 72
     5
  1
Anzahl
 73
     1
 44
1.0
  0
MTEXT
  5
33547
330
33540
100
AcDbEntity
  8
Bemaßung
 62
     0
100
AcDbMText
 10
5.642638389153717
 20
9.5
 30
0.0
 40
2.5
 41
8.285276778307434
 46
0.0
 71
     5
 72
     5
  1
1
 73
     1
 44
1.0
  0
LINE
  5
33551
330
33540
100
AcDbEntity
  8
Bemaßung
  6
ByBlock
 62
     0
370
    -2
100
AcDbLine
 10
0.0
 20
0.0
 30
0.0
 11
130.9128609453765
 21
0.0
 31
0.0
  0
LINE
  5
33552
330
33540
100
AcDbEntity
  8
Bemaßung
  6
ByBlock
 62
     0
370
    -2
100
AcDbLine
 10
0.0
 20
6.333333333333333
 30
0.0
 11
130.9128609453765
 21
6.333333333333333
 31
0.0
  0
LINE
  5
33553
330
33540
100
AcDbEntity
  8
Bemaßung
  6
ByBlock
 62
     0
370
    -2
100
AcDbLine
 10
0.0
 20
12.66666666666667
 30
0.0
 11
130.9128609453765
 21
12.66666666666667
 31
0.0
  0
LINE
  5
33554
330
33540
100
AcDbEntity
  8
Bemaßung
  6
ByBlock
 62
     0
370
    -2
100
AcDbLine
 10
0.0
 20
0.0
 30
0.0
 11
0.0
 21
12.66666666666667
 31
0.0
  0
LINE
  5
33555
330
33540
100
AcDbEntity
  8
Bemaßung
  6
ByBlock
 62
     0
370
    -2
100
AcDbLine
 10
11.28527677830743
 20
0.0
 30
0.0
 11
11.28527677830743
 21
12.66666666666667
 31
0.0
  0
LINE
  5
33556
330
33540
100
AcDbEntity
  8
Bemaßung
  6
ByBlock
 62
     0
370
    -2
100
AcDbLine
 10
59.06171051323963
 20
0.0
 30
0.0
 11
59.06171051323963
 21
12.66666666666667
 31
0.0
  0
LINE
  5
33557
330
33540
100
AcDbEntity
  8
Bemaßung
  6
ByBlock
 62
     0
370
    -2
100
AcDbLine
 10
81.57637563589288
 20
0.0
 30
0.0
 11
81.57637563589288
 21
12.66666666666667
 31
0.0
  0
LINE
  5
33558
330
33540
100
AcDbEntity
  8
Bemaßung
  6
ByBlock
 62
     0
370
    -2
100
AcDbLine
 10
101.4480167152355
 20
0.0
 30
0.0
 11
101.4480167152355
 21
12.66666666666667
 31
0.0
  0
LINE
  5
33559
330
33540
100
AcDbEntity
  8
Bemaßung
  6
ByBlock
 62
     0
370
    -2
100
AcDbLine
 10
116.8309949523327
 20
0.0
 30
0.0
 11
116.8309949523327
 21
12.66666666666667
 31
0.0
  0
LINE
  5
3355A
330
33540
100
AcDbEntity
  8
Bemaßung
  6
ByBlock
 62
     0
370
    -2
100
AcDbLine
 10
130.9128609453765
 20
0.0
 30
0.0
 11
130.9128609453765
 21
12.66666666666667
 31
0.0
  0
LINE
  5
3355B
330
33540
100
AcDbEntity
  8
Defpoints
 62
     8
 60
     1
370
     0
100
AcDbLine
 10
0.0
 20
0.0
 30
0.0
 11
0.0
 21
0.0
 31
0.0
  0
ENDBLK
  5
33566
330
33540
100
AcDbEntity
  8
0
100
AcDbBlockEnd
  0
BLOCK
  5
37A35
330
37A32
100
AcDbEntity
  8
0
100
AcDbBlockBegin
  2
_TagCircle
 70
     2
 10
0.0
 20
0.0
 30
0.0
  3
_TagCircle
  1

  0
CIRCLE
  5
37A33
330
37A32
100
AcDbEntity
  8
0
  6
ByBlock
 62
     0
370
    -2
100
AcDbCircle
 10
0.0
 20
0.0
 30
0.0
 40
4.0
  0
ATTDEF
  5
37A34
330
37A32
100
AcDbEntity
  8
Bemaßung
 62
     0
100
AcDbText
 10
-23.10040295500336
 20
-1.5
 30
0.0
 40
3.0
  1
BEZEICHNUNGSNUMMER
  7
100
 72
     1
 11
0.0
 21
-1.5
 31
0.0
100
AcDbAttributeDefinition
280
     0
  3
Bezeichnungsnummer eingeben
  2
BEZEICHNUNGSNUMMER
 70
     0
280
     0
  0
ENDBLK
  5
37A36
330
37A32
100
AcDbEntity
  8
0
100
AcDbBlockEnd
  0
BLOCK
  5
38210
330
3820E
100
AcDbEntity
  8
0
100
AcDbBlockBegin
  2
GENAXEH
 70
     0
 10
0.0
 20
0.0
 30
0.0
  3
GENAXEH
  1

  0
LINE
  5
3820F
330
3820E
100
AcDbEntity
  8
0
100
AcDbLine
 10
-1.0
 20
0.0
 30
0.0
 11
1.0
 21
0.0
 31
0.0
  0
ENDBLK
  5
38211
330
3820E
100
AcDbEntity
  8
0
100
AcDbBlockEnd
  0
BLOCK
  5
38224
330
38223
100
AcDbEntity
  8
0
100
AcDbBlockBegin
  2
_ACMFILLED30
 70
     0
 10
0.0
 20
0.0
 30
0.0
  3
_ACMFILLED30
  1

  0
TRACE
  5
38226
330
38223
100
AcDbEntity
  8
Kontur 18
 62
     0
100
AcDbTrace
 10
-1.0
 20
-0.26794919
 30
0.0
 11
-1.0
 21
0.26794919
 31
0.0
 12
0.0
 22
0.0
 32
0.0
 13
0.0
 23
0.0
 33
0.0
  0
ENDBLK
  5
38225
330
38223
100
AcDbEntity
  8
0
100
AcDbBlockEnd
  0
BLOCK
  5
3A125
330
3A124
100
AcDbEntity
  8
0
100
AcDbBlockBegin
  2
*U20
 70
     1
 10
0.0
 20
0.0
 30
0.0
  3
*U20
  1

  0
ENDBLK
  5
3A126
330
3A124
100
AcDbEntity
  8
0
100
AcDbBlockEnd
  0
BLOCK
  5
3A37B
330
3A37A
100
AcDbEntity
  8
0
100
AcDbBlockBegin
  2
*D26
 70
     1
 10
0.0
 20
0.0
 30
0.0
  3
*D26
  1

  0
LINE
  5
3A4DD
330
3A37A
100
AcDbEntity
  8
ESF_Spielgeraet
 62
     0
440
 16777216
370
    -2
100
AcDbLine
 10
2091.008047853523
 20
2774.56650314811
 30
0.0
 11
2091.008047853523
 21
1961.439039872987
 31
0.0
  0
LINE
  5
3A4DE
330
3A37A
100
AcDbEntity
  8
ESF_Spielgeraet
 62
     0
440
 16777216
370
    -2
100
AcDbLine
 10
3941.008047853523
 20
2774.56650314811
 30
0.0
 11
3941.008047853523
 21
1961.439039872987
 31
0.0
  0
LINE
  5
3A4DF
330
3A37A
100
AcDbEntity
  8
ESF_Spielgeraet
 62
     0
440
 16777216
370
    -2
100
AcDbLine
 10
2191.008047853523
 20
1981.439039872987
 30
0.0
 11
3841.008047853523
 21
1981.439039872987
 31
0.0
  0
SOLID
  5
3A4E0
330
3A37A
100
AcDbEntity
  8
ESF_Spielgeraet
 62
     0
440
 16777216
100
AcDbTrace
 10
2191.008047853523
 20
1998.105706539654
 30
0.0
 11
2191.008047853523
 21
1964.77237320632
 31
0.0
 12
2091.008047853523
 22
1981.439039872987
 32
0.0
 13
2091.008047853523
 23
1981.439039872987
 33
0.0
  0
SOLID
  5
3A4E1
330
3A37A
100
AcDbEntity
  8
ESF_Spielgeraet
 62
     0
440
 16777216
100
AcDbTrace
 10
3841.008047853523
 20
1998.105706539654
 30
0.0
 11
3841.008047853523
 21
1964.77237320632
 31
0.0
 12
3941.008047853523
 22
1981.439039872987
 32
0.0
 13
3941.008047853523
 23
1981.439039872987
 33
0.0
  0
MTEXT
  5
3A4E2
330
3A37A
100
AcDbEntity
  8
ESF_Spielgeraet
 62
     0
440
 16777216
100
AcDbMText
 10
3016.008047853523
 20
2065.005191652705
 30
0.0
 40
100.0
 41
0.0
 46
0.0
 71
     5
 72
     1
  1
1,85m
 73
     1
 44
1.0
  0
POINT
  5
3A4E3
330
3A37A
100
AcDbEntity
  8
Defpoints
 62
     0
440
 16777216
100
AcDbPoint
 10
2091.008047853523
 20
2804.56650314811
 30
0.0
  0
POINT
  5
3A4E4
330
3A37A
100
AcDbEntity
  8
Defpoints
 62
     0
440
 16777216
100
AcDbPoint
 10
3941.008047853523
 20
2804.56650314811
 30
0.0
  0
POINT
  5
3A4E5
330
3A37A
100
AcDbEntity
  8
Defpoints
 62
     0
440
 16777216
100
AcDbPoint
 10
3941.008047853523
 20
1981.439039872987
 30
0.0
  0
ENDBLK
  5
3A37C
330
3A37A
100
AcDbEntity
  8
0
100
AcDbBlockEnd
  0
BLOCK
  5
3A4E7
330
3A4E6
100
AcDbEntity
  8
0
100
AcDbBlockBegin
  2
Dreieckssandspieltische im Duo
 70
     0
 10
0.0
 20
0.0
 30
0.0
  3
Dreieckssandspieltische im Duo
  1

  0
LINE
  5
3A4E9
330
3A4E6
100
AcDbEntity
  8
ESF_Spielgeraet
 62
     7
100
AcDbLine
 10
2227.41979718188
 20
2781.124660625509
 30
0.0
 11
2185.172286996479
 21
2781.12466062403
 31
0.0
  0
LINE
  5
3A4EA
330
3A4E6
100
AcDbEntity
  8
ESF_Spielgeraet
 62
     7
100
AcDbLine
 10
2225.925456204589
 20
2826.124660625456
 30
0.0
 11
2186.121746950833
 21
2826.124660624055
 31
0.0
  0
CIRCLE
  5
3A4EB
102
{ACAD_REACTORS
330
3A50F
102
}
330
3A4E6
100
AcDbEntity
  8
ESF_Spielgeraet
 62
     7
100
AcDbCircle
 10
2141.008047853523
 20
2804.56650314811
 30
0.0
 40
50.0
  0
ARC
  5
3A4EC
330
3A4E6
100
AcDbEntity
  8
ESF_Spielgeraet
 62
     7
100
AcDbCircle
 10
2141.008047853523
 20
2804.56650314811
 30
0.0
 40
1550.0
100
AcDbArc
 50
112.307457302106
 51
247.6925426978939
  0
LINE
  5
3A4ED
330
3A4E6
100
AcDbEntity
  8
ESF_Spielgeraet
 62
     7
100
AcDbLine
 10
3804.596298525165
 20
2781.124660625509
 30
0.0
 11
3846.843808710567
 21
2781.12466062403
 31
0.0
  0
LINE
  5
3A4EE
330
3A4E6
100
AcDbEntity
  8
ESF_Spielgeraet
 62
     7
100
AcDbLine
 10
3806.090639502457
 20
2826.124660625456
 30
0.0
 11
3845.894348756213
 21
2826.124660624055
 31
0.0
  0
CIRCLE
  5
3A4EF
102
{ACAD_REACTORS
330
3A50F
102
}
330
3A4E6
100
AcDbEntity
  8
ESF_Spielgeraet
 62
     7
100
AcDbCircle
 10
3891.008047853523
 20
2804.56650314811
 30
0.0
 40
50.0
  0
ARC
  5
3A4F0
330
3A4E6
100
AcDbEntity
  8
ESF_Spielgeraet
 62
     7
100
AcDbCircle
 10
3891.008047853523
 20
2804.56650314811
 30
0.0
 40
1550.0
100
AcDbArc
 50
292.307457302106
 51
67.69254269789397
  0
LINE
  5
3A4F1
330
3A4E6
100
AcDbEntity
  8
ESF_Spielgeraet
 62
     7
100
AcDbLine
 10
2993.555020562918
 20
3234.891436662571
 30
0.0
 11
2993.49339717802
 21
3218.825307399939
 31
0.0
  0
LINE
  5
3A4F2
330
3A4E6
100
AcDbEntity
  8
ESF_Spielgeraet
 62
     7
100
AcDbLine
 10
3038.555534150334
 20
3234.939035578292
 30
0.0
 11
3038.493733138784
 21
3218.826596439773
 31
0.0
  0
LINE
  5
3A4F3
330
3A4E6
100
AcDbEntity
  8
ESF_Spielgeraet
 62
     7
100
AcDbLine
 10
2993.550053671205
 20
2374.473075455144
 30
0.0
 11
2993.489317555433
 21
2390.307880515899
 31
0.0
  0
LINE
  5
3A4F4
330
3A4E6
100
AcDbEntity
  8
ESF_Spielgeraet
 62
     7
100
AcDbLine
 10
3038.552374993938
 20
2373.954173166769
 30
0.0
 11
3038.489654908689
 21
2390.306228429072
 31
0.0
  0
CIRCLE
  5
3A4F5
330
3A4E6
100
AcDbEntity
  8
ESF_Spielgeraet
 62
     7
100
AcDbCircle
 10
3016.008047853523
 20
3279.56650314811
 30
0.0
 40
50.0
  0
ARC
  5
3A4F6
330
3A4E6
100
AcDbEntity
  8
ESF_Spielgeraet
 62
     7
100
AcDbCircle
 10
3016.008047853523
 20
3279.56650314811
 30
0.0
 40
1550.0
100
AcDbArc
 50
55.11475439263138
 51
124.8852456073686
  0
CIRCLE
  5
3A4F7
330
3A4E6
100
AcDbEntity
  8
ESF_Spielgeraet
 62
     7
100
AcDbCircle
 10
3015.536407703497
 20
2329.56650314811
 30
0.0
 40
50.0
  0
ARC
  5
3A4F8
330
3A4E6
100
AcDbEntity
  8
ESF_Spielgeraet
 62
     7
100
AcDbCircle
 10
3015.536407703497
 20
2329.56650314811
 30
0.0
 40
1550.0
100
AcDbArc
 50
235.0886539062698
 51
304.8591739815285
  0
ARC
  5
3A4F9
330
3A4E6
100
AcDbEntity
  8
ESF_Spielgeraet
 62
     7
100
AcDbCircle
 10
3039.643681520004
 20
2182.130682460468
 30
0.0
 40
1037.721347049984
100
AcDbArc
 50
91.30675338583285
 51
143.1436965030206
  0
ARC
  5
3A4FA
330
3A4E6
100
AcDbEntity
  8
ESF_Spielgeraet
 62
     7
100
AcDbCircle
 10
3039.643681520004
 20
2182.130682460468
 30
0.0
 40
2537.721347049985
100
AcDbArc
 50
111.0168415093774
 51
125.8701734445867
  0
ARC
  5
3A4FB
330
3A4E6
100
AcDbEntity
  8
ESF_Spielgeraet
 62
     7
100
AcDbCircle
 10
3039.643681520004
 20
2182.130682460468
 30
0.0
 40
987.7213470499846
100
AcDbArc
 50
93.22413734225234
 51
140.9370756097003
  0
ARC
  5
3A4FC
330
3A4E6
100
AcDbEntity
  8
ESF_Spielgeraet
 62
     7
100
AcDbCircle
 10
3039.643681520004
 20
3427.002323835753
 30
0.0
 40
1037.721347049984
100
AcDbArc
 50
216.8563034969793
 51
268.7088448425401
  0
ARC
  5
3A4FD
330
3A4E6
100
AcDbEntity
  8
ESF_Spielgeraet
 62
     7
100
AcDbCircle
 10
3039.643681520004
 20
3427.002323835753
 30
0.0
 40
2537.721347049985
100
AcDbArc
 50
234.1298265554132
 51
248.9577421857304
  0
ARC
  5
3A4FE
330
3A4E6
100
AcDbEntity
  8
ESF_Spielgeraet
 62
     7
100
AcDbCircle
 10
3039.643681520004
 20
3427.002323835753
 30
0.0
 40
987.7213470499846
100
AcDbArc
 50
219.0629243902997
 51
266.7905857153562
  0
ARC
  5
3A4FF
330
3A4E6
100
AcDbEntity
  8
ESF_Spielgeraet
 62
     7
100
AcDbCircle
 10
2125.883747962535
 20
2804.260380306637
 30
0.0
 40
982.2221869767851
100
AcDbArc
 50
335.0250416304697
 51
25.01395046458555
  0
ARC
  5
3A500
330
3A4E6
100
AcDbEntity
  8
ESF_Spielgeraet
 62
     7
100
AcDbCircle
 10
2125.883747962535
 20
2804.260380306637
 30
0.0
 40
932.2221869767851
100
AcDbArc
 50
337.0546054085267
 51
22.98531264831821
  0
ARC
  5
3A501
330
3A4E6
100
AcDbEntity
  8
ESF_Spielgeraet
 62
     7
100
AcDbCircle
 10
2992.372414187041
 20
2182.130682460468
 30
0.0
 40
1037.721347049984
100
AcDbArc
 50
36.85630349694419
 51
88.69324661416717
  0
ARC
  5
3A502
330
3A4E6
100
AcDbEntity
  8
ESF_Spielgeraet
 62
     7
100
AcDbCircle
 10
2992.372414187041
 20
2182.130682460468
 30
0.0
 40
2537.721347049985
100
AcDbArc
 50
54.12982655541324
 51
68.98315849062254
  0
ARC
  5
3A503
330
3A4E6
100
AcDbEntity
  8
ESF_Spielgeraet
 62
     7
100
AcDbCircle
 10
2992.372414187041
 20
2182.130682460468
 30
0.0
 40
987.7213470499846
100
AcDbArc
 50
39.06292439027883
 51
86.77586265764322
  0
ARC
  5
3A504
330
3A4E6
100
AcDbEntity
  8
ESF_Spielgeraet
 62
     7
100
AcDbCircle
 10
2992.372414187041
 20
3427.002323835753
 30
0.0
 40
1037.721347049984
100
AcDbArc
 50
271.2911551573556
 51
323.1436965030558
  0
ARC
  5
3A505
330
3A4E6
100
AcDbEntity
  8
ESF_Spielgeraet
 62
     7
100
AcDbCircle
 10
2992.372414187041
 20
3427.002323835753
 30
0.0
 40
2537.721347049985
100
AcDbArc
 50
290.9914405794681
 51
305.8701734445867
  0
ARC
  5
3A506
330
3A4E6
100
AcDbEntity
  8
ESF_Spielgeraet
 62
     7
100
AcDbCircle
 10
2992.372414187041
 20
3427.002323835753
 30
0.0
 40
987.7213470499846
100
AcDbArc
 50
273.209414284696
 51
320.9370756097212
  0
ARC
  5
3A507
330
3A4E6
100
AcDbEntity
  8
ESF_Spielgeraet
 62
     7
100
AcDbCircle
 10
3906.132347744511
 20
2804.260380306637
 30
0.0
 40
982.2221869767851
100
AcDbArc
 50
159.0041349289205
 51
200.9958650710795
  0
ARC
  5
3A508
330
3A4E6
100
AcDbEntity
  8
ESF_Spielgeraet
 62
     7
100
AcDbCircle
 10
3906.132347744511
 20
2804.260380306637
 30
0.0
 40
932.2221869767851
100
AcDbArc
 50
157.0146873516582
 51
157.8199658313867
  0
ARC
  5
3A509
330
3A4E6
100
AcDbEntity
  8
ESF_Spielgeraet
 62
     7
100
AcDbCircle
 10
3906.132347744511
 20
2804.260380306637
 30
0.0
 40
932.2221869767851
100
AcDbArc
 50
162.715528304403
 51
197.2844716955969
  0
ARC
  5
3A50A
330
3A4E6
100
AcDbEntity
  8
ESF_Spielgeraet
 62
     7
100
AcDbCircle
 10
3906.132347744511
 20
2804.260380306637
 30
0.0
 40
932.2221869767851
100
AcDbArc
 50
202.1800341686133
 51
202.9453945914968
  0
CIRCLE
  5
3A50B
330
3A4E6
100
AcDbEntity
  8
ESF_Spielgeraet
 62
     7
100
AcDbCircle
 10
3016.008047853523
 20
2804.260380306637
 30
0.0
 40
20.0
  0
CIRCLE
  5
3A50C
330
3A4E6
100
AcDbEntity
  8
ESF_Spielgeraet
 62
     7
100
AcDbCircle
 10
3657.136442381582
 20
2804.566503148267
 30
0.0
 40
20.0
  0
DIMENSION
  5
3A50D
102
{ACAD_XDICTIONARY
360
3A50E
102
}
102
{ACAD_REACTORS
330
3A50F
102
}
330
3A4E6
100
AcDbEntity
  8
ESF_Spielgeraet
 62
     7
100
AcDbDimension
280
     0
  2
*D26
 10
3941.008047853523
 20
1981.439039872987
 30
0.0
 11
3016.008047853523
 21
2065.005191652705
 31
0.0
  1
1,85m
 71
     5
 42
1850.0
 73
     0
 74
     0
 75
     0
  3
100$0
100
AcDbAlignedDimension
 13
2091.008047853523
 23
2804.56650314811
 33
0.0
 14
3941.008047853523
 24
2804.56650314811
 34
0.0
100
AcDbRotatedDimension
  0
ENDBLK
  5
3A4E8
330
3A4E6
100
AcDbEntity
  8
0
100
AcDbBlockEnd
  0
ENDSEC
  0
SECTION
  2
ENTITIES
  0
INSERT
  5
3A510
330
23
100
AcDbEntity
  8
Kontur 25
100
AcDbBlockReference
  2
Dreieckssandspieltische im Duo
 10
199.8155911469001
 20
213.9870325939263
 30
0.0
 41
0.001
 42
0.001
 43
0.001
  0
INSERT
  5
3A519
330
23
100
AcDbEntity
  8
Kontur 18
100
AcDbBlockReference
  2
Eigentum
 10
197.2200457137622
 20
215.5624581354576
 30
0.0
 41
0.032
 42
0.032
 43
0.032
  0
VIEWPORT
  5
32A42
330
32A3E
100
AcDbEntity
 67
     1
  8
0
100
AcDbViewport
 10
150.7413835164615
 20
120.2607816278977
 30
0.0
 40
1071.899081059929
 41
562.352684881089
 68
     1
 69
     1
 12
150.7413835164615
 22
120.2607816278977
 13
0.0
 23
0.0
 14
10.0
 24
10.0
 15
10.0
 25
10.0
 16
0.0
 26
0.0
 36
1.0
 17
0.0
 27
0.0
 37
0.0
 42
50.0
 43
0.0
 44
0.0
 45
562.352684881089
 50
0.0
 51
0.0
 72
  1000
 90
    32800
  1

281
     0
 71
     1
 74
     0
110
0.0
120
0.0
130
0.0
111
1.0
121
0.0
131
0.0
112
0.0
122
1.0
132
0.0
 79
     0
146
0.0
170
     0
 61
     5
348
1D98
292
     1
282
     1
141
0.0
142
0.0
 63
   250
421
  3355443
1001
GENIUS_GENODEF_13
1002
{
1000
HIER
1070
     0
1002
}
1002
{
1000
MANEDIT
1070
     0
1002
}
1002
{
1000
NOSEL
1070
     0
1002
}
1002
{
1000
BEHIND
1070
     0
1002
}
1002
{
1000
OTHER
1070
     0
1002
}
1002
{
1000
REACTOR
1002
}
1001
GENIUS_GENOBJ-N-SDF_13
1002
{
1000
OWNER
1000
GEN
1002
}
1001
GENIUS_GENSCREG_15
1000
PF
1040
1.0
1000
DF
1040
1.0
1000
MIN
1011
-385.2081570135033
1021
-160.9155608126468
1031
0.0
1000
MAX
1011
686.6909240464263
1021
401.4371240684422
1031
0.0
1000
FLAGS
1070
     4
  0
VIEWPORT
  5
32A56
102
{ACAD_XDICTIONARY
360
32A57
102
}
330
32A3E
100
AcDbEntity
 67
     1
  8
Ansichtsfenster
100
AcDbViewport
 10
145.9002259374294
 20
97.62309485999118
 30
0.0
 40
286.440598331128
 41
409.3231758861445
 68
     2
 69
     2
 12
16289.62696127464
 22
36889.50715575547
 13
0.0
 23
0.0
 14
10.0
 24
10.0
 15
10.0
 25
10.0
 16
0.0
 26
0.0
 36
1.0
 17
0.0
 27
0.0
 37
0.0
 42
50.0
 43
0.0
 44
0.0
 45
20466.15905779341
 50
0.0
 51
0.0
 72
  1000
 90
   819296
  1

281
     0
 71
     1
 74
     0
110
0.0
120
0.0
130
0.0
111
1.0
121
0.0
131
0.0
112
0.0
122
1.0
132
0.0
 79
     0
146
0.0
170
     0
 61
     5
348
1D98
292
     1
282
     1
141
0.0
142
0.0
 63
   250
421
  3355443
1001
GENIUS_GENOBJ-N-SDF_13
1002
{
1000
OWNER
1000
GEN
1002
}
1001
GENIUS_GENODEF_13
1002
{
1000
HIER
1070
     0
1002
}
1002
{
1000
MANEDIT
1070
     0
1002
}
1002
{
1000
NOSEL
1070
     0
1002
}
1002
{
1000
BEHIND
1070
     0
1002
}
1002
{
1000
OTHER
1070
     0
1002
}
1002
{
1000
REACTOR
1002
}
1001
GENIUS_GENSCREG_15
1000
PF
1040
0.0
1000
DF
1040
0.0
1000
MIN
1011
2.679926771865439
1021
-107.0384930830811
1031
0.0
1000
MAX
1011
289.1205251029935
1021
302.2846828030635
1031
0.0
1000
FLAGS
1070
     4
  0
MTEXT
  5
32AE9
102
{ACAD_XDICTIONARY
360
360B9
102
}
330
32A3E
100
AcDbEntity
 67
     1
  8
Text
100
AcDbMText
 10
216.5153521586353
 20
-85.41800884955035
 30
0.0
 40
1.869999999998981
 41
46.33850439650123
 46
0.0
 71
     1
 72
     5
  1
{\H1.2299x;ESF Emsland Spiel- und Freizeitgeräte GmbH & Co KG\H1.1383x;\P\H0.57296x;Thyssenstraße 7, 49744 Geeste\PTelefon: 05937 97189-0  Telefax: 05937 97189-90\Pkinderland@emsland-spielgeraete.de\Pwww.emsland-spielgeraete.de}
 73
     1
 44
1.0
1001
AcDbBlockRepETag
1070
     1
1071
       14
1005
32AE9
  0
INSERT
  5
32AEA
330
32A3E
100
AcDbEntity
 67
     1
  8
Kontur 25
100
AcDbBlockReference
  2
Eigentum
 10
115.772936951429
 20
-90.03091216994517
 30
0.0
 41
0.8
 42
0.8
 43
0.8
  0
LINE
  5
32AEB
330
32A3E
100
AcDbEntity
 67
     1
  8
Kontur 25
100
AcDbLine
 10
174.0424121433157
 20
-59.67203184180197
 30
0.0
 11
286.8228983862814
 21
-59.67203184180197
 31
0.0
1001
AcDbBlockRepETag
1070
     1
1071
        0
1005
32AEB
  0
LINE
  5
32AEC
330
32A3E
100
AcDbEntity
 67
     1
  8
Kontur 25
100
AcDbLine
 10
286.8228983862814
 20
-59.67203184180197
 30
0.0
 11
286.8228983862814
 21
-104.9260318417773
 31
0.0
1001
AcDbBlockRepETag
1070
     1
1071
        1
1005
32AEC
  0
LINE
  5
32AED
330
32A3E
100
AcDbEntity
 67
     1
  8
Kontur 25
100
AcDbLine
 10
270.3668983862903
 20
-59.67203184180197
 30
0.0
 11
270.3668983862903
 21
-104.9260318417773
 31
0.0
1001
AcDbBlockRepETag
1070
     1
1071
        2
1005
32AED
  0
LINE
  5
32AEE
330
32A3E
100
AcDbEntity
 67
     1
  8
Kontur 25
100
AcDbLine
 10
286.8228983862814
 20
-104.9260318417773
 30
0.0
 11
174.0424121433157
 21
-104.9260318417773
 31
0.0
1001
AcDbBlockRepETag
1070
     1
1071
        3
1005
32AEE
  0
LINE
  5
32AEF
330
32A3E
100
AcDbEntity
 67
     1
  8
Kontur 25
100
AcDbLine
 10
174.0424121433157
 20
-104.9260318417773
 30
0.0
 11
174.0424121433157
 21
-59.67203184180197
 31
0.0
1001
AcDbBlockRepETag
1070
     1
1071
        4
1005
32AEF
  0
LINE
  5
32AF0
330
32A3E
100
AcDbEntity
 67
     1
  8
Kontur 25
100
AcDbLine
 10
174.0424121433157
 20
-83.52907236624552
 30
0.0
 11
286.8228983862814
 21
-83.52907236624552
 31
0.0
1001
AcDbBlockRepETag
1070
     1
1071
        5
1005
32AF0
  0
LINE
  5
32AF1
330
32A3E
100
AcDbEntity
 67
     1
  8
Kontur 25
100
AcDbLine
 10
174.0424121433157
 20
-68.10386632052328
 30
0.0
 11
286.8228983862814
 21
-68.10386632052328
 31
0.0
1001
AcDbBlockRepETag
1070
     1
1071
        6
1005
32AF1
  0
LINE
  5
32AF2
330
32A3E
100
AcDbEntity
 67
     1
  8
Kontur 25
100
AcDbLine
 10
286.8228983862814
 20
-94.22755210401144
 30
0.0
 11
270.3668983862903
 21
-94.22755210401144
 31
0.0
1001
AcDbBlockRepETag
1070
     1
1071
        8
1005
32AF2
  0
MTEXT
  5
32AF3
330
32A3E
100
AcDbEntity
 67
     1
  8
Text
100
AcDbMText
 10
278.7073591344189
 20
-99.63317760071857
 30
0.0
 40
2.057
 41
13.70835466788307
 46
0.0
 71
     2
 72
     5
  1
.....
 73
     1
 44
1.0
  0
MTEXT
  5
32AF4
330
32A3E
100
AcDbEntity
 67
     1
  8
Text
100
AcDbMText
 10
278.710061859372
 20
-88.85936130391064
 30
0.0
 40
2.057
 41
11.56270230355944
 46
0.0
 71
     2
 72
     5
  1
......
 73
     1
 44
1.0
  0
MTEXT
  5
32AF5
330
32A3E
100
AcDbEntity
 67
     1
  8
Text
100
AcDbMText
 10
278.4128601855259
 20
-63.8107751823463
 30
0.0
 40
2.057
 41
15.606264551133
 46
0.0
 71
     2
 72
     5
  1
1:...
 73
     1
 44
1.0
  0
MTEXT
  5
32AF6
102
{ACAD_XDICTIONARY
360
360BB
102
}
330
32A3E
100
AcDbEntity
 67
     1
  8
Text
100
AcDbMText
 10
278.2465011561641
 20
-60.87972930163478
 30
0.0
 40
1.481039999999193
 41
4.417149580655754
 46
0.0
 71
     2
 72
     5
  1
Maßstab
 73
     1
 44
1.0
1001
AcDbBlockRepETag
1070
     1
1071
        9
1005
0
  0
MTEXT
  5
32AF7
330
32A3E
100
AcDbEntity
 67
     1
  8
Text
100
AcDbMText
 10
278.5607635758627
 20
-85.24930495215338
 30
0.0
 40
1.481039999999193
 41
3.909875974208751
 46
0.0
 71
     2
 72
     5
  1
Datum
 73
     1
 44
1.0
1001
AcDbBlockRepETag
1070
     1
1071
       12
1005
0
  0
MTEXT
  5
32AF8
330
32A3E
100
AcDbEntity
 67
     1
  8
Text
100
AcDbMText
 10
278.6729391397634
 20
-95.47248957317775
 30
0.0
 40
1.481039999999193
 41
3.544837908392965
 46
0.0
 71
     2
 72
     5
  1
gez.
 73
     1
 44
1.0
1001
AcDbBlockRepETag
1070
     1
1071
       13
1005
0
  0
IMAGE
  5
32AF9
330
32A3E
100
AcDbEntity
 67
     1
  8
Bemaßung
160
               140
310
8C0000000100000084000000060000000500000050173922EF766640B0EDA2518EF859C0000000000000000050173922EF7666406354E286730D55C000000000000000006CDF83EE8D536A406354E286730D55C000000000000000006CDF83EE8D536A40B0EDA2518EF859C0000000000000000050173922EF766640B0EDA2
310
518EF859C00000000000000000
100
AcDbRasterImage
 90
        0
 10
179.7166911234912
 20
-103.8836864558313
 30
0.0
 11
0.0211315899613181
 21
0.0
 31
0.0
 12
0.0
 22
0.0211315899613181
 32
0.0
 13
1462.0
 23
931.0
340
17ED4
 70
     7
280
     0
281
    50
282
    50
283
     0
290
     0
360
32AFA
 71
     1
 91
        2
 14
-0.5
 24
-0.5
 14
1461.5
 24
930.4999999999999
  0
MTEXT
  5
32AFB
330
32A3E
100
AcDbEntity
 67
     1
  8
Text
100
AcDbMText
 10
180.0675977437984
 20
-61.97263535079833
 30
0.0
 40
3.399999999999999
 41
91.63035393548602
 46
0.0
 71
     1
 72
     5
  1
Angebotszeichnung
 73
     1
 44
1.0
  0
LINE
  5
32AFC
330
32A3E
100
AcDbEntity
 67
     1
  8
Kontur 25
100
AcDbLine
 10
270.3668983862903
 20
-74.95983432587393
 30
0.0
 11
286.8228983862814
 21
-74.95983432587393
 31
0.0
  0
MTEXT
  5
32AFD
330
32A3E
100
AcDbEntity
 67
     1
  8
Text
100
AcDbMText
 10
278.4128601855259
 20
-71.38597464355713
 30
0.0
 40
2.057
 41
15.606264551133
 46
0.0
 71
     2
 72
     5
  1
A ...
 73
     1
 44
1.0
  0
MTEXT
  5
32AFE
102
{ACAD_XDICTIONARY
360
360BD
102
}
330
32A3E
100
AcDbEntity
 67
     1
  8
Text
100
AcDbMText
 10
278.8329906326518
 20
-68.86070345641576
 30
0.0
 40
1.481039999999193
 41
8.574395385718057
 46
0.0
 71
     2
 72
     5
  1
Blattgröße
 73
     1
 44
1.0
1001
AcDbBlockRepETag
1070
     1
1071
        9
1005
0
  0
MTEXT
  5
32AFF
330
32A3E
100
AcDbEntity
 67
     1
  8
Text
100
AcDbMText
 10
278.7449965221367
 20
-79.90781414536832
 30
0.0
 40
2.057
 41
15.606264551133
 46
0.0
 71
     2
 72
     5
  1
...../15
 73
     1
 44
1.0
  0
MTEXT
  5
32B00
330
32A3E
100
AcDbEntity
 67
     1
  8
Text
100
AcDbMText
 10
278.8125469357215
 20
-76.10465029502893
 30
0.0
 40
1.481039999999193
 41
14.94369972815082
 46
0.0
 71
     2
 72
     5
  1
Angebots- Nr.:
 73
     1
 44
1.0
1001
AcDbBlockRepETag
1070
     1
1071
        9
1005
0
  0
MTEXT
  5
32B01
330
32A3E
100
AcDbEntity
 67
     1
  8
Text
100
AcDbMText
 10
180.502858915238
 20
-70.16966799798502
 30
0.0
 40
3.399999999999999
 41
88.77835617452729
 46
0.0
 71
     1
 72
     5
  1
Bezeichnung\PBV: 
 73
     1
 44
1.0
  0
IMAGE
  5
37E10
330
32A3E
100
AcDbEntity
 67
     1
  8
Bemaßung
160
               140
310
8C0000000100000084000000060000000500000039AA84ABDDA40340AB714906F1E67240000000000000000000AA84ABDDA40340BC5763D441D75AC000000000000000006389E5C0D3144740BC5763D441D75AC000000000000000006789E5C0D3144740AB714906F1E67240000000000000000039AA84ABDDA40340AB7149
310
06F1E672400000000000000000
100
AcDbRasterImage
 90
        0
 10
2.455500926958166
 20
-107.3633929224151
 30
0.0
 11
0.1252436542813833
 21
0.0
 31
0.0
 12
0.0
 22
0.1252436542813833
 32
0.0
 13
2228.0
 23
3272.0
340
37DFA
 70
     7
280
     1
281
    50
282
    50
283
     0
290
     0
360
37E11
 71
     1
 91
        2
 14
-0.5
 24
-0.5
 14
348.4774514156198
 24
3271.5
  0
ENDSEC
  0
SECTION
  2
OBJECTS
  0
DICTIONARY
  5
C
330
0
100
AcDbDictionary
281
     1
  3
ACAD_BACKGROUND
350
A3CD
  3
ACAD_CIP_PREVIOUS_PRODUCT_INFO
350
31BFC
  3
ACAD_COLOR
350
1C
  3
ACAD_DETAILVIEWSTYLE
350
31BF3
  3
ACAD_FIELDLIST
350
33389
  3
ACAD_GROUP
350
D
  3
ACAD_IMAGE_DICT
350
6518
  3
ACAD_IMAGE_VARS
350
651A
  3
ACAD_LAYOUT
350
1A
  3
ACAD_MATERIAL
350
1B
  3
ACAD_MLEADERSTYLE
350
252D
  3
ACAD_MLINESTYLE
350
17
  3
ACAD_PDFDEFINITIONS
350
22688
  3
ACAD_PLOTSETTINGS
350
19
  3
ACAD_PLOTSTYLENAME
350
E
  3
ACAD_SCALELIST
350
250B
  3
ACAD_SECTIONVIEWSTYLE
350
31BF1
  3
ACAD_TABLESTYLE
350
1D
  3
ACAD_VISUALSTYLE
350
1D92
  3
ACAD_WIPEOUT_VARS
350
10CEB
  3
AcadDim
350
1AFF
  3
ACDB_RECOMPOSE_DATA
350
3A51D
  3
AcDbVariableDictionary
350
4C
  3
AcDsDecomposeData
350
3A523
  3
ACGREF_MASTER
350
3A112
  3
ACGREFACAD_MASTER
350
3A115
  3
AcmDictionary
350
33348
  3
ACME_COMMAND_HISTORY
350
3A10D
  3
ACME_SCOPE_NAME
350
3A10C
  3
ACMESTATEMGR
350
3A110
  3
AcmeSysVarManager
350
3A10E
  3
AcmSystemVariableManager
350
3A11A
  3
AEC_PROPERTY_SET_DEFS
350
5E76
  3
AMG
350
3331C
  3
AMGSNAPSETTINGS
350
333F6
  3
AMI_MASTER
350
3A118
  3
AUTOCAD_ASSEMBLIES_PROJECT
350
3A123
  3
Designer_Assemblies_SysVars
350
3A11D
  3
GREFAM_MODULE
350
3A119
  3
StructToggleButtonState
350
3A15D
  0
DICTIONARY
  5
592E
330
8
100
AcDbDictionary
280
     1
281
     1
  0
DICTIONARY
  5
48
330
2
100
AcDbDictionary
280
     1
281
     1
  3
ACAD_LAYERFILTERS
360
5B6B
  3
ACAD_LAYERSTATES
360
67
  3
ACLYDICTIONARY
360
5B6A
  0
DICTIONARY
  5
253B
330
10
100
AcDbDictionary
280
     1
281
     1
  3
ADSK_XREC_LAYER_RECONCILED
360
253C
  0
DICTIONARY
  5
253D
330
38
100
AcDbDictionary
280
     1
281
     1
  3
ADSK_XREC_LAYER_RECONCILED
360
253E
  0
DICTIONARY
  5
253F
330
3A
100
AcDbDictionary
280
     1
281
     1
  3
ADSK_XREC_LAYER_RECONCILED
360
2540
  0
DICTIONARY
  5
2547
330
3E
100
AcDbDictionary
280
     1
281
     1
  3
ADSK_XREC_LAYER_RECONCILED
360
2548
  0
DICTIONARY
  5
2549
330
3F
100
AcDbDictionary
280
     1
281
     1
  3
ADSK_XREC_LAYER_RECONCILED
360
254A
  0
DICTIONARY
  5
254F
330
42
100
AcDbDictionary
280
     1
281
     1
  3
ADSK_XREC_LAYER_RECONCILED
360
2550
  0
DICTIONARY
  5
1FDD
330
23
100
AcDbDictionary
280
     1
281
     1
  3
ACAD_SORTENTS
360
1FDE
  0
DICTIONARY
  5
32A3F
330
32A3E
100
AcDbDictionary
280
     1
281
     1
  3
ACAD_SORTENTS
360
32A40
  0
DICTIONARY
  5
22BF0
330
D72C
100
AcDbDictionary
280
     1
281
     1
  3
ACAD_SORTENTS
360
22BF1
  0
DICTIONARY
  5
2190A
330
217C1
100
AcDbDictionary
280
     1
281
     1
  0
DICTIONARY
  5
2239A
330
22399
100
AcDbDictionary
280
     1
281
     1
  3
ACAD_SORTENTS
360
2239B
  0
DICTIONARY
  5
32E6C
330
32E6B
100
AcDbDictionary
280
     1
281
     1
  3
ACAD_SORTENTS
360
32E6D
  0
DICTIONARY
  5
223DA
330
223D9
100
AcDbDictionary
280
     1
281
     1
  3
ACAD_SORTENTS
360
223DB
  0
DICTIONARY
  5
32BE6
330
32BE5
100
AcDbDictionary
280
     1
281
     1
  3
ACAD_SORTENTS
360
32BE7
  0
DICTIONARY
  5
32B51
330
32B50
100
AcDbDictionary
280
     1
281
     1
  3
ACAD_SORTENTS
360
32B52
  0
DICTIONARY
  5
360B3
330
22BEF
100
AcDbDictionary
280
     1
281
     1
  0
DICTIONARY
  5
36099
330
21908
100
AcDbDictionary
280
     1
281
     1
  0
DICTIONARY
  5
3609D
330
2239E
100
AcDbDictionary
280
     1
281
     1
  0
DICTIONARY
  5
3609F
330
223AB
100
AcDbDictionary
280
     1
281
     1
  0
IMAGEDEF_REACTOR
  5
223AF
330
223AE
100
AcDbRasterImageDefReactor
 90
        2
330
223AE
  0
DICTIONARY
  5
223B3
330
223B2
100
AcDbDictionary
280
     1
281
     1
  3
ASDK_XREC_ANNOTATION_SCALE_INFO
360
223B4
  0
DICTIONARY
  5
360A2
330
223B7
100
AcDbDictionary
280
     1
281
     1
  0
IMAGEDEF_REACTOR
  5
37DFB
330
37DFC
100
AcDbRasterImageDefReactor
 90
        2
330
37DFC
  0
DICTIONARY
  5
32E71
330
32E70
100
AcDbDictionary
280
     1
281
     1
  3
ASDK_XREC_ANNOTATION_SCALE_INFO
360
32E72
  0
DICTIONARY
  5
360D1
330
32EED
100
AcDbDictionary
280
     1
281
     1
  0
DICTIONARY
  5
360D3
330
32EFB
100
AcDbDictionary
280
     1
281
     1
  0
IMAGEDEF_REACTOR
  5
32EFF
330
32EFE
100
AcDbRasterImageDefReactor
 90
        2
330
32EFE
  0
DICTIONARY
  5
360D5
330
32F03
100
AcDbDictionary
280
     1
281
     1
  0
DICTIONARY
  5
360D7
330
32F0B
100
AcDbDictionary
280
     1
281
     1
  0
DICTIONARY
  5
3A51B
330
3353F
100
AcDbDictionary
280
     1
281
     1
  3
ACAD_XREC_ROUNDTRIP
360
3A51C
  0
DICTIONARY
  5
360A7
330
223DE
100
AcDbDictionary
280
     1
281
     1
  0
DICTIONARY
  5
360A9
330
223EB
100
AcDbDictionary
280
     1
281
     1
  0
IMAGEDEF_REACTOR
  5
223EF
330
223EE
100
AcDbRasterImageDefReactor
 90
        2
330
223EE
  0
DICTIONARY
  5
360AB
330
223F0
100
AcDbDictionary
280
     1
281
     1
  0
DICTIONARY
  5
223F3
330
223F2
100
AcDbDictionary
280
     1
281
     1
  3
ASDK_XREC_ANNOTATION_SCALE_INFO
360
223F4
  0
DICTIONARY
  5
360AE
330
223F7
100
AcDbDictionary
280
     1
281
     1
  0
DICTIONARY
  5
360B1
330
22462
100
AcDbDictionary
280
     1
281
     1
  0
DICTIONARY
  5
32BEB
330
32BEA
100
AcDbDictionary
280
     1
281
     1
  3
ASDK_XREC_ANNOTATION_SCALE_INFO
360
32BEC
  0
DICTIONARY
  5
36146
330
35F9E
100
AcDbDictionary
280
     1
281
     1
  0
DICTIONARY
  5
36148
330
35FAB
100
AcDbDictionary
280
     1
281
     1
  0
IMAGEDEF_REACTOR
  5
35FAF
330
35FAE
100
AcDbRasterImageDefReactor
 90
        2
330
35FAE
  0
DICTIONARY
  5
3614A
330
35FB3
100
AcDbDictionary
280
     1
281
     1
  0
IMAGEDEF_REACTOR
  5
37E26
330
37E25
100
AcDbRasterImageDefReactor
 90
        2
330
37E25
  0
DICTIONARY
  5
32B56
330
32B55
100
AcDbDictionary
280
     1
281
     1
  3
ASDK_XREC_ANNOTATION_SCALE_INFO
360
32B57
  0
DICTIONARY
  5
360C2
330
32B58
100
AcDbDictionary
280
     1
281
     1
  0
DICTIONARY
  5
360C4
330
32B65
100
AcDbDictionary
280
     1
281
     1
  0
IMAGEDEF_REACTOR
  5
32B69
330
32B68
100
AcDbRasterImageDefReactor
 90
        2
330
32B68
  0
DICTIONARY
  5
360C6
330
32B6D
100
AcDbDictionary
280
     1
281
     1
  0
IMAGEDEF_REACTOR
  5
37E3B
330
37E3A
100
AcDbRasterImageDefReactor
 90
        2
330
37E3A
  0
DICTIONARY
  5
3613C
330
33544
100
AcDbDictionary
280
     1
281
     1
  0
DICTIONARY
  5
3A50E
330
3A50D
100
AcDbDictionary
280
     1
281
     1
  3
ACAD_DIMASSOC
360
3A50F
  0
DICTIONARY
  5
32A57
330
32A56
100
AcDbDictionary
280
     1
281
     1
  3
ASDK_XREC_ANNOTATION_SCALE_INFO
360
32A58
  0
DICTIONARY
  5
360B9
330
32AE9
100
AcDbDictionary
280
     1
281
     1
  0
DICTIONARY
  5
360BB
330
32AF6
100
AcDbDictionary
280
     1
281
     1
  0
IMAGEDEF_REACTOR
  5
32AFA
330
32AF9
100
AcDbRasterImageDefReactor
 90
        2
330
32AF9
  0
DICTIONARY
  5
360BD
330
32AFE
100
AcDbDictionary
280
     1
281
     1
  0
IMAGEDEF_REACTOR
  5
37E11
330
37E10
100
AcDbRasterImageDefReactor
 90
        2
330
37E10
  0
DICTIONARY
  5
A3CD
102
{ACAD_REACTORS
330
C
102
}
330
C
100
AcDbDictionary
281
     1
  0
XRECORD
  5
31BFC
102
{ACAD_REACTORS
330
C
102
}
330
C
100
AcDbXrecord
280
     1
300
ACDLT
300
2015
300
ACDLT_F_S
  0
DICTIONARY
  5
1C
102
{ACAD_REACTORS
330
C
102
}
330
C
100
AcDbDictionary
281
     1
  0
DICTIONARY
  5
31BF3
102
{ACAD_REACTORS
330
C
102
}
330
C
100
AcDbDictionary
281
     1
  3
DIN 6
350
3A14A
  3
Metric50
350
31BF4
  0
FIELDLIST
  5
33389
102
{ACAD_REACTORS
330
C
102
}
330
C
100
AcDbIdSet
 90
        6
330
3A14D
330
3A14E
330
3A14F
330
3A153
330
3A154
330
3A155
100
AcDbFieldList
  0
DICTIONARY
  5
D
102
{ACAD_REACTORS
330
C
102
}
330
C
100
AcDbDictionary
281
     1
  0
DICTIONARY
  5
6518
102
{ACAD_REACTORS
330
C
102
}
330
C
100
AcDbDictionary
281
     1
  3
Gelber Rand_mit Kind
350
37DFA
  3
LOGO_ZB_aktuell
350
17ED4
  0
RASTERVARIABLES
  5
651A
102
{ACAD_REACTORS
330
C
102
}
330
C
100
AcDbRasterVariables
 90
        0
 70
     3
 71
     1
 72
     1
  0
DICTIONARY
  5
1A
102
{ACAD_REACTORS
330
C
102
}
330
C
100
AcDbDictionary
281
     1
  3
AngebotA3hoch
350
32A60
  3
AngebotA3quer
350
223BB
  3
AngebotA4 hoch
350
32C07
  3
AngebotA4quer
350
32B72
  3
Ausführungszeichnung
350
223FB
  3
Fertigungszeichnung
350
32E90
  3
Model
350
26
  0
DICTIONARY
  5
1B
102
{ACAD_REACTORS
330
C
102
}
330
C
100
AcDbDictionary
281
     1
  3
ByBlock
350
1D90
  3
ByLayer
350
1D8F
  3
Global
350
1D91
  0
DICTIONARY
  5
252D
102
{ACAD_REACTORS
330
C
102
}
330
C
100
AcDbDictionary
281
     1
  3
Standard
350
252E
  0
DICTIONARY
  5
17
102
{ACAD_REACTORS
330
C
102
}
330
C
100
AcDbDictionary
281
     1
  3
Standard
350
18
  0
DICTIONARY
  5
22688
102
{ACAD_REACTORS
330
C
102
}
330
C
100
AcDbDictionary
281
     1
  0
DICTIONARY
  5
19
102
{ACAD_REACTORS
330
C
102
}
330
C
100
AcDbDictionary
281
     1
  0
ACDBDICTIONARYWDFLT
  5
E
102
{ACAD_REACTORS
330
C
102
}
330
C
100
AcDbDictionary
281
     1
  3
Normal
350
F
100
AcDbDictionaryWithDefault
340
F
  0
DICTIONARY
  5
250B
102
{ACAD_REACTORS
330
C
102
}
330
C
100
AcDbDictionary
281
     1
  3
A0
350
37FFA
  3
A1
350
37FFB
  3
A2
350
37FFC
  3
A3
350
37FFD
  3
A4
350
37FFE
  3
A5
350
250C
  3
A6
350
37FFF
  3
A7
350
38000
  3
A8
350
38001
  3
A9
350
38002
  3
B0
350
38003
  3
B1
350
38004
  3
B2
350
38005
  3
B3
350
38006
  3
B4
350
38007
  3
B5
350
38008
  3
B6
350
38009
  3
B7
350
D405
  3
B8
350
3800A
  3
B9
350
3800B
  3
C0
350
3800C
  3
C1
350
3800D
  3
C2
350
3800E
  0
DICTIONARY
  5
31BF1
102
{ACAD_REACTORS
330
C
102
}
330
C
100
AcDbDictionary
281
     1
  3
DIN ISO 128-40_2002-05
350
3A150
  3
Metric50
350
31BF2
  0
DICTIONARY
  5
1D
102
{ACAD_REACTORS
330
C
102
}
330
C
100
AcDbDictionary
281
     1
  3
Standard
350
1E
  0
DICTIONARY
  5
1D92
102
{ACAD_REACTORS
330
C
102
}
330
C
100
AcDbDictionary
281
     1
  3
2dWireframe
350
1D98
  3
3D Hidden
350
1D9A
  3
3dWireframe
350
1D99
  3
Basic
350
1D97
  3
Brighten
350
1D9E
  3
ColorChange
350
1DA2
  3
Conceptual
350
1D9B
  3
Dim
350
1D9D
  3
EdgeColorOff
350
58CB
  3
Facepattern
350
1DA1
  3
Flat
350
1D93
  3
FlatWithEdges
350
1D94
  3
Gouraud
350
1D95
  3
GouraudWithEdges
350
1D96
  3
Hidden
350
A3B8
  3
JitterOff
350
58C9
  3
Linepattern
350
1DA0
  3
OverhangOff
350
58CA
  3
Realistic
350
1D9C
  3
Shaded
350
A3BD
  3
Shaded with edges
350
A3BC
  3
Shades of Gray
350
A3B9
  3
Sketchy
350
A3BA
  3
Thicken
350
1D9F
  3
Wireframe
350
A3B7
  3
X-Ray
350
A3BB
  0
WIPEOUTVARIABLES
  5
10CEB
102
{ACAD_REACTORS
330
C
102
}
330
C
100
AcDbWipeoutVariables
 70
     1
  0
XRECORD
  5
1AFF
102
{ACAD_REACTORS
330
C
102
}
330
C
100
AcDbXrecord
280
     1
 90
   990106
  3

 60
     0
 61
     0
 62
     1
 63
     3
 64
     0
 65
     0
 66
     0
 67
     3
 68
     1
 69
     0
 70
     0
 71
     0
 72
     0
 40
0.0
170
     0
  0
XRECORD
  5
3A51D
102
{ACAD_REACTORS
330
C
102
}
330
C
100
AcDbXrecord
280
     1
 90
        1
330
1E
330
3353F
  0
DICTIONARY
  5
4C
102
{ACAD_REACTORS
330
C
102
}
330
C
100
AcDbDictionary
281
     1
  3
CANNOSCALE
350
2569
  3
CMLEADERSTYLE
350
2567
  3
CTABLESTYLE
350
4D
  3
CVIEWDETAILSTYLE
350
31C1B
  3
CVIEWSECTIONSTYLE
350
31C1C
  3
DIMASSOC
350
83
  3
HIDETEXT
350
82
  3
INDEXCTL
350
597E
  3
LAYEREVAL
350
A45A
  3
LAYERNOTIFY
350
A45B
  3
LIGHTINGUNITS
350
256A
  3
MLEADERSCALE
350
597C
  3
MSLTSCALE
350
2568
  3
PROJECTNAME
350
84
  3
SOLIDHIST
350
3300E
  3
SORTENTS
350
597D
  0
DICTIONARY
  5
3A523
102
{ACAD_REACTORS
330
C
102
}
330
C
100
AcDbDictionary
281
     1
  3
AcDsRecords
350
3A525
  3
AcDsSchemas
350
3A524
1001
ACAD
1070
     2
  0
ACAD_PROXY_OBJECT
  5
3A112
102
{ACAD_REACTORS
330
C
102
}
330
C
100
AcDbProxyObject
 90
      499
 91
      544
 95
  5308447
 70
     0
162
                 0
161
                34
310
0C000042CC
 94
        0
  0
ACAD_PROXY_OBJECT
  5
3A115
102
{ACAD_REACTORS
330
C
102
}
330
C
100
AcDbProxyObject
 90
      499
 91
      547
 95
  5308447
 70
     0
162
                 0
161
               114
310
04000041C08000000000000000000C
 94
        0
  0
DICTIONARY
  5
33348
102
{ACAD_REACTORS
330
C
102
}
330
C
100
AcDbDictionary
281
     1
  3
AcmBOMDATA
350
3A12C
  3
AcmStdDictionary
350
3334F
  0
ACAD_PROXY_OBJECT
  5
3A10D
102
{ACAD_REACTORS
330
C
102
}
330
C
100
AcDbProxyObject
 90
      499
 91
      539
 95
  5308447
 70
     0
162
             12512
311
4151401480104014C0114010643004900520043004C0045004190C01240148010C0130011401044C0049004E00450046134014C011C008000B40080010C01BC01B401B4018401B801900080010C01040138010C0114013001300114011000B801044C0049004E00450046134014C011C008000B40080010C01BC01B401B401
311
8401B801900080010C01040138010C0114013001300114011000B801044C0049004E00450046134014C011C008000B40080010C01BC01B401B4018401B801900080010C01040138010C0114013001300114011000B80105450052004100530045004151401480104014C011401054500520041005300450041130012401380
311
11401184D005300470020002D00200043006F006D006D0061006E0064002000430041004E00430045004C004C00450044002E0041934012401480148013C0148010B4D00450041005300550052004500470045004F004D0046134014C011C008000B40080010C01BC01B401B4018401B801900080010C01040138010C01140
311
13001300114011000B8010B4D00450041005300550052004500470045004F004D0046134014C011C008000B40080010C01BC01B401B4018401B801900080010C01040138010C0114013001300114011000B8010B4D00450041005300550052004500470045004F004D0046134014C011C008000B40080010C01BC01B401B40
311
18401B801900080010C01040138010C0114013001300114011000B8010B4D00450041005300550052004500470045004F004D0046134014C011C008000B40080010C01BC01B401B4018401B801900080010C01040138010C0114013001300114011000B80105510053004100560045004C534014C011C008000B4008001400
311
140010400E80080008000800190019401CC01AC01D001BC01C000B8018401C801E00080011801A401B001940158019401C801CC01A401BC01B800E8008000C400E400B800C000B800D000E000B800C000B800C0010B4D00450041005300550052004500470045004F004D0046134014C011C008000B40080010C01BC01B401
311
B4018401B801900080010C01040138010C0114013001300114011000B80107530054005200450054004300480046134014C011C008000B40080010C01BC01B401B4018401B801900080010C01040138010C0114013001300114011000B80107530054005200450054004300480042D3401140104014C015401480114011C01
311
14013C013401184D005300470020002D00200043006F006D006D0061006E0064002000430041004E00430045004C004C00450044002E0041134013C0158011401184D005300470020002D00200043006F006D006D0061006E0064002000430041004E00430045004C004C00450044002E0041544014C01040158011401314D
311
005300470020002D0020005000500041003A002000200020006400650073006B0074006F0070002E006100720078002000460069006C006500560065007200730069006F006E003A002000310039002E0030002E00340038002E0030002E00300041544014C01040158011401314D005300470020002D00200050005000410
311
03A002000200020006400650073006B0074006F0070002E006100720078002000460069006C006500560065007200730069006F006E003A002000310039002E0030002E00340038002E0030002E00300042D3401140104014C015401480114011C0114013C013401184D005300470020002D00200043006F006D006D006100
311
6E0064002000430041004E00430045004C004C00450044002E0041544014C01040158011401314D005300470020002D0020005000500041003A002000200020006400650073006B0074006F0070002E006100720078002000460069006C006500560065007200730069006F006E003A002000310039002E0030002E0034003
311
8002E0030002E0030004115401380110013C010455004E0044004F0042158013001500110015401340134016401054500520041005300450041544014C01040158011401314D005300470020002D0020005000500041003A002000200020006400650073006B0074006F0070002E006100720078002000460069006C006500
311
560065007200730069006F006E003A002000310039002E0030002E00340038002E0030002E00300000
161
               598
310
478060180601404040501010140404060180601404040601404040501010140404050101014040405010101404040601404040501010140404050101014040405010101806018060140404
 94
        0
  0
ACAD_PROXY_OBJECT
  5
3A10C
102
{ACAD_REACTORS
330
C
102
}
330
C
100
AcDbProxyObject
 90
      499
 91
      538
 95
  5308447
 70
     0
162
                 0
161
               266
310
13000052C080000000000000000010C442000000000000000000000000AAA406AA8C
360
3A10F
360
3A11B
360
3A11E
360
3A11F
360
3A120
360
3A121
360
3A122
360
3A127
360
3A128
360
3A129
360
3A12A
360
3A12B
 94
        0
  0
ACAD_PROXY_OBJECT
  5
3A110
102
{ACAD_REACTORS
330
C
102
}
330
C
100
AcDbProxyObject
 90
      499
 91
      542
 95
  5308447
 70
     0
162
                 0
161
                50
310
13000044E4128C
 94
        0
  0
ACAD_PROXY_OBJECT
  5
3A10E
102
{ACAD_REACTORS
330
C
102
}
330
C
100
AcDbProxyObject
 90
      499
 91
      540
 95
  5308447
 70
     0
162
                 0
161
                32
310
90140A0000
330
3A10F
 94
        0
  0
ACAD_PROXY_OBJECT
  5
3A11A
102
{ACAD_REACTORS
330
C
102
}
330
C
100
AcDbProxyObject
 90
      499
 91
      540
 95
  5308447
 70
     0
162
                 0
161
                32
310
90140A0000
330
3A11B
 94
        0
  0
DICTIONARY
  5
5E76
102
{ACAD_REACTORS
330
C
102
}
330
C
100
AcDbDictionary
281
     1
  0
DICTIONARY
  5
3331C
102
{ACAD_REACTORS
330
C
102
}
330
C
100
AcDbDictionary
281
     1
  3
AcMgSettings
350
3A108
  3
AMGLAYCFG
350
3A146
  0
DICTIONARY
  5
333F6
102
{ACAD_REACTORS
330
C
102
}
330
C
100
AcDbDictionary
281
     1
  0
ACAD_PROXY_OBJECT
  5
3A118
102
{ACAD_REACTORS
330
C
102
}
330
C
100
AcDbProxyObject
 90
      499
 91
      550
 95
  5308447
 70
     0
162
                 0
161
                34
310
050000428C
 94
        0
  0
ACAD_PROXY_OBJECT
  5
3A123
102
{ACAD_REACTORS
330
C
102
}
330
C
100
AcDbProxyObject
 90
      499
 91
      554
 95
  5308447
 70
     0
162
                 0
161
                98
310
0E000053C0000000000000000C
330
3A129
330
0
330
3A12A
330
0
330
0
330
0
330
0
330
0
 94
        0
  0
ACAD_PROXY_OBJECT
  5
3A11D
102
{ACAD_REACTORS
330
C
102
}
330
C
100
AcDbProxyObject
 90
      499
 91
      540
 95
  5308447
 70
     0
162
                 0
161
                64
310
90541A000000000000
330
3A11E
330
3A11F
330
3A120
330
3A121
330
3A122
 94
        0
  0
ACAD_PROXY_OBJECT
  5
3A119
102
{ACAD_REACTORS
330
C
102
}
330
C
100
AcDbProxyObject
 90
      499
 91
      551
 95
  5308447
 70
     0
162
                 0
161
                 8
310
0500
 94
        0
  0
ACAD_PROXY_OBJECT
  5
3A15D
102
{ACAD_REACTORS
330
C
102
}
330
C
100
AcDbProxyObject
 90
      499
 91
      598
 95
  5308447
 70
     0
162
                 0
161
                 1
310
4C
 94
        0
  0
DICTIONARY
  5
5B6B
102
{ACAD_REACTORS
330
48
102
}
330
48
100
AcDbDictionary
281
     1
  0
DICTIONARY
  5
67
102
{ACAD_REACTORS
330
48
102
}
330
48
100
AcDbDictionary
281
     1
  0
DICTIONARY
  5
5B6A
102
{ACAD_REACTORS
330
48
102
}
330
48
100
AcDbDictionary
281
     1
1001
ACAD
1000
<All
  0
XRECORD
  5
253C
102
{ACAD_REACTORS
330
253B
102
}
330
253B
100
AcDbXrecord
280
     1
290
     1
  0
XRECORD
  5
253E
102
{ACAD_REACTORS
330
253D
102
}
330
253D
100
AcDbXrecord
280
     1
290
     1
  0
XRECORD
  5
2540
102
{ACAD_REACTORS
330
253F
102
}
330
253F
100
AcDbXrecord
280
     1
290
     1
  0
XRECORD
  5
2548
102
{ACAD_REACTORS
330
2547
102
}
330
2547
100
AcDbXrecord
280
     1
290
     1
  0
XRECORD
  5
254A
102
{ACAD_REACTORS
330
2549
102
}
330
2549
100
AcDbXrecord
280
     1
290
     1
  0
XRECORD
  5
2550
102
{ACAD_REACTORS
330
254F
102
}
330
254F
100
AcDbXrecord
280
     1
290
     1
  0
SORTENTSTABLE
  5
1FDE
102
{ACAD_REACTORS
330
1FDD
102
}
330
1FDD
100
AcDbSortentsTable
330
23
  0
SORTENTSTABLE
  5
32A40
102
{ACAD_REACTORS
330
32A3F
102
}
330
32A3F
100
AcDbSortentsTable
330
32A3E
  0
SORTENTSTABLE
  5
22BF1
102
{ACAD_REACTORS
330
22BF0
102
}
330
22BF0
100
AcDbSortentsTable
330
D72C
  0
SORTENTSTABLE
  5
2239B
102
{ACAD_REACTORS
330
2239A
102
}
330
2239A
100
AcDbSortentsTable
330
22399
  0
SORTENTSTABLE
  5
32E6D
102
{ACAD_REACTORS
330
32E6C
102
}
330
32E6C
100
AcDbSortentsTable
330
32E6B
  0
SORTENTSTABLE
  5
223DB
102
{ACAD_REACTORS
330
223DA
102
}
330
223DA
100
AcDbSortentsTable
330
223D9
  0
SORTENTSTABLE
  5
32BE7
102
{ACAD_REACTORS
330
32BE6
102
}
330
32BE6
100
AcDbSortentsTable
330
32BE5
  0
SORTENTSTABLE
  5
32B52
102
{ACAD_REACTORS
330
32B51
102
}
330
32B51
100
AcDbSortentsTable
330
32B50
  0
XRECORD
  5
223B4
102
{ACAD_REACTORS
330
223B3
102
}
330
223B3
100
AcDbXrecord
280
     1
 90
        1
340
D405
  0
XRECORD
  5
32E72
102
{ACAD_REACTORS
330
32E71
102
}
330
32E71
100
AcDbXrecord
280
     1
 90
        1
340
D405
  0
XRECORD
  5
3A51C
102
{ACAD_REACTORS
330
3A51B
102
}
330
3A51B
100
AcDbXrecord
280
     1
102
ACAD_ROUNDTRIP_2008_TABLE_ENTITY
360
37DD5
 70
     2
 90
        1
 10
0.0
 20
0.0
 30
0.0
 90
        0
 90
        1
361
37DD6
  0
XRECORD
  5
223F4
102
{ACAD_REACTORS
330
223F3
102
}
330
223F3
100
AcDbXrecord
280
     1
 90
        1
340
D405
  0
XRECORD
  5
32BEC
102
{ACAD_REACTORS
330
32BEB
102
}
330
32BEB
100
AcDbXrecord
280
     1
 90
        1
340
D405
  0
XRECORD
  5
32B57
102
{ACAD_REACTORS
330
32B56
102
}
330
32B56
100
AcDbXrecord
280
     1
 90
        1
340
D405
  0
DIMASSOC
  5
3A50F
102
{ACAD_REACTORS
330
3A50E
102
}
330
3A50E
100
AcDbDimAssoc
330
3A50D
 90
        3
 70
     0
 71
     0
  1
AcDbOsnapPointRef
 72
     5
331
3A4EB
 73
     2
 91
        0
 40
3.141592653589793
 10
0.0
 20
0.0
 30
0.0
 75
     0
  1
AcDbOsnapPointRef
 72
     5
331
3A4EF
 73
     2
 91
        0
 40
0.0
 10
0.0
 20
0.0
 30
0.0
 75
     0
  0
XRECORD
  5
32A58
102
{ACAD_REACTORS
330
32A57
102
}
330
32A57
100
AcDbXrecord
280
     1
 90
        1
340
D405
  0
ACDBDETAILVIEWSTYLE
  5
3A14A
102
{ACAD_XDICTIONARY
360
3A14B
102
}
102
{ACAD_REACTORS
330
3A13C
330
31BF3
102
}
330
31BF3
100
AcDbModelDocViewStyle
 70
     0
  3

290
     0
100
AcDbDetailViewStyle
 70
     0
 71
     0
 90
        3
 71
     1
340
11
 62
     7
 40
5.0
340
0
 62
     3
 40
5.0
300

 40
0.0
280
     0
 71
     2
340
16
 90
       25
 62
     3
 71
     3
340
11
 62
     7
 40
5.0
 90
        0
 40
15.0
 90
        1
300
%<\AcVar ViewDetailId>% %<\AcVar ViewScale \f "%sn">%
 71
     4
340
16
 90
       25
 62
     3
340
16
 90
       25
 62
     3
280
     0
  0
ACDBDETAILVIEWSTYLE
  5
31BF4
102
{ACAD_XDICTIONARY
360
3A0F5
102
}
102
{ACAD_REACTORS
330
31BF3
330
3A149
102
}
330
31BF3
100
AcDbModelDocViewStyle
 70
     0
  3
Metric50
290
     0
100
AcDbDetailViewStyle
 70
     0
 71
     0
 90
        3
 71
     1
340
11
 62
   256
 40
5.0
340
0
 62
   256
 40
5.0
300

 40
0.0
280
     1
 71
     2
340
16
 90
       25
 62
   256
 71
     3
340
11
 62
   256
 40
5.0
 90
        0
 40
15.0
 90
        1
300
%<\AcVar ViewDetailId>% (%<\AcVar ViewScale \f "%sn">%)
 71
     4
340
16
 90
       25
 62
   256
340
16
 90
       25
 62
   256
280
     0
1001
ACAD
1000
AcRTDxfName
1000
ACDBDETAILVIEWSTYLE
1000
AcRTDxfName
1000
ACDBDETAILVIEWSTYLE
1000
AcRTDxfName
1000
ACDBDETAILVIEWSTYLE
1000
AcRTDxfName
1000
ACDBDETAILVIEWSTYLE
1000
AcRTDxfName
1000
ACDBDETAILVIEWSTYLE
1000
AcRTDxfName
1000
ACDBDETAILVIEWSTYLE
1000
AcRTDxfName
1000
ACDBDETAILVIEWSTYLE
  0
IMAGEDEF
  5
37DFA
102
{ACAD_REACTORS
330
6518
330
37DFB
330
37E11
330
37E26
330
37E3B
102
}
330
6518
100
AcDbRasterImageDef
 90
        0
  1
W:\TB\ESF\PAINT.NET\Gelber Rand_mit Kind.jpg
 10
2228.0
 20
3272.0
 11
0.0855218855218855
 21
0.0855218855218855
280
     1
281
     5
  0
IMAGEDEF
  5
17ED4
102
{ACAD_REACTORS
330
6518
330
223AF
330
223EF
330
32AFA
330
32B69
330
32EFF
330
35FAF
102
}
330
6518
100
AcDbRasterImageDef
 90
        0
  1
W:\TB\ESF\Vorlagen CAD\LOGO_ZB_aktuell.jpg
 10
1462.0
 20
931.0
 11
0.0423333333333333
 21
0.0423333333333333
280
     1
281
     5
  0
LAYOUT
  5
32A60
102
{ACAD_XDICTIONARY
360
32A61
102
}
102
{ACAD_REACTORS
330
1A
102
}
330
1A
100
AcDbPlotSettings
  1

  2
\\SRVPRINT\Kopierer__OG
  4
A3
  6

 40
5.027082920074462
 41
5.11175537109375
 42
5.027099609375
 43
5.027069091796875
 44
296.9259948730469
 45
419.9466552734374
 46
0.0032257587022286
 47
0.0030831943340672
 48
2.395080850860722
 49
-107.3026171512101
140
289.2604416770537
141
302.4990472706686
142
1.0
143
1.0
 70
   692
 72
     1
 73
     0
 74
     4
  7
monochrome.ctb
 75
    16
147
1.0
 76
     0
 77
     2
 78
   300
148
-2.395080850860722
149
107.3026171512101
100
AcDbLayout
  1
AngebotA3hoch
 70
     1
 71
     2
 10
-2.635227827915969
 20
-112.4174557166379
 11
294.2907670451309
 21
307.5291995567996
 12
0.0
 22
0.0
 32
0.0
 14
2.455500926958166
 24
-107.3633929224151
 34
0.0
 15
289.1205251029935
 25
302.4338438862712
 35
0.0
146
0.0
 13
0.0
 23
0.0
 33
0.0
 16
1.0
 26
0.0
 36
0.0
 17
0.0
 27
1.0
 37
0.0
 76
     0
330
32A3E
331
32A42
1001
ACAD_PSEXT
1000
\\SRVPRINT\Kopierer__OG
1000
SHARP MX-3640N PCL6
1000
OG
1000

1070
   500
  0
LAYOUT
  5
223BB
102
{ACAD_XDICTIONARY
360
223BC
102
}
102
{ACAD_REACTORS
330
1A
102
}
330
1A
100
AcDbPlotSettings
  1

  2
\\SRVPRINT\Kopierer__OG
  4
A3
  6

 40
5.027082920074462
 41
5.11175537109375
 42
5.027099609375
 43
5.027069091796875
 44
296.9259948730469
 45
419.9466552734374
 46
0.0241413033234039
 47
0.0212721956131645
 48
-59.07794273953641
 49
-45.7827711498503
140
350.6873436797842
141
241.0407585871003
142
1.0
143
1.0
 70
   692
 72
     1
 73
     1
 74
     4
  7
monochrome.ctb
 75
    16
147
1.0
 76
     0
 77
     2
 78
   300
148
59.07794273953641
149
45.7827711498503
100
AcDbLayout
  1
AngebotA3quer
 70
     1
 71
     1
 10
-64.12628402694645
 20
-50.83399537324817
 11
355.820371246491
 21
246.0919994997987
 12
0.0
 22
0.0
 32
0.0
 14
-58.89348247016893
 24
-46.29748478043526
 34
0.0
 15
350.4282971877942
 25
240.9900527106553
 35
0.0
146
0.0
 13
0.0
 23
0.0
 33
0.0
 16
1.0
 26
0.0
 36
0.0
 17
0.0
 27
1.0
 37
0.0
 76
     0
330
22399
331
2239D
1001
ACAD_PSEXT
1000
\\SRVPRINT\Kopierer__OG
1000
SHARP MX-3640N PCL6
1000
OG
1000

1070
   500
  0
LAYOUT
  5
32C07
102
{ACAD_XDICTIONARY
360
32C08
102
}
102
{ACAD_REACTORS
330
1A
102
}
330
1A
100
AcDbPlotSettings
  1

  2
\\SRVPRINT\Kopierer__OG
  4
A4
  6

 40
5.027082920074462
 41
5.027099609375
 42
5.027069091796875
 43
5.027069091796875
 44
209.9733276367187
 45
296.9259948730469
 46
0.0098592597482821
 47
0.0118785974764251
 48
45.74746606080998
 49
-45.71870893328991
140
245.6469231661608
141
241.1293600436323
142
1.0
143
1.0
 70
   692
 72
     1
 73
     0
 74
     4
  7
monochrome.ctb
 75
    16
147
1.0
 76
     0
 77
     2
 78
   300
148
-45.74746606080998
149
45.71870893328991
100
AcDbLayout
  1
AngebotA4 hoch
 70
     1
 71
     3
 10
40.71052388098723
 20
-50.75768714014134
 11
250.683851517706
 21
246.1683077329055
 12
0.0
 22
0.0
 32
0.0
 14
45.79423141505185
 24
-45.84414042624155
 34
0.0
 15
244.872547638053
 25
256.4510492968241
 35
0.0
146
0.0
 13
0.0
 23
0.0
 33
0.0
 16
1.0
 26
0.0
 36
0.0
 17
0.0
 27
1.0
 37
0.0
 76
     0
330
32BE5
331
32BE9
1001
ACAD_PSEXT
1000
\\SRVPRINT\Kopierer__OG
1000
SHARP MX-3640N PCL6
1000
OG
1000

1070
   500
  0
LAYOUT
  5
32B72
102
{ACAD_XDICTIONARY
360
32B73
102
}
102
{ACAD_REACTORS
330
1A
102
}
330
1A
100
AcDbPlotSettings
  1

  2
\\SRVPRINT\Kopierer__OG
  4
A4
  6

 40
5.027082920074462
 41
5.027099609375
 42
5.027069091796875
 43
5.027069091796875
 44
209.9733276367187
 45
296.9259948730469
 46
0.0088853728780123
 47
0.0083954038741467
 48
2.395853538974733
 49
-2.348940608528664
140
289.2508889031014
141
197.5524642705627
142
1.0
143
1.0
 70
   692
 72
     1
 73
     1
 74
     4
  7
monochrome.ctb
 75
    16
147
1.0
 76
     0
 77
     2
 78
   300
148
-2.395853538974733
149
2.348940608528664
100
AcDbLayout
  1
AngebotA4quer
 70
     1
 71
     4
 10
-2.639610956696287
 20
-7.384908901481139
 11
294.2863839163506
 21
202.5884187352376
 12
0.0
 22
0.0
 32
0.0
 14
2.441904394123148
 24
-2.40094588137623
 34
0.0
 15
289.1880021122183
 25
198.0207649050162
 35
0.0
146
0.0
 13
0.0
 23
0.0
 33
0.0
 16
1.0
 26
0.0
 36
0.0
 17
0.0
 27
1.0
 37
0.0
 76
     0
330
32B50
331
32B54
1001
ACAD_PSEXT
1000
\\SRVPRINT\Kopierer__OG
1000
SHARP MX-3640N PCL6
1000
OG
1000

1070
   500
  0
LAYOUT
  5
223FB
102
{ACAD_XDICTIONARY
360
223FC
102
}
102
{ACAD_REACTORS
330
1A
102
}
330
1A
100
AcDbPlotSettings
  1

  2
\\SRVPRINT\Kopierer__OG
  4
A3
  6

 40
5.027082920074462
 41
5.11175537109375
 42
5.027099609375
 43
5.027069091796875
 44
296.9259948730469
 45
419.9466552734374
 46
2.509796139642844
 47
0.7811071389119207
 48
-58.24154038653819
 49
-43.36295636934062
140
350.0040761461848
141
238.4892636949711
142
1.0
143
1.0
 70
   692
 72
     1
 73
     1
 74
     4
  7
monochrome.ctb
 75
    16
147
1.0
 76
     0
 77
     2
 78
   300
148
58.24154038653819
149
43.36295636934062
100
AcDbLayout
  1
Ausführungszeichnung
 70
     1
 71
     5
 10
-64.04971661724698
 20
-50.89983542905793
 11
355.8969386561905
 21
246.0261594439889
 12
0.0
 22
0.0
 32
0.0
 14
-55.85195718953764
 24
-43.04038155910484
 34
0.0
 15
349.0248546099833
 25
237.656392436139
 35
0.0
146
0.0
 13
0.0
 23
0.0
 33
0.0
 16
1.0
 26
0.0
 36
0.0
 17
0.0
 27
1.0
 37
0.0
 76
     0
330
223D9
331
223DD
1001
ACAD_PSEXT
1000
\\SRVPRINT\Kopierer__OG
1000
SHARP MX-3640N PCL6
1000
OG
1000

1070
   500
  0
LAYOUT
  5
32E90
102
{ACAD_XDICTIONARY
360
32E91
102
}
102
{ACAD_REACTORS
330
1A
102
}
330
1A
100
AcDbPlotSettings
  1

  2
\\SRVPRINT\Kopierer__OG
  4
A4
  6

 40
5.027082920074462
 41
5.027099609375
 42
5.027069091796875
 43
5.027069091796875
 44
209.9733276367187
 45
296.9259948730469
 46
0.0084716555343221
 47
0.0071531824240196
 48
45.86975554037144
 49
-45.82413582407082
140
245.7719878541502
141
241.0333839829561
142
1.0
143
1.0
 70
   692
 72
     1
 73
     0
 74
     4
  7
monochrome.ctb
 75
    16
147
1.0
 76
     0
 77
     2
 78
   300
148
-45.86975554037144
149
45.82413582407082
100
AcDbLayout
  1
Fertigungszeichnung
 70
     1
 71
     6
 10
40.83420096476266
 20
-50.85838861586984
 11
250.8075286014814
 21
246.067606257177
 12
0.0
 22
0.0
 32
0.0
 14
48.38658301147006
 24
-43.90643637305254
 34
0.0
 15
244.5394615711689
 25
240.0423720636601
 35
0.0
146
0.0
 13
0.0
 23
0.0
 33
0.0
 16
1.0
 26
0.0
 36
0.0
 17
0.0
 27
1.0
 37
0.0
 76
     0
330
32E6B
331
32E6F
1001
ACAD_PSEXT
1000
\\SRVPRINT\Kopierer__OG
1000
SHARP MX-3640N PCL6
1000
OG
1000

1070
   500
  0
LAYOUT
  5
26
102
{ACAD_XDICTIONARY
360
59CC
102
}
102
{ACAD_REACTORS
330
1A
102
}
330
1A
100
AcDbPlotSettings
  1

  2
\\pc17\HP DeskJet 1220C A4
  4
A4
  6

 40
4.180416584014892
 41
12.562424659729
 42
4.180404663085937
 43
3.84173583984375
 44
209.9733276367187
 45
296.9259948730469
 46
0.0
 47
0.0
 48
0.0
 49
0.0
140
0.0
141
0.0
142
1.0
143
1.0
 70
 11952
 72
     1
 73
     0
 74
     0
  7
monochrome.ctb
 75
    16
147
1.0
 76
     0
 77
     2
 78
   300
148
121.7955125582991
149
19.45327258920656
100
AcDbLayout
  1
Model
 70
     1
 71
     0
 10
0.0
 20
0.0
 11
12.0
 21
9.0
 12
0.0
 22
0.0
 32
0.0
 14
0.0
 24
0.0
 34
0.0
 15
0.0
 25
0.0
 35
0.0
146
0.0
 13
0.0
 23
0.0
 33
0.0
 16
1.0
 26
0.0
 36
0.0
 17
0.0
 27
1.0
 37
0.0
 76
     0
330
23
331
1D8D
1001
ACAD_PSEXT
1000
\\pc17\HP DeskJet 1220C A4
1000
HP DeskJet 1220C
1000
Zeichenbüro
1000
A4
1070
     0
  0
MATERIAL
  5
1D90
102
{ACAD_REACTORS
330
1B
102
}
330
1B
100
AcDbMaterial
  1
ByBlock
 73
     1
 78
     1
172
     1
176
     1
270
     1
274
     1
 94
       63
  0
MATERIAL
  5
1D8F
102
{ACAD_REACTORS
330
1B
102
}
330
1B
100
AcDbMaterial
  1
ByLayer
 73
     1
 78
     1
172
     1
176
     1
270
     1
274
     1
 94
       63
  0
MATERIAL
  5
1D91
102
{ACAD_REACTORS
330
1B
102
}
330
1B
100
AcDbMaterial
  1
Global
 73
     1
 78
     1
172
     1
176
     1
270
     1
274
     1
 94
       63
  0
MLEADERSTYLE
  5
252E
102
{ACAD_REACTORS
330
252D
102
}
330
252D
100
AcDbMLeaderStyle
179
     2
170
     1
171
     1
172
     0
 90
        2
 40
0.0
 41
0.0
173
     1
 91
-1056964608
340
14
 92
       -2
290
     1
 42
2.0
291
     1
 43
0.36
  3
Standard
 44
4.0
300

342
11
174
     1
178
     6
175
     1
176
     0
 93
-1056964608
 45
4.0
292
     0
297
     0
 46
4.0
343
37A32
 94
-1056964608
 47
1.0
 49
1.0
140
1.0
293
     1
141
0.0
294
     1
177
     0
142
1.0
295
     0
296
     0
143
0.125
271
     0
272
     9
273
     9
  0
MLINESTYLE
  5
18
102
{ACAD_REACTORS
330
17
102
}
330
17
100
AcDbMlineStyle
  2
STANDARD
 70
     0
  3

 62
   256
 51
90.0
 52
90.0
 71
     2
 49
0.5
 62
   256
  6
BYLAYER
 49
-0.5
 62
   256
  6
BYLAYER
  0
ACDBPLACEHOLDER
  5
F
102
{ACAD_REACTORS
330
E
102
}
330
E
  0
SCALE
  5
37FFA
102
{ACAD_REACTORS
330
250B
102
}
330
250B
100
AcDbScale
 70
     0
300
1:2.5
140
1.0
141
2.5
290
     0
  0
SCALE
  5
37FFB
102
{ACAD_REACTORS
330
250B
102
}
330
250B
100
AcDbScale
 70
     0
300
1:7.5
140
1.0
141
7.5
290
     0
  0
SCALE
  5
37FFC
102
{ACAD_REACTORS
330
250B
102
}
330
250B
100
AcDbScale
 70
     0
300
1:250
140
1.0
141
250.0
290
     0
  0
SCALE
  5
37FFD
102
{ACAD_REACTORS
330
250B
102
}
330
250B
100
AcDbScale
 70
     0
300
1:200
140
1.0
141
200.0
290
     0
  0
SCALE
  5
37FFE
102
{ACAD_REACTORS
330
250B
102
}
330
250B
100
AcDbScale
 70
     0
300
1:150
140
1.0
141
150.0
290
     0
  0
SCALE
  5
250C
102
{ACAD_REACTORS
330
250B
102
}
330
250B
100
AcDbScale
 70
     0
300
1:1
140
1.0
141
1.0
290
     1
  0
SCALE
  5
37FFF
102
{ACAD_REACTORS
330
250B
102
}
330
250B
100
AcDbScale
 70
     0
300
1:25
140
1.0
141
25.0
290
     0
  0
SCALE
  5
38000
102
{ACAD_REACTORS
330
250B
102
}
330
250B
100
AcDbScale
 70
     0
300
1:75
140
1.0
141
75.0
290
     0
  0
SCALE
  5
38001
102
{ACAD_REACTORS
330
250B
102
}
330
250B
100
AcDbScale
 70
     0
300
1:2
140
1.0
141
2.0
290
     0
  0
SCALE
  5
38002
102
{ACAD_REACTORS
330
250B
102
}
330
250B
100
AcDbScale
 70
     0
300
1:4
140
1.0
141
4.0
290
     0
  0
SCALE
  5
38003
102
{ACAD_REACTORS
330
250B
102
}
330
250B
100
AcDbScale
 70
     0
300
1:5
140
1.0
141
5.0
290
     0
  0
SCALE
  5
38004
102
{ACAD_REACTORS
330
250B
102
}
330
250B
100
AcDbScale
 70
     0
300
1:8
140
1.0
141
8.0
290
     0
  0
SCALE
  5
38005
102
{ACAD_REACTORS
330
250B
102
}
330
250B
100
AcDbScale
 70
     0
300
1:10
140
1.0
141
10.0
290
     0
  0
SCALE
  5
38006
102
{ACAD_REACTORS
330
250B
102
}
330
250B
100
AcDbScale
 70
     0
300
1:16
140
1.0
141
16.0
290
     0
  0
SCALE
  5
38007
102
{ACAD_REACTORS
330
250B
102
}
330
250B
100
AcDbScale
 70
     0
300
1:20
140
1.0
141
20.0
290
     0
  0
SCALE
  5
38008
102
{ACAD_REACTORS
330
250B
102
}
330
250B
100
AcDbScale
 70
     0
300
1:30
140
1.0
141
30.0
290
     0
  0
SCALE
  5
38009
102
{ACAD_REACTORS
330
250B
102
}
330
250B
100
AcDbScale
 70
     0
300
1:40
140
1.0
141
40.0
290
     0
  0
SCALE
  5
D405
102
{ACAD_REACTORS
330
250B
102
}
330
250B
100
AcDbScale
 70
     0
300
1:50
140
1.0
141
50.0
290
     0
  0
SCALE
  5
3800A
102
{ACAD_REACTORS
330
250B
102
}
330
250B
100
AcDbScale
 70
     0
300
1:100
140
1.0
141
100.0
290
     0
  0
SCALE
  5
3800B
102
{ACAD_REACTORS
330
250B
102
}
330
250B
100
AcDbScale
 70
     0
300
2:1
140
2.0
141
1.0
290
     0
  0
SCALE
  5
3800C
102
{ACAD_REACTORS
330
250B
102
}
330
250B
100
AcDbScale
 70
     0
300
4:1
140
4.0
141
1.0
290
     0
  0
SCALE
  5
3800D
102
{ACAD_REACTORS
330
250B
102
}
330
250B
100
AcDbScale
 70
     0
300
8:1
140
8.0
141
1.0
290
     0
  0
SCALE
  5
3800E
102
{ACAD_REACTORS
330
250B
102
}
330
250B
100
AcDbScale
 70
     0
300
10:1
140
10.0
141
1.0
290
     0
  0
ACDBSECTIONVIEWSTYLE
  5
3A150
102
{ACAD_XDICTIONARY
360
3A151
102
}
102
{ACAD_REACTORS
330
3A13D
330
31BF1
102
}
330
31BF1
100
AcDbModelDocViewStyle
 70
     0
  3

290
     0
100
AcDbSectionViewStyle
 70
     0
 71
     0
 90
      102
 71
     1
340
11
 62
     7
 40
5.0
340
38223
340
38223
 62
     7
 40
5.0
300
I,O,Q,S,X,Z
 40
10.0
 90
        0
 40
2.5
 90
        0
 71
     2
340
38205
 90
       50
 62
     1
340
38205
 90
       50
 62
     7
 40
10.0
 40
5.0
 40
25.0
 71
     3
340
11
 62
     7
 40
5.0
 90
        0
 40
5.25
 90
        1
300
%<\AcVar ViewSectionStartId>%-%<\AcVar ViewSectionEndId>%
 71
     4
 62
   256
 62
   257
300
ANSI31
 40
1.0
 90
        0
290
     0
290
     0
 90
        6
 40
0.0
 40
1.570796326794896
 40
0.2617993877991494
 40
1.308996938995747
 40
-0.2617993877991494
 40
1.832595714594046
  0
ACDBSECTIONVIEWSTYLE
  5
31BF2
102
{ACAD_XDICTIONARY
360
3A0F3
102
}
102
{ACAD_REACTORS
330
31BF1
330
3A148
102
}
330
31BF1
100
AcDbModelDocViewStyle
 70
     0
  3
Metric50
290
     0
100
AcDbSectionViewStyle
 70
     0
 71
     0
 90
      102
 71
     1
340
11
 62
   256
 40
5.0
340
0
340
0
 62
   256
 40
5.0
300
I, O, Q, S, X, Z
 40
10.0
 90
        0
 40
2.5
 90
        0
 71
     2
340
16
 90
       25
 62
   256
340
16
 90
       50
 62
   256
 40
5.0
 40
2.5
 40
5.0
 71
     3
340
11
 62
   256
 40
5.0
 90
        0
 40
15.0
 90
        1
300
%<\AcVar ViewSectionStartId>%-%<\AcVar ViewSectionEndId>% (%<\AcVar ViewScale \f "%sn">%)
 71
     4
 62
   256
 62
   257
300
ANSI31
 40
1.0
 90
        0
290
     0
290
     0
 90
        6
 40
0.0
 40
1.570796326794896
 40
0.2617993877991494
 40
1.308996938995747
 40
-0.2617993877991494
 40
1.832595714594046
1001
ACAD
1000
AcRTDxfName
1000
ACDBSECTIONVIEWSTYLE
1000
AcRTDxfName
1000
ACDBSECTIONVIEWSTYLE
1000
AcRTDxfName
1000
ACDBSECTIONVIEWSTYLE
1000
AcRTDxfName
1000
ACDBSECTIONVIEWSTYLE
1000
AcRTDxfName
1000
ACDBSECTIONVIEWSTYLE
1000
AcRTDxfName
1000
ACDBSECTIONVIEWSTYLE
1000
AcRTDxfName
1000
ACDBSECTIONVIEWSTYLE
  0
TABLESTYLE
  5
1E
102
{ACAD_XDICTIONARY
360
2563
102
}
102
{ACAD_REACTORS
330
1D
330
3353F
102
}
330
1D
100
AcDbTableStyle
280
     0
  3
Standard
 70
     0
 71
     0
 40
1.5
 41
1.5
280
     0
281
     0
  7
Standard
140
4.5
170
     2
 62
     0
 63
     7
283
     0
 90
        4
 91
        0
  1

274
    -2
284
     1
 64
     0
275
    -2
285
     1
 65
     0
276
    -2
286
     1
 66
     0
277
    -2
287
     1
 67
     0
278
    -2
288
     1
 68
     0
279
    -2
289
     1
 69
     0
  7
Standard
140
6.0
170
     5
 62
     0
 63
     7
283
     0
 90
        4
 91
        0
  1

274
    -2
284
     1
 64
     0
275
    -2
285
     1
 65
     0
276
    -2
286
     1
 66
     0
277
    -2
287
     1
 67
     0
278
    -2
288
     1
 68
     0
279
    -2
289
     1
 69
     0
  7
Standard
140
4.5
170
     5
 62
     0
 63
     7
283
     0
 90
        4
 91
        0
  1

274
    -2
284
     1
 64
     0
275
    -2
285
     1
 65
     0
276
    -2
286
     1
 66
     0
277
    -2
287
     1
 67
     0
278
    -2
288
     1
 68
     0
279
    -2
289
     1
 69
     0
  0
VISUALSTYLE
  5
1D98
102
{ACAD_XDICTIONARY
360
3A530
102
}
102
{ACAD_REACTORS
330
1D92
102
}
330
1D92
100
AcDbVisualStyle
  2
2dWireframe
 70
     4
177
     2
291
     0
 71
     0
176
     1
 72
     2
176
     1
 73
     0
176
     1
 90
        0
176
     1
 40
0.6
176
     1
 41
30.0
176
     1
 63
     7
176
     1
 74
     1
176
     1
 91
        4
176
     1
 64
     7
176
     1
 65
   257
176
     1
 75
     1
176
     1
175
     1
176
     1
 42
1.0
176
     1
 92
        0
176
     1
 66
   257
176
     1
 43
1.0
176
     1
 76
     1
176
     1
 77
     6
176
     1
 78
     2
176
     1
 67
     7
176
     1
 79
     5
176
     1
170
     0
176
     1
171
     0
176
     1
290
     0
176
     1
 93
        1
176
     1
 44
0.0
176
     1
173
     0
176
     1
1001
ACAD
1000
AcDbSavedByObjectVersion
1070
     0
  0
VISUALSTYLE
  5
1D9A
102
{ACAD_XDICTIONARY
360
3A534
102
}
102
{ACAD_REACTORS
330
1D92
102
}
330
1D92
100
AcDbVisualStyle
  2
3D Hidden
 70
     6
177
     2
291
     0
 71
     1
176
     1
 72
     2
176
     1
 73
     2
176
     1
 90
        0
176
     1
 40
0.6
176
     1
 41
30.0
176
     1
 63
     7
176
     1
 74
     2
176
     1
 91
        2
176
     1
 64
     7
176
     1
 65
   257
176
     1
 75
     2
176
     1
175
     1
176
     1
 42
40.0
176
     1
 92
        0
176
     1
 66
   257
176
     1
 43
1.0
176
     1
 76
     1
176
     1
 77
     6
176
     1
 78
     2
176
     1
 67
     7
176
     1
 79
     3
176
     1
170
     0
176
     1
171
     0
176
     1
290
     0
176
     1
 93
        1
176
     1
 44
0.0
176
     1
173
     0
176
     1
1001
ACAD
1000
AcDbSavedByObjectVersion
1070
     0
  0
VISUALSTYLE
  5
1D99
102
{ACAD_XDICTIONARY
360
3A532
102
}
102
{ACAD_REACTORS
330
1D92
102
}
330
1D92
100
AcDbVisualStyle
  2
3dWireframe
 70
     5
177
     2
291
     0
 71
     0
176
     1
 72
     2
176
     1
 73
     0
176
     1
 90
        0
176
     1
 40
0.6
176
     1
 41
30.0
176
     1
 63
     7
176
     1
 74
     1
176
     1
 91
        4
176
     1
 64
     7
176
     1
 65
   257
176
     1
 75
     1
176
     1
175
     1
176
     1
 42
1.0
176
     1
 92
        0
176
     1
 66
   257
176
     1
 43
1.0
176
     1
 76
     1
176
     1
 77
     6
176
     1
 78
     2
176
     1
 67
     7
176
     1
 79
     5
176
     1
170
     0
176
     1
171
     0
176
     1
290
     0
176
     1
 93
        1
176
     1
 44
0.0
176
     1
173
     0
176
     1
1001
ACAD
1000
AcDbSavedByObjectVersion
1070
     0
  0
VISUALSTYLE
  5
1D97
102
{ACAD_XDICTIONARY
360
3A52E
102
}
102
{ACAD_REACTORS
330
1D92
102
}
330
1D92
100
AcDbVisualStyle
  2
Basic
 70
     7
177
     2
291
     1
 71
     1
176
     1
 72
     0
176
     1
 73
     1
176
     1
 90
        0
176
     1
 40
0.6
176
     1
 41
30.0
176
     1
 63
     7
176
     1
 74
     0
176
     1
 91
        4
176
     1
 64
     7
176
     1
 65
   257
176
     1
 75
     1
176
     1
175
     1
176
     1
 42
1.0
176
     1
 92
        8
176
     1
 66
     7
176
     1
 43
1.0
176
     1
 76
     1
176
     1
 77
     6
176
     1
 78
     2
176
     1
 67
     7
176
     1
 79
     5
176
     1
170
     0
176
     1
171
     0
176
     1
290
     0
176
     1
 93
        1
176
     1
 44
0.0
176
     1
173
     0
176
     1
1001
ACAD
1000
AcDbSavedByObjectVersion
1070
     0
  0
VISUALSTYLE
  5
1D9E
102
{ACAD_XDICTIONARY
360
3A53C
102
}
102
{ACAD_REACTORS
330
1D92
102
}
330
1D92
100
AcDbVisualStyle
  2
Brighten
 70
    12
177
     2
291
     1
 71
     2
176
     1
 72
     2
176
     1
 73
     0
176
     1
 90
        0
176
     1
 40
0.6
176
     1
 41
30.0
176
     1
 63
     7
176
     1
 74
     1
176
     1
 91
        4
176
     1
 64
     7
176
     1
 65
   257
176
     1
 75
     1
176
     1
175
     1
176
     1
 42
1.0
176
     1
 92
        8
176
     1
 66
     7
176
     1
 43
1.0
176
     1
 76
     1
176
     1
 77
     6
176
     1
 78
     2
176
     1
 67
     7
176
     1
 79
     5
176
     1
170
     0
176
     1
171
     0
176
     1
290
     0
176
     1
 93
        1
176
     1
 44
50.0
176
     1
173
     0
176
     1
1001
ACAD
1000
AcDbSavedByObjectVersion
1070
     0
  0
VISUALSTYLE
  5
1DA2
102
{ACAD_XDICTIONARY
360
3A544
102
}
102
{ACAD_REACTORS
330
1D92
102
}
330
1D92
100
AcDbVisualStyle
  2
ColorChange
 70
    16
177
     2
291
     1
 71
     2
176
     1
 72
     2
176
     1
 73
     3
176
     1
 90
        0
176
     1
 40
0.6
176
     1
 41
30.0
176
     1
 63
     8
176
     1
 74
     1
176
     1
 91
        4
176
     1
 64
     7
176
     1
 65
   257
176
     1
 75
     1
176
     1
175
     1
176
     1
 42
1.0
176
     1
 92
        8
176
     1
 66
     8
176
     1
 43
1.0
176
     1
 76
     1
176
     1
 77
     6
176
     1
 78
     2
176
     1
 67
     7
176
     1
 79
     5
176
     1
170
     0
176
     1
171
     0
176
     1
290
     0
176
     1
 93
        1
176
     1
 44
0.0
176
     1
173
     0
176
     1
1001
ACAD
1000
AcDbSavedByObjectVersion
1070
     0
  0
VISUALSTYLE
  5
1D9B
102
{ACAD_XDICTIONARY
360
3A536
102
}
102
{ACAD_REACTORS
330
1D92
102
}
330
1D92
100
AcDbVisualStyle
  2
Conceptual
 70
     9
177
     2
291
     0
 71
     3
176
     1
 72
     2
176
     1
 73
     0
176
     1
 90
        0
176
     1
 40
0.6
176
     1
 41
30.0
176
     1
 63
     7
176
     1
 74
     2
176
     1
 91
        2
176
     1
 64
     7
176
     1
 65
   257
176
     1
 75
     1
176
     1
175
     1
176
     1
 42
40.0
176
     1
 92
        8
176
     1
 66
     7
176
     1
 43
1.0
176
     1
 76
     1
176
     1
 77
     6
176
     1
 78
     2
176
     1
 67
     7
176
     1
 79
     3
176
     1
170
     0
176
     1
171
     0
176
     1
290
     0
176
     1
 93
        1
176
     1
 44
0.0
176
     1
173
     0
176
     1
1001
ACAD
1000
AcDbSavedByObjectVersion
1070
     0
  0
VISUALSTYLE
  5
1D9D
102
{ACAD_XDICTIONARY
360
3A53A
102
}
102
{ACAD_REACTORS
330
1D92
102
}
330
1D92
100
AcDbVisualStyle
  2
Dim
 70
    11
177
     2
291
     1
 71
     2
176
     1
 72
     2
176
     1
 73
     0
176
     1
 90
        0
176
     1
 40
0.6
176
     1
 41
30.0
176
     1
 63
     7
176
     1
 74
     1
176
     1
 91
        4
176
     1
 64
     7
176
     1
 65
   257
176
     1
 75
     1
176
     1
175
     1
176
     1
 42
1.0
176
     1
 92
        8
176
     1
 66
     7
176
     1
 43
1.0
176
     1
 76
     1
176
     1
 77
     6
176
     1
 78
     2
176
     1
 67
     7
176
     1
 79
     5
176
     1
170
     0
176
     1
171
     0
176
     1
290
     0
176
     1
 93
        1
176
     1
 44
-50.0
176
     1
173
     0
176
     1
1001
ACAD
1000
AcDbSavedByObjectVersion
1070
     0
  0
VISUALSTYLE
  5
58CB
102
{ACAD_XDICTIONARY
360
3A54A
102
}
102
{ACAD_REACTORS
330
1D92
102
}
330
1D92
100
AcDbVisualStyle
  2
EdgeColorOff
 70
    22
177
     2
291
     1
 71
     2
176
     0
 72
     2
176
     0
 73
     0
176
     0
 90
        0
176
     0
 40
0.6
176
     0
 41
30.0
176
     0
 63
     7
176
     0
 74
     1
176
     0
 91
        4
176
     0
 64
     7
176
     0
 65
   257
176
     0
 75
     1
176
     0
175
     1
176
     0
 42
1.0
176
     0
 92
        8
176
     2
 66
     7
176
     0
 43
1.0
176
     0
 76
     1
176
     0
 77
     6
176
     0
 78
     2
176
     0
 67
     7
176
     0
 79
     5
176
     0
170
     0
176
     0
171
     0
176
     0
290
     0
176
     0
 93
        1
176
     0
 44
0.0
176
     0
173
     0
176
     0
1001
ACAD
1000
AcDbSavedByObjectVersion
1070
     0
  0
VISUALSTYLE
  5
1DA1
102
{ACAD_XDICTIONARY
360
3A542
102
}
102
{ACAD_REACTORS
330
1D92
102
}
330
1D92
100
AcDbVisualStyle
  2
Facepattern
 70
    15
177
     2
291
     1
 71
     2
176
     1
 72
     2
176
     1
 73
     0
176
     1
 90
        0
176
     1
 40
0.6
176
     1
 41
30.0
176
     1
 63
     7
176
     1
 74
     1
176
     1
 91
        4
176
     1
 64
     7
176
     1
 65
   257
176
     1
 75
     1
176
     1
175
     1
176
     1
 42
1.0
176
     1
 92
        8
176
     1
 66
     7
176
     1
 43
1.0
176
     1
 76
     1
176
     1
 77
     6
176
     1
 78
     2
176
     1
 67
     7
176
     1
 79
     5
176
     1
170
     0
176
     1
171
     0
176
     1
290
     0
176
     1
 93
        1
176
     1
 44
0.0
176
     1
173
     0
176
     1
1001
ACAD
1000
AcDbSavedByObjectVersion
1070
     0
  0
VISUALSTYLE
  5
1D93
102
{ACAD_XDICTIONARY
360
3A526
102
}
102
{ACAD_REACTORS
330
1D92
102
}
330
1D92
100
AcDbVisualStyle
  2
Flat
 70
     0
177
     2
291
     1
 71
     2
176
     1
 72
     1
176
     1
 73
     1
176
     1
 90
        2
176
     1
 40
0.6
176
     1
 41
30.0
176
     1
 63
     7
176
     1
 74
     0
176
     1
 91
        4
176
     1
 64
     7
176
     1
 65
   257
176
     1
 75
     1
176
     1
175
     1
176
     1
 42
1.0
176
     1
 92
        8
176
     1
 66
     7
176
     1
 43
1.0
176
     1
 76
     1
176
     1
 77
     6
176
     1
 78
     2
176
     1
 67
     7
176
     1
 79
     5
176
     1
170
     0
176
     1
171
     0
176
     1
290
     0
176
     1
 93
       13
176
     1
 44
0.0
176
     1
173
     0
176
     1
1001
ACAD
1000
AcDbSavedByObjectVersion
1070
     0
  0
VISUALSTYLE
  5
1D94
102
{ACAD_XDICTIONARY
360
3A528
102
}
102
{ACAD_REACTORS
330
1D92
102
}
330
1D92
100
AcDbVisualStyle
  2
FlatWithEdges
 70
     1
177
     2
291
     1
 71
     2
176
     1
 72
     1
176
     1
 73
     1
176
     1
 90
        2
176
     1
 40
0.6
176
     1
 41
30.0
176
     1
 63
     7
176
     1
 74
     1
176
     1
 91
        4
176
     1
 64
     7
176
     1
 65
   257
176
     1
 75
     1
176
     1
175
     1
176
     1
 42
1.0
176
     1
 92
        0
176
     1
 66
   257
176
     1
 43
1.0
176
     1
 76
     1
176
     1
 77
     6
176
     1
 78
     2
176
     1
 67
     7
176
     1
 79
     5
176
     1
170
     0
176
     1
171
     0
176
     1
290
     0
176
     1
 93
       13
176
     1
 44
0.0
176
     1
173
     0
176
     1
1001
ACAD
1000
AcDbSavedByObjectVersion
1070
     0
  0
VISUALSTYLE
  5
1D95
102
{ACAD_XDICTIONARY
360
3A52A
102
}
102
{ACAD_REACTORS
330
1D92
102
}
330
1D92
100
AcDbVisualStyle
  2
Gouraud
 70
     2
177
     2
291
     1
 71
     2
176
     1
 72
     2
176
     1
 73
     1
176
     1
 90
        2
176
     1
 40
0.6
176
     1
 41
30.0
176
     1
 63
     7
176
     1
 74
     0
176
     1
 91
        4
176
     1
 64
     7
176
     1
 65
   257
176
     1
 75
     1
176
     1
175
     1
176
     1
 42
1.0
176
     1
 92
        0
176
     1
 66
     7
176
     1
 43
1.0
176
     1
 76
     1
176
     1
 77
     6
176
     1
 78
     2
176
     1
 67
     7
176
     1
 79
     5
176
     1
170
     0
176
     1
171
     0
176
     1
290
     0
176
     1
 93
       13
176
     1
 44
0.0
176
     1
173
     0
176
     1
1001
ACAD
1000
AcDbSavedByObjectVersion
1070
     0
  0
VISUALSTYLE
  5
1D96
102
{ACAD_XDICTIONARY
360
3A52C
102
}
102
{ACAD_REACTORS
330
1D92
102
}
330
1D92
100
AcDbVisualStyle
  2
GouraudWithEdges
 70
     3
177
     2
291
     1
 71
     2
176
     1
 72
     2
176
     1
 73
     1
176
     1
 90
        2
176
     1
 40
0.6
176
     1
 41
30.0
176
     1
 63
     7
176
     1
 74
     1
176
     1
 91
        4
176
     1
 64
     7
176
     1
 65
   257
176
     1
 75
     1
176
     1
175
     1
176
     1
 42
1.0
176
     1
 92
        0
176
     1
 66
   257
176
     1
 43
1.0
176
     1
 76
     1
176
     1
 77
     6
176
     1
 78
     2
176
     1
 67
     7
176
     1
 79
     5
176
     1
170
     0
176
     1
171
     0
176
     1
290
     0
176
     1
 93
       13
176
     1
 44
0.0
176
     1
173
     0
176
     1
1001
ACAD
1000
AcDbSavedByObjectVersion
1070
     0
  0
VISUALSTYLE
  5
A3B8
102
{ACAD_XDICTIONARY
360
3A54E
102
}
102
{ACAD_REACTORS
330
1D92
102
}
330
1D92
100
AcDbVisualStyle
  2
Hidden
 70
     6
177
     2
291
     0
 71
     1
176
     1
 72
     2
176
     1
 73
     2
176
     1
 90
        0
176
     1
 40
0.6
176
     1
 41
30.0
176
     1
 63
     7
176
     1
 74
     2
176
     1
 91
        2
176
     1
 64
     7
176
     1
 65
   257
176
     1
 75
     2
176
     1
175
     1
176
     1
 42
40.0
176
     1
 92
        0
176
     1
 66
   257
176
     1
 43
1.0
176
     1
 76
     1
176
     1
 77
     6
176
     1
 78
     2
176
     1
 67
     7
176
     1
 79
     3
176
     1
170
     0
176
     1
171
     0
176
     1
290
     0
176
     1
 93
        1
176
     1
 44
0.0
176
     1
173
     0
176
     1
1001
ACAD
1000
AcDbSavedByObjectVersion
1070
     0
  0
VISUALSTYLE
  5
58C9
102
{ACAD_XDICTIONARY
360
3A546
102
}
102
{ACAD_REACTORS
330
1D92
102
}
330
1D92
100
AcDbVisualStyle
  2
JitterOff
 70
    20
177
     2
291
     1
 71
     2
176
     0
 72
     2
176
     0
 73
     0
176
     0
 90
        0
176
     0
 40
0.6
176
     0
 41
30.0
176
     0
 63
     7
176
     0
 74
     1
176
     0
 91
        4
176
     0
 64
     7
176
     0
 65
   257
176
     0
 75
     1
176
     0
175
     1
176
     0
 42
1.0
176
     0
 92
       10
176
     2
 66
     7
176
     0
 43
1.0
176
     0
 76
     1
176
     0
 77
     6
176
     0
 78
     2
176
     0
 67
     7
176
     0
 79
     5
176
     0
170
     0
176
     0
171
     0
176
     0
290
     0
176
     0
 93
        1
176
     0
 44
0.0
176
     0
173
     0
176
     0
1001
ACAD
1000
AcDbSavedByObjectVersion
1070
     0
  0
VISUALSTYLE
  5
1DA0
102
{ACAD_XDICTIONARY
360
3A540
102
}
102
{ACAD_REACTORS
330
1D92
102
}
330
1D92
100
AcDbVisualStyle
  2
Linepattern
 70
    14
177
     2
291
     1
 71
     2
176
     1
 72
     2
176
     1
 73
     0
176
     1
 90
        0
176
     1
 40
0.6
176
     1
 41
30.0
176
     1
 63
     7
176
     1
 74
     1
176
     1
 91
        4
176
     1
 64
     7
176
     1
 65
   257
176
     1
 75
     7
176
     1
175
     7
176
     1
 42
1.0
176
     1
 92
        8
176
     1
 66
     7
176
     1
 43
1.0
176
     1
 76
     1
176
     1
 77
     6
176
     1
 78
     2
176
     1
 67
     7
176
     1
 79
     5
176
     1
170
     0
176
     1
171
     0
176
     1
290
     0
176
     1
 93
        1
176
     1
 44
0.0
176
     1
173
     0
176
     1
1001
ACAD
1000
AcDbSavedByObjectVersion
1070
     0
  0
VISUALSTYLE
  5
58CA
102
{ACAD_XDICTIONARY
360
3A548
102
}
102
{ACAD_REACTORS
330
1D92
102
}
330
1D92
100
AcDbVisualStyle
  2
OverhangOff
 70
    21
177
     2
291
     1
 71
     2
176
     0
 72
     2
176
     0
 73
     0
176
     0
 90
        0
176
     0
 40
0.6
176
     0
 41
30.0
176
     0
 63
     7
176
     0
 74
     1
176
     0
 91
        4
176
     0
 64
     7
176
     0
 65
   257
176
     0
 75
     1
176
     0
175
     1
176
     0
 42
1.0
176
     0
 92
        9
176
     2
 66
     7
176
     0
 43
1.0
176
     0
 76
     1
176
     0
 77
     6
176
     0
 78
     2
176
     0
 67
     7
176
     0
 79
     5
176
     0
170
     0
176
     0
171
     0
176
     0
290
     0
176
     0
 93
        1
176
     0
 44
0.0
176
     0
173
     0
176
     0
1001
ACAD
1000
AcDbSavedByObjectVersion
1070
     0
  0
VISUALSTYLE
  5
1D9C
102
{ACAD_XDICTIONARY
360
3A538
102
}
102
{ACAD_REACTORS
330
1D92
102
}
330
1D92
100
AcDbVisualStyle
  2
Realistic
 70
     8
177
     2
291
     0
 71
     2
176
     1
 72
     2
176
     1
 73
     0
176
     1
 90
        0
176
     1
 40
0.6
176
     1
 41
30.0
176
     1
 63
     7
176
     1
 74
     1
176
     1
 91
        0
176
     1
 64
     7
176
     1
 65
   257
176
     1
 75
     1
176
     1
175
     1
176
     1
 42
1.0
176
     1
 92
        8
176
     1
 66
     8
176
     1
 43
1.0
176
     1
 76
     1
176
     1
 77
     6
176
     1
 78
     2
176
     1
 67
     7
176
     1
 79
     5
176
     1
170
     0
176
     1
171
     0
176
     1
290
     0
176
     1
 93
       13
176
     1
 44
0.0
176
     1
173
     0
176
     1
1001
ACAD
1000
AcDbSavedByObjectVersion
1070
     0
  0
VISUALSTYLE
  5
A3BD
102
{ACAD_XDICTIONARY
360
3A558
102
}
102
{ACAD_REACTORS
330
1D92
102
}
330
1D92
100
AcDbVisualStyle
  2
Shaded
 70
    27
177
     2
291
     0
 71
     2
176
     1
 72
     2
176
     1
 73
     1
176
     1
 90
        2
176
     1
 40
0.6
176
     1
 41
30.0
176
     1
 63
     7
176
     1
 74
     0
176
     1
 91
        4
176
     1
 64
     7
176
     1
 65
   257
176
     1
 75
     1
176
     1
175
     1
176
     1
 42
1.0
176
     1
 92
        8
176
     1
 66
   257
176
     1
 43
1.0
176
     1
 76
     1
176
     1
 77
     6
176
     1
 78
     2
176
     1
 67
     8
176
     1
 79
     3
176
     1
170
     0
176
     1
171
     0
176
     1
290
     0
176
     1
 93
        5
176
     1
 44
0.0
176
     1
173
     0
176
     1
1001
ACAD
1000
AcDbSavedByObjectVersion
1070
     0
  0
VISUALSTYLE
  5
A3BC
102
{ACAD_XDICTIONARY
360
3A556
102
}
102
{ACAD_REACTORS
330
1D92
102
}
330
1D92
100
AcDbVisualStyle
  2
Shaded with edges
 70
    26
177
     2
291
     0
 71
     2
176
     1
 72
     2
176
     1
 73
     1
176
     1
 90
        2
176
     1
 40
0.6
176
     1
 41
30.0
176
     1
 63
     7
176
     1
 74
     1
176
     1
 91
       10
176
     1
 64
     7
176
     1
 65
   257
176
     1
 75
     2
176
     1
175
     1
176
     1
 42
1.0
176
     1
 92
        8
176
     1
 66
   257
176
     1
 43
1.0
176
     1
 76
     1
176
     1
 77
     6
176
     1
 78
     2
176
     1
 67
     7
176
     1
 79
     3
176
     1
170
     0
176
     1
171
     0
176
     1
290
     0
176
     1
 93
        5
176
     1
 44
0.0
176
     1
173
     0
176
     1
1001
ACAD
1000
AcDbSavedByObjectVersion
1070
     0
  0
VISUALSTYLE
  5
A3B9
102
{ACAD_XDICTIONARY
360
3A550
102
}
102
{ACAD_REACTORS
330
1D92
102
}
330
1D92
100
AcDbVisualStyle
  2
Shades of Gray
 70
    23
177
     2
291
     0
 71
     2
176
     1
 72
     2
176
     1
 73
     3
176
     1
 90
        0
176
     1
 40
0.6
176
     1
 41
30.0
176
     1
 63
     7
176
     1
 74
     2
176
     1
 91
        2
176
     1
 64
     7
176
     1
 65
     7
176
     1
 75
     1
176
     1
175
     1
176
     1
 42
40.0
176
     1
 92
        8
176
     1
 66
     7
176
     1
 43
1.0
176
     1
 76
     1
176
     1
 77
     6
176
     1
 78
     2
176
     1
 67
     7
176
     1
 79
     3
176
     1
170
     0
176
     1
171
     0
176
     1
290
     0
176
     1
 93
        1
176
     1
 44
0.0
176
     1
173
     0
176
     1
1001
ACAD
1000
AcDbSavedByObjectVersion
1070
     0
  0
VISUALSTYLE
  5
A3BA
102
{ACAD_XDICTIONARY
360
3A552
102
}
102
{ACAD_REACTORS
330
1D92
102
}
330
1D92
100
AcDbVisualStyle
  2
Sketchy
 70
    24
177
     2
291
     0
 71
     1
176
     1
 72
     2
176
     1
 73
     2
176
     1
 90
        0
176
     1
 40
0.6
176
     1
 41
30.0
176
     1
 63
     7
176
     1
 74
     2
176
     1
 91
        2
176
     1
 64
     7
176
     1
 65
     7
176
     1
 75
     1
176
     1
175
     1
176
     1
 42
40.0
176
     1
 92
       11
176
     1
 66
     7
176
     1
 43
1.0
176
     1
 76
     1
176
     1
 77
     6
176
     1
 78
     2
176
     1
 67
     7
176
     1
 79
     6
176
     1
170
     0
176
     1
171
     0
176
     1
290
     0
176
     1
 93
        1
176
     1
 44
0.0
176
     1
173
     0
176
     1
1001
ACAD
1000
AcDbSavedByObjectVersion
1070
     0
  0
VISUALSTYLE
  5
1D9F
102
{ACAD_XDICTIONARY
360
3A53E
102
}
102
{ACAD_REACTORS
330
1D92
102
}
330
1D92
100
AcDbVisualStyle
  2
Thicken
 70
    13
177
     2
291
     1
 71
     2
176
     1
 72
     2
176
     1
 73
     0
176
     1
 90
        0
176
     1
 40
0.6
176
     1
 41
30.0
176
     1
 63
     7
176
     1
 74
     1
176
     1
 91
        4
176
     1
 64
     7
176
     1
 65
   257
176
     1
 75
     1
176
     1
175
     1
176
     1
 42
1.0
176
     1
 92
       12
176
     1
 66
     7
176
     1
 43
1.0
176
     1
 76
     1
176
     1
 77
     6
176
     1
 78
     2
176
     1
 67
     7
176
     1
 79
     5
176
     1
170
     0
176
     1
171
     0
176
     1
290
     0
176
     1
 93
        1
176
     1
 44
0.0
176
     1
173
     0
176
     1
1001
ACAD
1000
AcDbSavedByObjectVersion
1070
     0
  0
VISUALSTYLE
  5
A3B7
102
{ACAD_XDICTIONARY
360
3A54C
102
}
102
{ACAD_REACTORS
330
1D92
102
}
330
1D92
100
AcDbVisualStyle
  2
Wireframe
 70
     5
177
     2
291
     0
 71
     0
176
     1
 72
     2
176
     1
 73
     0
176
     1
 90
        0
176
     1
 40
0.6
176
     1
 41
30.0
176
     1
 63
     7
176
     1
 74
     1
176
     1
 91
        4
176
     1
 64
     7
176
     1
 65
   257
176
     1
 75
     1
176
     1
175
     1
176
     1
 42
1.0
176
     1
 92
        0
176
     1
 66
   257
176
     1
 43
1.0
176
     1
 76
     1
176
     1
 77
     6
176
     1
 78
     2
176
     1
 67
     7
176
     1
 79
     3
176
     1
170
     0
176
     1
171
     0
176
     1
290
     0
176
     1
 93
        1
176
     1
 44
0.0
176
     1
173
     0
176
     1
1001
ACAD
1000
AcDbSavedByObjectVersion
1070
     0
  0
VISUALSTYLE
  5
A3BB
102
{ACAD_XDICTIONARY
360
3A554
102
}
102
{ACAD_REACTORS
330
1D92
102
}
330
1D92
100
AcDbVisualStyle
  2
X-Ray
 70
    25
177
     2
291
     0
 71
     2
176
     1
 72
     2
176
     1
 73
     1
176
     1
 90
        1
176
     1
 40
0.5
176
     1
 41
30.0
176
     1
 63
     7
176
     1
 74
     1
176
     1
 91
        0
176
     1
 64
     7
176
     1
 65
   257
176
     1
 75
     1
176
     1
175
     1
176
     1
 42
1.0
176
     1
 92
        8
176
     1
 66
     7
176
     1
 43
1.0
176
     1
 76
     1
176
     1
 77
     6
176
     1
 78
     2
176
     1
 67
     7
176
     1
 79
     3
176
     1
170
     0
176
     1
171
     0
176
     1
290
     0
176
     1
 93
       13
176
     1
 44
0.0
176
     1
173
     0
176
     1
1001
ACAD
1000
AcDbSavedByObjectVersion
1070
     0
  0
DICTIONARYVAR
  5
2569
102
{ACAD_REACTORS
330
4C
102
}
330
4C
100
DictionaryVariables
280
     0
  1
1:1
  0
DICTIONARYVAR
  5
2567
102
{ACAD_REACTORS
330
4C
102
}
330
4C
100
DictionaryVariables
280
     0
  1
STANDARD
  0
DICTIONARYVAR
  5
4D
102
{ACAD_REACTORS
330
4C
102
}
330
4C
100
DictionaryVariables
280
     0
  1
STANDARD
  0
DICTIONARYVAR
  5
31C1B
102
{ACAD_REACTORS
330
4C
102
}
330
4C
100
DictionaryVariables
280
     0
  1
DIN 6
  0
DICTIONARYVAR
  5
31C1C
102
{ACAD_REACTORS
330
4C
102
}
330
4C
100
DictionaryVariables
280
     0
  1
DIN ISO 128-40_2002-05
  0
DICTIONARYVAR
  5
83
102
{ACAD_REACTORS
330
4C
102
}
330
4C
100
DictionaryVariables
280
     0
  1
2
  0
DICTIONARYVAR
  5
82
102
{ACAD_REACTORS
330
4C
102
}
330
4C
100
DictionaryVariables
280
     0
  1
1
  0
DICTIONARYVAR
  5
597E
102
{ACAD_REACTORS
330
4C
102
}
330
4C
100
DictionaryVariables
280
     0
  1
0
  0
DICTIONARYVAR
  5
A45A
102
{ACAD_REACTORS
330
4C
102
}
330
4C
100
DictionaryVariables
280
     0
  1
1
  0
DICTIONARYVAR
  5
A45B
102
{ACAD_REACTORS
330
4C
102
}
330
4C
100
DictionaryVariables
280
     0
  1
15
  0
DICTIONARYVAR
  5
256A
102
{ACAD_REACTORS
330
4C
102
}
330
4C
100
DictionaryVariables
280
     0
  1
0
  0
DICTIONARYVAR
  5
597C
102
{ACAD_REACTORS
330
4C
102
}
330
4C
100
DictionaryVariables
280
     0
  1
1.000000
  0
DICTIONARYVAR
  5
2568
102
{ACAD_REACTORS
330
4C
102
}
330
4C
100
DictionaryVariables
280
     0
  1
0
  0
DICTIONARYVAR
  5
84
102
{ACAD_REACTORS
330
4C
102
}
330
4C
100
DictionaryVariables
280
     0
  1

  0
DICTIONARYVAR
  5
3300E
102
{ACAD_REACTORS
330
4C
102
}
330
4C
100
DictionaryVariables
280
     0
  1
0
  0
DICTIONARYVAR
  5
597D
102
{ACAD_REACTORS
330
4C
102
}
330
4C
100
DictionaryVariables
280
     0
  1
127
  0
DICTIONARY
  5
3A525
102
{ACAD_REACTORS
330
3A523
102
}
330
3A523
100
AcDbDictionary
281
     1
  0
DICTIONARY
  5
3A524
102
{ACAD_REACTORS
330
3A523
102
}
330
3A523
100
AcDbDictionary
281
     1
  3
8796086871008
350
3A51E
  3
8796086871024
350
3A51F
  3
8796086871040
350
3A520
  3
8796086871056
350
3A521
  3
8796086871072
350
3A522
  0
ACAD_PROXY_OBJECT
  5
3A12C
102
{ACAD_REACTORS
330
33348
102
}
330
33348
100
AcDbProxyObject
 90
      499
 91
      560
 95
  5308447
 70
     0
162
                 0
161
                84
310
90100057356C1DCD406AAC
 94
        0
  0
DICTIONARY
  5
3334F
102
{ACAD_REACTORS
330
33348
102
}
330
33348
100
AcDbDictionary
281
     1
  3
DIN
350
3A134
  0
ACAD_PROXY_OBJECT
  5
3A10F
330
0
100
AcDbProxyObject
 90
      499
 91
      541
 95
  5308447
 70
     0
162
               234
311
43904010C01340114014C016401340108013C0130014C01240168011400C
161
                34
310
000101420C
330
3A10C
 94
        0
  0
ACAD_PROXY_OBJECT
  5
3A11B
330
0
100
AcDbProxyObject
 90
      499
 91
      552
 95
  5308447
 70
     0
162
               196
311
421040134010C01540148014C015001100103440049004E00C
161
                32
310
0001010100
330
3A10C
 94
        0
  0
ACAD_PROXY_OBJECT
  5
3A11E
330
0
100
AcDbProxyObject
 90
      499
 91
      552
 95
  5308447
 70
     0
162
               276
311
431040104010C013C0134014001100118013801040134011401044B004F004D005000C
161
                32
310
0001010100
330
3A10C
 94
        0
  0
ACAD_PROXY_OBJECT
  5
3A11F
330
0
100
AcDbProxyObject
 90
      499
 91
      552
 95
  5308447
 70
     0
162
               340
311
4390401040118013C013001100114014801100118013801040134011401064F00720064006E0065007200C
161
                32
310
0001010100
330
3A10C
 94
        0
  0
ACAD_PROXY_OBJECT
  5
3A120
330
0
100
AcDbProxyObject
 90
      499
 91
      552
 95
  5308447
 70
     0
162
               260
311
431040104010401380138013C01100118013801040134011401035F0041005600C
161
                32
310
0001010100
330
3A10C
 94
        0
  0
ACAD_PROXY_OBJECT
  5
3A121
330
0
100
AcDbProxyObject
 90
      499
 91
      552
 95
  5308447
 70
     0
162
               772
311
439040104010C013C01340140015801240114015C01300124014C015001214F00620065006E000A0056006F0072006E000A005200650063006800740073000A004C0069006E006B0073000A0055006E00740065006E000A004100750078003100C
161
                32
310
0001010100
330
3A10C
 94
        0
  0
ACAD_PROXY_OBJECT
  5
3A122
330
0
100
AcDbProxyObject
 90
      499
 91
      541
 95
  5308447
 70
     0
162
               234
311
439040134014C014C0150014801040130015C01040164014C013C013800C
161
                26
310
0001018C
330
3A10C
 94
        0
  0
ACAD_PROXY_OBJECT
  5
3A127
330
0
100
AcDbProxyObject
 90
      499
 91
      555
 95
  5308447
 70
     0
162
                 0
161
                32
310
0001000000
330
3A10C
340
3A124
330
3A128
330
3A124
 94
        0
  0
ACAD_PROXY_OBJECT
  5
3A128
330
0
100
AcDbProxyObject
 90
      499
 91
      556
 95
  5308447
 70
     0
162
               394
311
4610C0104011000800158013C014801300104011C011400800114014C0118016801140124010C0120013801540138011C00C
161
                80
310
0001014140155005540000
330
3A10C
330
3A127
330
0
 94
        0
  0
ACAD_PROXY_OBJECT
  5
3A129
330
0
100
AcDbProxyObject
 90
      499
 91
      557
 95
  5308447
 70
     0
162
                 0
161
               178
310
000100AAAAAA8DE13844D3FFFB536B066BB22C464E0A8C
330
3A10C
330
3A128
 94
        0
  0
ACAD_PROXY_OBJECT
  5
3A12A
330
0
100
AcDbProxyObject
 90
      499
 91
      558
 95
  5308447
 70
     0
162
                 0
161
               108
310
000190140A000000000000AAAAAC
330
3A10C
330
3A12B
330
3A12B
330
3A12B
330
3A12B
330
3A12B
330
0
 94
        0
  0
ACAD_PROXY_OBJECT
  5
3A12B
330
0
100
AcDbProxyObject
 90
      499
 91
      559
 95
  5308447
 70
     0
162
                 0
161
                51
310
00010000AAAA8C
330
3A10C
330
3A12A
330
3A128
 94
        0
  0
DICTIONARY
  5
3A108
102
{ACAD_REACTORS
330
3331C
102
}
330
3331C
100
AcDbDictionary
281
     1
  3
DWGSETTINGS
350
3A109
  3
TRANSSETTINGS
350
3A10A
  0
ACAD_PROXY_OBJECT
  5
3A146
102
{ACAD_REACTORS
330
3331C
102
}
330
3331C
100
AcDbProxyObject
 90
      499
 91
      582
 95
  5308447
 70
     0
162
             15940
311
404C0010441004D005F0030009013100411040134017C00C402404C8010441004D005F0032009013300411040134017C00CC02404D0010441004D005F0034009013500411040134017C00D402404D8010441004D005F0036009013700411040134017C00DC02404E0010441004D005F0038009013900411040134017C00E40
311
2408C80104010541004D005F003100300090234004100415040134017C00C400C402409240140010541004D005F003100320090230004E00415040134017C00C0013802408C40138010541004D005F0031004E0090232004E00415040134017C00C8013802408CC0138010541004D005F0033004E0090234004E0041504013
311
4017C00D0013802408D40138010541004D005F0035004E0090236004E00415040134017C00D8013802408DC0138010541004D005F0037004E0090238004E00415040134017C00E0013802408E40138010541004D005F0039004E00903320041004E00419040134017C00C400C001380240CD001040138010641004D005F003
311
10031004E00903490050004E00419040134017C00C400C80138024112C013001240138010541004D005F0043004C0090449004E0046004F00421040134017C01400104014801140118024154801040120013400D4010641004D005F0042004F0052009045600490045005700421040134017C015801240114015C014C02419
311
0801140120012401380110010641004D005F0049004E00560090554005200410049004C00415040134017C015001480240D2001240110010641004D005F00480049004400903560049005300419040134017C01580124014C024194001040148011001240134010941004D005F00500041005200440049004D009065200450
311
04600440049004D00425040134017C01480114011801100124013402411080120013801580101390041508012001380158014C010642004500480049004E00440041108013C014800C801055200410048004D00350041108013C014800CC01055200410048004D00350041108013C014800D401055200410048004D0035004
311
110C0104013000C8010134004110C0104013000CC010134004110C0104013000D4010134004110C0104013000DC010134004110C011401380138010137004110C01140138015C010137004110C01300124013801044B004C0049004E004110C013C013800C4010130004110C013C013800C8010131004110C013C013800CC0
311
10132004110C013C013800D00101320041110011401500104010134004111001240104011C010135004111001240130012401013500411100124013401400106500041005200440049004D00411100124013401480106520045004600440049004D00411180114013401380101380041518011401340140013801013800415
311
1801140134014C01400102340041004151801140134014C015001023400410041518011401340158013801013200415180114013401580150010132004112001040150010C0101380041120012401100138010133004112001240110015C01013300411200130012401380101340041120013C010C01380101370041120013
311
C010C015C010137004112401380118013C010449004E0046004F00411300114010401100101350041938017C0108012001380158010239004E0041938017C010C013C013800C4010230004E0041938017C010C013C013800C8010231004E0041938017C010C013C013800CC010232004E0041938017C010C013C013800D001
311
0232004E0041938017C010C011401380138010237004E0041938017C010C01140138015C010237004E0041938017C0110012401300124010235004E0041938017C012001040150010C010238004E0041938017C0120012401100138010233004E0041938017C012001240110015C010233004E0041938017C0130011401040
311
110010235004E0041938017C0138011C012401400103490050004E0041938017C01400120010401380103340041004E0041938017C0150010C013C0138010230004E0041938017C0150012001300124010234004E0041938017C0150013001140138010230004E0041938017C01580140013001240103320041004E0041138
311
011C01240140010249005000411400104013000C801055200410048004D003500411400104013000CC01055200410048004D003500411400104013000D401055200410048004D0035004114001200104013801023400410041140013C014C01380101350041148010C011C01380101370041148010C011C015C01013700411
311
4C01080148012C010134004114C0114010C0150010134004114C0164010800CC0101350041134014C016401340101350041150010C013C0138010130004115001200130012401013400411500124015000C801055200410048004D003500411500124015000CC01055200410048004D003500411500124015000D401055200
311
410048004D0035004115001300114013801013000415500148010401240130010554005200410049004C004115001480130012401013400411500160015000C401013600411500160015000C801013600411500160015000CC01013600411500160015000D401013600411500160015000DC010136004115801240114015C0
311
10456004900450057004115801140110012001034800490044004115801140110015801035600490053004115801400130012401023200410041168012401680104010134004114C014001300124010232004100404FC02C
161
              8972
310
4250449201C00030C013244203800030C013244201400030C013244201800030C0119A00C00030C0119A00C00030C0119A00800030C0123A01000030C0119A00400030C0119A3F400030C0241201C00030C0132A00C00030C0119A01C00030C013240A01C00030C0132A03800030C0132A01400030C0132A01800030C0119A
310
00C00030C0119A00C00030C0119A00800030C0123A01000030C0119A00400030C0119A3F400030C0241201C00030C0132A00C00030C0119A01C00030C013240A00400030C011942601000030C011942E01C00030C013242600400030C011942E3F400030C0243600C00030C011942601C00030C011942601C00030C0132426
310
00C00030C011942601000030C0119425548000000C0003FFFFFFFE8000000C0003FFFFFFFE8010000C3004668020000C30048E8000000C0003FFFFFFFE8000000C0003FFFFFFFE8020000C30048E8070000C3004CA81E0000C30051A8000000C0003FFFFFFFE8000000C0003FFFFFFFE8000000C0003FFFFFFFE8000000C00
310
03FFFFFFFD038000000C0003FFFFFFFD038000000C0003FFFFFFFD038000000C0003FFFFFFFD038030000C3004668000000C0003FFFFFFFE8000000C0003FFFFFFFE8000000C0003FFFFFFFE8000000C0003FFFFFFFE8000000C0003FFFFFFFE8030000C3003FFFFFFFE8000000C0003FFFFFFFE8030000C3004668000000C
310
0003FFFFFFFE8030000C3004668000000C0003FFFFFFFD018000000C0003FFFFFFFD038000000C0003FFFFFFFD038000000C0003FFFFFFFD018000000C0003FFFFFFFE8000000C0003FFFFFFFE8000000C0003FFFFFFFE8000000C0003FFFFFFFE8000000C0003FFFFFFFE8000000C0003FFFFFFFD038000000C0003FFFFFF
310
FD038000000C0003FFFFFFFD038000000C0003FFFFFFFD038000000C0003FFFFFFFE8000000C0003FFFFFFFE8000000C0003FFFFFFFE8000000C0003FFFFFFFD018000000C0003FFFFFFFD038000000C0003FFFFFFFD038000000C0003FFFFFFFE8000000C0003FFFFFFFE8000000C0003FFFFFFFE8000000C0003FFFFFFFD
310
038000000C0003FFFFFFFD018000000C0003FFFFFFFD038000000C0003FFFFFFFE8000000C0003FFFFFFFE8010000C3003FFFFFFFE8020000C3003FFFFFFFE8070000C3003FFFFFFFE8000000C0003FFFFFFFE8000000C0003FFFFFFFE8000000C0003FFFFFFFE8000000C0003FFFFFFFE8000000C0003FFFFFFFD01800000
310
0C0003FFFFFFFD018020000C30048E8020000C3003FFFFFFFE8000000C0003FFFFFFFD038000000C0003FFFFFFFD018010000C3004668020000C30048E8000000C0003FFFFFFFE8000000C0003FFFFFFFD038000000C0003FFFFFFFE8000000C0003FFFFFFFD018030000C3004668030000C3004668000000C0003FFFFFFFE
310
8070000C3004CA81E0000C30051A8000000C0003FFFFFFFE8000000C0003FFFFFFFD028000000C0003FFFFFFFD028070000C3004CA8000000C0003FFFFFFFD018010000C3004CAAAA3F400030C010A4393241532409234794641D3241119405197F64191940D1980200C
340
16
340
16
340
16
340
38204
340
16
340
16
340
16
340
38205
340
16
340
16
340
38205
340
38206
340
16
340
16
340
16
340
16
340
38204
340
16
340
16
340
16
340
38205
340
16
340
16
340
38205
340
38206
340
16
340
38200
340
16
340
16
340
16
340
16
340
16
340
38204
340
16
340
16
340
16
340
15
340
15
340
15
340
15
340
15
340
15
340
15
340
15
340
15
340
38207
340
15
340
15
340
15
340
15
340
15
340
15
340
16
340
15
340
15
340
15
340
15
340
15
340
15
340
16
340
15
340
15
340
15
340
15
340
38208
340
15
340
15
340
38207
340
15
340
15
340
15
340
15
340
15
340
15
340
15
340
15
340
38207
340
15
340
15
340
15
340
38208
340
15
340
15
340
15
340
15
340
15
340
15
340
15
340
15
340
15
340
16
340
16
340
16
340
15
340
15
340
38207
340
15
340
15
340
15
340
15
340
15
340
15
340
15
340
15
340
15
340
15
340
15
340
15
340
15
340
15
340
15
340
15
340
15
340
15
340
15
340
15
340
15
340
38205
340
38203
340
38205
 94
        0
  0
TABLECONTENT
  5
37DD5
330
3A51C
100
AcDbLinkedData
  1

300

100
AcDbLinkedTableData
 90
        6
300
COLUMN
  1
LINKEDTABLEDATACOLUMN_BEGIN
300

 91
        0
301
CUSTOMDATA
  1
DATAMAP_BEGIN
 90
        0
309
DATAMAP_END
309
LINKEDTABLEDATACOLUMN_END
  1
FORMATTEDTABLEDATACOLUMN_BEGIN
300
COLUMNTABLEFORMAT
  1
TABLEFORMAT_BEGIN
 90
        3
170
     0
309
TABLEFORMAT_END
309
FORMATTEDTABLEDATACOLUMN_END
  1
TABLECOLUMN_BEGIN
 90
        0
 40
11.28527677830743
309
TABLECOLUMN_END
300
COLUMN
  1
LINKEDTABLEDATACOLUMN_BEGIN
300

 91
        0
301
CUSTOMDATA
  1
DATAMAP_BEGIN
 90
        0
309
DATAMAP_END
309
LINKEDTABLEDATACOLUMN_END
  1
FORMATTEDTABLEDATACOLUMN_BEGIN
300
COLUMNTABLEFORMAT
  1
TABLEFORMAT_BEGIN
 90
        3
170
     0
309
TABLEFORMAT_END
309
FORMATTEDTABLEDATACOLUMN_END
  1
TABLECOLUMN_BEGIN
 90
        0
 40
47.77643373493219
309
TABLECOLUMN_END
300
COLUMN
  1
LINKEDTABLEDATACOLUMN_BEGIN
300

 91
        0
301
CUSTOMDATA
  1
DATAMAP_BEGIN
 90
        0
309
DATAMAP_END
309
LINKEDTABLEDATACOLUMN_END
  1
FORMATTEDTABLEDATACOLUMN_BEGIN
300
COLUMNTABLEFORMAT
  1
TABLEFORMAT_BEGIN
 90
        3
170
     0
309
TABLEFORMAT_END
309
FORMATTEDTABLEDATACOLUMN_END
  1
TABLECOLUMN_BEGIN
 90
        0
 40
22.51466512265324
309
TABLECOLUMN_END
300
COLUMN
  1
LINKEDTABLEDATACOLUMN_BEGIN
300

 91
        0
301
CUSTOMDATA
  1
DATAMAP_BEGIN
 90
        0
309
DATAMAP_END
309
LINKEDTABLEDATACOLUMN_END
  1
FORMATTEDTABLEDATACOLUMN_BEGIN
300
COLUMNTABLEFORMAT
  1
TABLEFORMAT_BEGIN
 90
        3
170
     0
309
TABLEFORMAT_END
309
FORMATTEDTABLEDATACOLUMN_END
  1
TABLECOLUMN_BEGIN
 90
        0
 40
19.87164107934268
309
TABLECOLUMN_END
300
COLUMN
  1
LINKEDTABLEDATACOLUMN_BEGIN
300

 91
        0
301
CUSTOMDATA
  1
DATAMAP_BEGIN
 90
        0
309
DATAMAP_END
309
LINKEDTABLEDATACOLUMN_END
  1
FORMATTEDTABLEDATACOLUMN_BEGIN
300
COLUMNTABLEFORMAT
  1
TABLEFORMAT_BEGIN
 90
        3
170
     0
309
TABLEFORMAT_END
309
FORMATTEDTABLEDATACOLUMN_END
  1
TABLECOLUMN_BEGIN
 90
        0
 40
15.38297823709718
309
TABLECOLUMN_END
300
COLUMN
  1
LINKEDTABLEDATACOLUMN_BEGIN
300

 91
        0
301
CUSTOMDATA
  1
DATAMAP_BEGIN
 90
        0
309
DATAMAP_END
309
LINKEDTABLEDATACOLUMN_END
  1
FORMATTEDTABLEDATACOLUMN_BEGIN
300
COLUMNTABLEFORMAT
  1
TABLEFORMAT_BEGIN
 90
        3
170
     0
309
TABLEFORMAT_END
309
FORMATTEDTABLEDATACOLUMN_END
  1
TABLECOLUMN_BEGIN
 90
        0
 40
14.08186599304378
309
TABLECOLUMN_END
 91
        2
301
ROW
  1
LINKEDTABLEDATAROW_BEGIN
 90
        6
300
CELL
  1
LINKEDTABLEDATACELL_BEGIN
 90
        0
300

 91
        0
301
CUSTOMDATA
  1
DATAMAP_BEGIN
 90
        1
300
ACAD_ROUNDTRIP_2008_CELL_CHECKSUM
301
DATAMAP_VALUE
 93
        2
 90
        2
140
831.0
 94
        0
300

302

304
ACVALUE_END
309
DATAMAP_END
 92
        0
 95
        1
302
CONTENT
  1
CELLCONTENT_BEGIN
 90
        1
300
VALUE
 93
        4
 90
        4
  1
Pos.
 94
        0
300

302
Pos.
304
ACVALUE_END
 91
        0
309
CELLCONTENT_END
  1
FORMATTEDCELLCONTENT_BEGIN
170
     1
300
CONTENTFORMAT
  1
CONTENTFORMAT_BEGIN
 90
      128
 91
        0
 92
        4
 93
        0
300

 40
0.0
140
1.0
 94
        1
 62
     0
340
11
144
2.5
309
CONTENTFORMAT_END
309
FORMATTEDCELLCONTENT_END
309
LINKEDTABLEDATACELL_END
  1
FORMATTEDTABLEDATACELL_BEGIN
300
CELLTABLEFORMAT
  1
TABLEFORMAT_BEGIN
 90
        1
170
     1
 91
        0
 92
        0
 62
   257
 93
        1
300
CONTENTFORMAT
  1
CONTENTFORMAT_BEGIN
 90
        0
 91
        0
 92
      512
 93
        0
300

 40
0.0
140
1.0
 94
        5
 62
     0
340
0
144
0.18
309
CONTENTFORMAT_END
171
     0
 94
        0
309
TABLEFORMAT_END
309
FORMATTEDTABLEDATACELL_END
  1
TABLECELL_BEGIN
 90
        0
 91
        0
309
TABLECELL_END
300
CELL
  1
LINKEDTABLEDATACELL_BEGIN
 90
        0
300

 91
        0
301
CUSTOMDATA
  1
DATAMAP_BEGIN
 90
        1
300
ACAD_ROUNDTRIP_2008_CELL_CHECKSUM
301
DATAMAP_VALUE
 93
        2
 90
        2
140
7051.0
 94
        0
300

302

304
ACVALUE_END
309
DATAMAP_END
 92
        0
 95
        1
302
CONTENT
  1
CELLCONTENT_BEGIN
 90
        1
300
VALUE
 93
        4
 90
        4
  1
Bezeichnung
 94
        0
300

302
Bezeichnung
304
ACVALUE_END
 91
        0
309
CELLCONTENT_END
  1
FORMATTEDCELLCONTENT_BEGIN
170
     1
300
CONTENTFORMAT
  1
CONTENTFORMAT_BEGIN
 90
      128
 91
        0
 92
        4
 93
        0
300

 40
0.0
140
1.0
 94
        1
 62
     0
340
11
144
2.5
309
CONTENTFORMAT_END
309
FORMATTEDCELLCONTENT_END
309
LINKEDTABLEDATACELL_END
  1
FORMATTEDTABLEDATACELL_BEGIN
300
CELLTABLEFORMAT
  1
TABLEFORMAT_BEGIN
 90
        1
170
     1
 91
        0
 92
        0
 62
   257
 93
        1
300
CONTENTFORMAT
  1
CONTENTFORMAT_BEGIN
 90
        0
 91
        0
 92
      512
 93
        0
300

 40
0.0
140
1.0
 94
        5
 62
     0
340
0
144
0.18
309
CONTENTFORMAT_END
171
     0
 94
        0
309
TABLEFORMAT_END
309
FORMATTEDTABLEDATACELL_END
  1
TABLECELL_BEGIN
 90
        0
 91
        0
309
TABLECELL_END
300
CELL
  1
LINKEDTABLEDATACELL_BEGIN
 90
        0
300

 91
        0
301
CUSTOMDATA
  1
DATAMAP_BEGIN
 90
        1
300
ACAD_ROUNDTRIP_2008_CELL_CHECKSUM
301
DATAMAP_VALUE
 93
        2
 90
        2
140
4862.0
 94
        0
300

302

304
ACVALUE_END
309
DATAMAP_END
 92
        0
 95
        1
302
CONTENT
  1
CELLCONTENT_BEGIN
 90
        1
300
VALUE
 93
        4
 90
        4
  1
Dimension
 94
        0
300

302
Dimension
304
ACVALUE_END
 91
        0
309
CELLCONTENT_END
  1
FORMATTEDCELLCONTENT_BEGIN
170
     1
300
CONTENTFORMAT
  1
CONTENTFORMAT_BEGIN
 90
      128
 91
        0
 92
        4
 93
        0
300

 40
0.0
140
1.0
 94
        1
 62
     0
340
11
144
2.5
309
CONTENTFORMAT_END
309
FORMATTEDCELLCONTENT_END
309
LINKEDTABLEDATACELL_END
  1
FORMATTEDTABLEDATACELL_BEGIN
300
CELLTABLEFORMAT
  1
TABLEFORMAT_BEGIN
 90
        1
170
     1
 91
        0
 92
        0
 62
   257
 93
        1
300
CONTENTFORMAT
  1
CONTENTFORMAT_BEGIN
 90
        0
 91
        0
 92
      512
 93
        0
300

 40
0.0
140
1.0
 94
        5
 62
     0
340
0
144
0.18
309
CONTENTFORMAT_END
171
     0
 94
        0
309
TABLEFORMAT_END
309
FORMATTEDTABLEDATACELL_END
  1
TABLECELL_BEGIN
 90
        0
 91
        0
309
TABLECELL_END
300
CELL
  1
LINKEDTABLEDATACELL_BEGIN
 90
        0
300

 91
        0
301
CUSTOMDATA
  1
DATAMAP_BEGIN
 90
        1
300
ACAD_ROUNDTRIP_2008_CELL_CHECKSUM
301
DATAMAP_VALUE
 93
        2
 90
        2
140
1779.0
 94
        0
300

302

304
ACVALUE_END
309
DATAMAP_END
 92
        0
 95
        1
302
CONTENT
  1
CELLCONTENT_BEGIN
 90
        1
300
VALUE
 93
        4
 90
        4
  1
Länge
 94
        0
300

302
Länge
304
ACVALUE_END
 91
        0
309
CELLCONTENT_END
  1
FORMATTEDCELLCONTENT_BEGIN
170
     1
300
CONTENTFORMAT
  1
CONTENTFORMAT_BEGIN
 90
      128
 91
        0
 92
        4
 93
        0
300

 40
0.0
140
1.0
 94
        1
 62
     0
340
11
144
2.5
309
CONTENTFORMAT_END
309
FORMATTEDCELLCONTENT_END
309
LINKEDTABLEDATACELL_END
  1
FORMATTEDTABLEDATACELL_BEGIN
300
CELLTABLEFORMAT
  1
TABLEFORMAT_BEGIN
 90
        1
170
     1
 91
        0
 92
        0
 62
   257
 93
        1
300
CONTENTFORMAT
  1
CONTENTFORMAT_BEGIN
 90
        0
 91
        0
 92
      512
 93
        0
300

 40
0.0
140
1.0
 94
        5
 62
     0
340
0
144
0.18
309
CONTENTFORMAT_END
171
     0
 94
        0
309
TABLEFORMAT_END
309
FORMATTEDTABLEDATACELL_END
  1
TABLECELL_BEGIN
 90
        0
 91
        0
309
TABLECELL_END
300
CELL
  1
LINKEDTABLEDATACELL_BEGIN
 90
        0
300

 91
        0
301
CUSTOMDATA
  1
DATAMAP_BEGIN
 90
        1
300
ACAD_ROUNDTRIP_2008_CELL_CHECKSUM
301
DATAMAP_VALUE
 93
        2
 90
        2
140
1515.0
 94
        0
300

302

304
ACVALUE_END
309
DATAMAP_END
 92
        0
 95
        1
302
CONTENT
  1
CELLCONTENT_BEGIN
 90
        1
300
VALUE
 93
        4
 90
        4
  1
EK.Nr.
 94
        0
300

302
EK.Nr.
304
ACVALUE_END
 91
        0
309
CELLCONTENT_END
  1
FORMATTEDCELLCONTENT_BEGIN
170
     1
300
CONTENTFORMAT
  1
CONTENTFORMAT_BEGIN
 90
      128
 91
        0
 92
        4
 93
        0
300

 40
0.0
140
1.0
 94
        1
 62
     0
340
11
144
2.5
309
CONTENTFORMAT_END
309
FORMATTEDCELLCONTENT_END
309
LINKEDTABLEDATACELL_END
  1
FORMATTEDTABLEDATACELL_BEGIN
300
CELLTABLEFORMAT
  1
TABLEFORMAT_BEGIN
 90
        1
170
     1
 91
        0
 92
        0
 62
   257
 93
        1
300
CONTENTFORMAT
  1
CONTENTFORMAT_BEGIN
 90
        0
 91
        0
 92
      512
 93
        0
300

 40
0.0
140
1.0
 94
        5
 62
     0
340
0
144
0.18
309
CONTENTFORMAT_END
171
     0
 94
        0
309
TABLEFORMAT_END
309
FORMATTEDTABLEDATACELL_END
  1
TABLECELL_BEGIN
 90
        0
 91
        0
309
TABLECELL_END
300
CELL
  1
LINKEDTABLEDATACELL_BEGIN
 90
        0
300

 91
        0
301
CUSTOMDATA
  1
DATAMAP_BEGIN
 90
        1
300
ACAD_ROUNDTRIP_2008_CELL_CHECKSUM
301
DATAMAP_VALUE
 93
        2
 90
        2
140
2207.0
 94
        0
300

302

304
ACVALUE_END
309
DATAMAP_END
 92
        0
 95
        1
302
CONTENT
  1
CELLCONTENT_BEGIN
 90
        1
300
VALUE
 93
        4
 90
        4
  1
Anzahl
 94
        0
300

302
Anzahl
304
ACVALUE_END
 91
        0
309
CELLCONTENT_END
  1
FORMATTEDCELLCONTENT_BEGIN
170
     1
300
CONTENTFORMAT
  1
CONTENTFORMAT_BEGIN
 90
      128
 91
        0
 92
        4
 93
        0
300

 40
0.0
140
1.0
 94
        1
 62
     0
340
11
144
2.5
309
CONTENTFORMAT_END
309
FORMATTEDCELLCONTENT_END
309
LINKEDTABLEDATACELL_END
  1
FORMATTEDTABLEDATACELL_BEGIN
300
CELLTABLEFORMAT
  1
TABLEFORMAT_BEGIN
 90
        1
170
     1
 91
        0
 92
        0
 62
   257
 93
        1
300
CONTENTFORMAT
  1
CONTENTFORMAT_BEGIN
 90
        0
 91
        0
 92
      512
 93
        0
300

 40
0.0
140
1.0
 94
        5
 62
     0
340
0
144
0.18
309
CONTENTFORMAT_END
171
     0
 94
        0
309
TABLEFORMAT_END
309
FORMATTEDTABLEDATACELL_END
  1
TABLECELL_BEGIN
 90
        0
 91
        0
309
TABLECELL_END
 91
        0
301
CUSTOMDATA
  1
DATAMAP_BEGIN
 90
        0
309
DATAMAP_END
309
LINKEDTABLEDATAROW_END
  1
FORMATTEDTABLEDATAROW_BEGIN
300
ROWTABLEFORMAT
  1
TABLEFORMAT_BEGIN
 90
        2
170
     0
309
TABLEFORMAT_END
309
FORMATTEDTABLEDATAROW_END
  1
TABLEROW_BEGIN
 90
        2
 40
6.333333333333333
309
TABLEROW_END
301
ROW
  1
LINKEDTABLEDATAROW_BEGIN
 90
        6
300
CELL
  1
LINKEDTABLEDATACELL_BEGIN
 90
        0
300

 91
        0
301
CUSTOMDATA
  1
DATAMAP_BEGIN
 90
        1
300
ACAD_ROUNDTRIP_2008_CELL_CHECKSUM
301
DATAMAP_VALUE
 93
        2
 90
        2
140
49.0
 94
        0
300

302

304
ACVALUE_END
309
DATAMAP_END
 92
        0
 95
        1
302
CONTENT
  1
CELLCONTENT_BEGIN
 90
        1
300
VALUE
 93
        6
 90
        4
  1
1
 94
        0
300

302
1
304
ACVALUE_END
 91
        0
309
CELLCONTENT_END
  1
FORMATTEDCELLCONTENT_BEGIN
170
     1
300
CONTENTFORMAT
  1
CONTENTFORMAT_BEGIN
 90
      128
 91
        0
 92
        4
 93
        0
300

 40
0.0
140
1.0
 94
        1
 62
     0
340
11
144
2.5
309
CONTENTFORMAT_END
309
FORMATTEDCELLCONTENT_END
309
LINKEDTABLEDATACELL_END
  1
FORMATTEDTABLEDATACELL_BEGIN
300
CELLTABLEFORMAT
  1
TABLEFORMAT_BEGIN
 90
        1
170
     1
 91
       16
 92
        0
 62
   257
 93
        1
300
CONTENTFORMAT
  1
CONTENTFORMAT_BEGIN
 90
        0
 91
        0
 92
      512
 93
        0
300

 40
0.0
140
1.0
 94
        5
 62
     0
340
0
144
0.18
309
CONTENTFORMAT_END
171
     0
 94
        0
309
TABLEFORMAT_END
309
FORMATTEDTABLEDATACELL_END
  1
TABLECELL_BEGIN
 90
        0
 91
        0
309
TABLECELL_END
300
CELL
  1
LINKEDTABLEDATACELL_BEGIN
 90
        0
300

 91
        0
301
CUSTOMDATA
  1
DATAMAP_BEGIN
 90
        1
300
ACAD_ROUNDTRIP_2008_CELL_CHECKSUM
301
DATAMAP_VALUE
 93
        2
 90
        2
140
0.0
 94
        0
300

302

304
ACVALUE_END
309
DATAMAP_END
 92
        0
 95
        0
309
LINKEDTABLEDATACELL_END
  1
FORMATTEDTABLEDATACELL_BEGIN
300
CELLTABLEFORMAT
  1
TABLEFORMAT_BEGIN
 90
        1
170
     1
 91
       16
 92
        0
 62
   257
 93
        1
300
CONTENTFORMAT
  1
CONTENTFORMAT_BEGIN
 90
        0
 91
        0
 92
      512
 93
        0
300

 40
0.0
140
1.0
 94
        5
 62
     0
340
0
144
0.18
309
CONTENTFORMAT_END
171
     0
 94
        0
309
TABLEFORMAT_END
309
FORMATTEDTABLEDATACELL_END
  1
TABLECELL_BEGIN
 90
        0
 91
        0
309
TABLECELL_END
300
CELL
  1
LINKEDTABLEDATACELL_BEGIN
 90
        0
300

 91
        0
301
CUSTOMDATA
  1
DATAMAP_BEGIN
 90
        1
300
ACAD_ROUNDTRIP_2008_CELL_CHECKSUM
301
DATAMAP_VALUE
 93
        2
 90
        2
140
0.0
 94
        0
300

302

304
ACVALUE_END
309
DATAMAP_END
 92
        0
 95
        0
309
LINKEDTABLEDATACELL_END
  1
FORMATTEDTABLEDATACELL_BEGIN
300
CELLTABLEFORMAT
  1
TABLEFORMAT_BEGIN
 90
        1
170
     1
 91
       16
 92
        0
 62
   257
 93
        1
300
CONTENTFORMAT
  1
CONTENTFORMAT_BEGIN
 90
        0
 91
        0
 92
      512
 93
        0
300

 40
0.0
140
1.0
 94
        5
 62
     0
340
0
144
0.18
309
CONTENTFORMAT_END
171
     0
 94
        0
309
TABLEFORMAT_END
309
FORMATTEDTABLEDATACELL_END
  1
TABLECELL_BEGIN
 90
        0
 91
        0
309
TABLECELL_END
300
CELL
  1
LINKEDTABLEDATACELL_BEGIN
 90
        0
300

 91
        0
301
CUSTOMDATA
  1
DATAMAP_BEGIN
 90
        1
300
ACAD_ROUNDTRIP_2008_CELL_CHECKSUM
301
DATAMAP_VALUE
 93
        2
 90
        2
140
0.0
 94
        0
300

302

304
ACVALUE_END
309
DATAMAP_END
 92
        0
 95
        0
309
LINKEDTABLEDATACELL_END
  1
FORMATTEDTABLEDATACELL_BEGIN
300
CELLTABLEFORMAT
  1
TABLEFORMAT_BEGIN
 90
        1
170
     1
 91
       16
 92
        0
 62
   257
 93
        1
300
CONTENTFORMAT
  1
CONTENTFORMAT_BEGIN
 90
        0
 91
        0
 92
      512
 93
        0
300

 40
0.0
140
1.0
 94
        5
 62
     0
340
0
144
0.18
309
CONTENTFORMAT_END
171
     0
 94
        0
309
TABLEFORMAT_END
309
FORMATTEDTABLEDATACELL_END
  1
TABLECELL_BEGIN
 90
        0
 91
        0
309
TABLECELL_END
300
CELL
  1
LINKEDTABLEDATACELL_BEGIN
 90
        0
300

 91
        0
301
CUSTOMDATA
  1
DATAMAP_BEGIN
 90
        1
300
ACAD_ROUNDTRIP_2008_CELL_CHECKSUM
301
DATAMAP_VALUE
 93
        2
 90
        2
140
0.0
 94
        0
300

302

304
ACVALUE_END
309
DATAMAP_END
 92
        0
 95
        1
302
CONTENT
  1
CELLCONTENT_BEGIN
 90
        1
300
VALUE
 93
        4
 90
        0
 91
        0
 94
        0
300

302

304
ACVALUE_END
 91
        0
309
CELLCONTENT_END
  1
FORMATTEDCELLCONTENT_BEGIN
170
     1
300
CONTENTFORMAT
  1
CONTENTFORMAT_BEGIN
 90
      128
 91
        0
 92
      512
 93
        0
300

 40
0.0
140
1.0
 94
        1
 62
     0
340
0
144
2.5
309
CONTENTFORMAT_END
309
FORMATTEDCELLCONTENT_END
309
LINKEDTABLEDATACELL_END
  1
FORMATTEDTABLEDATACELL_BEGIN
300
CELLTABLEFORMAT
  1
TABLEFORMAT_BEGIN
 90
        1
170
     1
 91
       16
 92
        0
 62
   257
 93
        1
300
CONTENTFORMAT
  1
CONTENTFORMAT_BEGIN
 90
        0
 91
        0
 92
      512
 93
        0
300

 40
0.0
140
1.0
 94
        5
 62
     0
340
0
144
0.18
309
CONTENTFORMAT_END
171
     0
 94
        0
309
TABLEFORMAT_END
309
FORMATTEDTABLEDATACELL_END
  1
TABLECELL_BEGIN
 90
        0
 91
        0
309
TABLECELL_END
300
CELL
  1
LINKEDTABLEDATACELL_BEGIN
 90
        0
300

 91
        0
301
CUSTOMDATA
  1
DATAMAP_BEGIN
 90
        1
300
ACAD_ROUNDTRIP_2008_CELL_CHECKSUM
301
DATAMAP_VALUE
 93
        2
 90
        2
140
0.0
 94
        0
300

302

304
ACVALUE_END
309
DATAMAP_END
 92
        0
 95
        0
309
LINKEDTABLEDATACELL_END
  1
FORMATTEDTABLEDATACELL_BEGIN
300
CELLTABLEFORMAT
  1
TABLEFORMAT_BEGIN
 90
        1
170
     1
 91
       16
 92
        0
 62
   257
 93
        1
300
CONTENTFORMAT
  1
CONTENTFORMAT_BEGIN
 90
        0
 91
        0
 92
      512
 93
        0
300

 40
0.0
140
1.0
 94
        5
 62
     0
340
0
144
0.18
309
CONTENTFORMAT_END
171
     0
 94
        0
309
TABLEFORMAT_END
309
FORMATTEDTABLEDATACELL_END
  1
TABLECELL_BEGIN
 90
        0
 91
        0
309
TABLECELL_END
 91
        0
301
CUSTOMDATA
  1
DATAMAP_BEGIN
 90
        0
309
DATAMAP_END
309
LINKEDTABLEDATAROW_END
  1
FORMATTEDTABLEDATAROW_BEGIN
300
ROWTABLEFORMAT
  1
TABLEFORMAT_BEGIN
 90
        2
170
     0
309
TABLEFORMAT_END
309
FORMATTEDTABLEDATAROW_END
  1
TABLEROW_BEGIN
 90
        3
 40
6.333333333333333
309
TABLEROW_END
 92
        0
100
AcDbFormattedTableData
300
TABLEFORMAT
  1
TABLEFORMAT_BEGIN
 90
        4
170
     1
 91
    65536
 92
    65536
 62
   257
 93
        1
300
CONTENTFORMAT
  1
CONTENTFORMAT_BEGIN
 90
        0
 91
        0
 92
      512
 93
        0
300

 40
0.0
140
1.0
 94
        1
 62
     0
340
0
144
0.18
309
CONTENTFORMAT_END
171
     0
 94
        0
309
TABLEFORMAT_END
 90
        0
100
AcDbTableContent
340
1E
  0
TABLEGEOMETRY
  5
37DD6
330
3A51C
100
AcDbTableGeometry
 90
        2
 91
        6
 92
       12
 93
        3
 40
8.863935527199462
 41
5.552048354600403
330
0
 94
        1
 10
2.710670625553987
 20
-1.890642489366465
 30
0.0
 11
5.642638389153717
 21
-3.166666666666666
 31
0.0
 43
5.863935527199463
 44
2.552048354600403
 45
5.863935527199463
 46
2.552048354600403
 95
        0
 93
        3
 40
21.73498992612492
 41
6.322699798522498
330
0
 94
        1
 10
14.52072190440364
 20
-1.505316767405417
 30
0.0
 11
23.8882168674661
 21
-3.166666666666666
 31
0.0
 43
18.73498992612492
 44
3.322699798522498
 45
18.73498992612492
 46
3.322699798522498
 95
        0
 93
        3
 40
18.4693754197448
 41
5.568838146406984
330
0
 94
        1
 10
3.522644851454231
 20
-1.882247593463174
 30
0.0
 11
11.25733256132662
 21
-3.166666666666666
 31
0.0
 43
15.4693754197448
 44
2.568838146406984
 45
15.4693754197448
 46
2.568838146406984
 95
        0
 93
        3
 40
11.89952988582941
 41
6.226997985224983
330
0
 94
        1
 10
5.486055596756614
 20
-1.553167674054175
 30
0.0
 11
9.93582053967134
 21
-3.166666666666666
 31
0.0
 43
8.899529885829416
 44
3.226997985224983
 45
8.899529885829416
 46
3.226997985224983
 95
        0
 93
        3
 40
12.0926124916051
 41
5.5
330
0
 94
        1
 10
3.145182872746033
 20
-1.916666666666666
 30
0.0
 11
7.691489118548588
 21
-3.166666666666666
 31
0.0
 43
9.092612491605105
 44
2.5
 45
9.092612491605105
 46
2.5
 95
        0
 93
        3
 40
12.88005372733378
 41
5.6645399597045
330
0
 94
        1
 10
2.100906132854987
 20
-1.834396686814416
 30
0.0
 11
7.040932996521888
 21
-3.166666666666666
 31
0.0
 43
9.88005372733378
 44
2.664539959704499
 45
9.88005372733378
 46
2.664539959704499
 95
        0
 93
        3
 40
4.318938885157823
 41
5.508394895903291
330
0
 94
        1
 10
4.983168946574807
 20
-1.912469218715022
 30
0.0
 11
5.642638389153717
 21
-3.166666666666667
 31
0.0
 43
1.318938885157824
 44
2.508394895903291
 45
1.318938885157824
 46
2.508394895903291
 95
        0
 93
        3
 40
3.0
 41
3.0
330
0
 94
        0
 93
        3
 40
3.0
 41
3.0
330
0
 94
        0
 93
        3
 40
3.0
 41
3.0
330
0
 94
        0
 93
        3
 40
3.0
 41
5.5
330
0
 94
        1
 10
7.691489118548588
 20
-1.916666666666667
 30
0.0
 11
7.691489118548588
 21
-3.166666666666667
 31
0.0
 43
0.0
 44
2.5
 45
0.0
 46
2.5
 95
        0
 93
        3
 40
3.0
 41
3.0
330
0
 94
        0
  0
DICTIONARY
  5
3A14B
330
3A14A
100
AcDbDictionary
280
     1
281
     1
  3
ACAD_FIELD
360
3A14C
  3
ACAD_XREC_ROUNDTRIP
360
3A55C
  0
DICTIONARY
  5
3A0F5
330
31BF4
100
AcDbDictionary
280
     1
281
     1
  3
ACAD_XREC_ROUNDTRIP
360
3A55B
  0
DICTIONARY
  5
32A61
330
32A60
100
AcDbDictionary
280
     1
281
     1
  0
DICTIONARY
  5
223BC
330
223BB
100
AcDbDictionary
280
     1
281
     1
  0
DICTIONARY
  5
32C08
330
32C07
100
AcDbDictionary
280
     1
281
     1
  0
DICTIONARY
  5
32B73
330
32B72
100
AcDbDictionary
280
     1
281
     1
  0
DICTIONARY
  5
223FC
330
223FB
100
AcDbDictionary
280
     1
281
     1
  0
DICTIONARY
  5
32E91
330
32E90
100
AcDbDictionary
280
     1
281
     1
  0
DICTIONARY
  5
59CC
330
26
100
AcDbDictionary
280
     1
281
     1
  0
DICTIONARY
  5
3A151
330
3A150
100
AcDbDictionary
280
     1
281
     1
  3
ACAD_FIELD
360
3A152
  3
ACAD_XREC_ROUNDTRIP
360
3A55D
  0
DICTIONARY
  5
3A0F3
330
31BF2
100
AcDbDictionary
280
     1
281
     1
  3
ACAD_XREC_ROUNDTRIP
360
3A55A
  0
DICTIONARY
  5
2563
330
1E
100
AcDbDictionary
280
     1
281
     1
  3
ACAD_ROUNDTRIP_2008_TABLESTYLE_CELLSTYLEMAP
360
3A51A
  0
DICTIONARY
  5
3A530
330
1D98
100
AcDbDictionary
280
     1
281
     1
  3
ACAD_XREC_ROUNDTRIP
360
3A531
  0
DICTIONARY
  5
3A534
330
1D9A
100
AcDbDictionary
280
     1
281
     1
  3
ACAD_XREC_ROUNDTRIP
360
3A535
  0
DICTIONARY
  5
3A532
330
1D99
100
AcDbDictionary
280
     1
281
     1
  3
ACAD_XREC_ROUNDTRIP
360
3A533
  0
DICTIONARY
  5
3A52E
330
1D97
100
AcDbDictionary
280
     1
281
     1
  3
ACAD_XREC_ROUNDTRIP
360
3A52F
  0
DICTIONARY
  5
3A53C
330
1D9E
100
AcDbDictionary
280
     1
281
     1
  3
ACAD_XREC_ROUNDTRIP
360
3A53D
  0
DICTIONARY
  5
3A544
330
1DA2
100
AcDbDictionary
280
     1
281
     1
  3
ACAD_XREC_ROUNDTRIP
360
3A545
  0
DICTIONARY
  5
3A536
330
1D9B
100
AcDbDictionary
280
     1
281
     1
  3
ACAD_XREC_ROUNDTRIP
360
3A537
  0
DICTIONARY
  5
3A53A
330
1D9D
100
AcDbDictionary
280
     1
281
     1
  3
ACAD_XREC_ROUNDTRIP
360
3A53B
  0
DICTIONARY
  5
3A54A
330
58CB
100
AcDbDictionary
280
     1
281
     1
  3
ACAD_XREC_ROUNDTRIP
360
3A54B
  0
DICTIONARY
  5
3A542
330
1DA1
100
AcDbDictionary
280
     1
281
     1
  3
ACAD_XREC_ROUNDTRIP
360
3A543
  0
DICTIONARY
  5
3A526
330
1D93
100
AcDbDictionary
280
     1
281
     1
  3
ACAD_XREC_ROUNDTRIP
360
3A527
  0
DICTIONARY
  5
3A528
330
1D94
100
AcDbDictionary
280
     1
281
     1
  3
ACAD_XREC_ROUNDTRIP
360
3A529
  0
DICTIONARY
  5
3A52A
330
1D95
100
AcDbDictionary
280
     1
281
     1
  3
ACAD_XREC_ROUNDTRIP
360
3A52B
  0
DICTIONARY
  5
3A52C
330
1D96
100
AcDbDictionary
280
     1
281
     1
  3
ACAD_XREC_ROUNDTRIP
360
3A52D
  0
DICTIONARY
  5
3A54E
330
A3B8
100
AcDbDictionary
280
     1
281
     1
  3
ACAD_XREC_ROUNDTRIP
360
3A54F
  0
DICTIONARY
  5
3A546
330
58C9
100
AcDbDictionary
280
     1
281
     1
  3
ACAD_XREC_ROUNDTRIP
360
3A547
  0
DICTIONARY
  5
3A540
330
1DA0
100
AcDbDictionary
280
     1
281
     1
  3
ACAD_XREC_ROUNDTRIP
360
3A541
  0
DICTIONARY
  5
3A548
330
58CA
100
AcDbDictionary
280
     1
281
     1
  3
ACAD_XREC_ROUNDTRIP
360
3A549
  0
DICTIONARY
  5
3A538
330
1D9C
100
AcDbDictionary
280
     1
281
     1
  3
ACAD_XREC_ROUNDTRIP
360
3A539
  0
DICTIONARY
  5
3A558
330
A3BD
100
AcDbDictionary
280
     1
281
     1
  3
ACAD_XREC_ROUNDTRIP
360
3A559
  0
DICTIONARY
  5
3A556
330
A3BC
100
AcDbDictionary
280
     1
281
     1
  3
ACAD_XREC_ROUNDTRIP
360
3A557
  0
DICTIONARY
  5
3A550
330
A3B9
100
AcDbDictionary
280
     1
281
     1
  3
ACAD_XREC_ROUNDTRIP
360
3A551
  0
DICTIONARY
  5
3A552
330
A3BA
100
AcDbDictionary
280
     1
281
     1
  3
ACAD_XREC_ROUNDTRIP
360
3A553
  0
DICTIONARY
  5
3A53E
330
1D9F
100
AcDbDictionary
280
     1
281
     1
  3
ACAD_XREC_ROUNDTRIP
360
3A53F
  0
DICTIONARY
  5
3A54C
330
A3B7
100
AcDbDictionary
280
     1
281
     1
  3
ACAD_XREC_ROUNDTRIP
360
3A54D
  0
DICTIONARY
  5
3A554
330
A3BB
100
AcDbDictionary
280
     1
281
     1
  3
ACAD_XREC_ROUNDTRIP
360
3A555
  0
XRECORD
  5
3A51E
102
{ACAD_REACTORS
330
3A524
102
}
330
3A524
100
AcDbXrecord
280
     1
  1
AcDb_Thumbnail_Schema
102
{ATTRRECORD
341
3A51F
  2
AcDbDs::TreatedAsObjectData
280
     1
291
     1
102
ATTRRECORD}
102
{ATTRRECORD
341
3A520
  2
AcDbDs::Legacy
280
     1
291
     1
102
ATTRRECORD}
  2
AcDbDs::ID
280
    10
 91
        8
102
{ATTRRECORD
341
3A521
  2
AcDs:Indexable
280
     1
291
     1
102
ATTRRECORD}
102
{ATTRRECORD
341
3A522
  2
AcDbDs::HandleAttribute
280
     7
282
     1
102
ATTRRECORD}
  2
Thumbnail_Data
280
    15
 91
        0
  0
XRECORD
  5
3A51F
102
{ACAD_REACTORS
330
3A524
102
}
330
3A524
100
AcDbXrecord
280
     1
  1
AcDbDs::TreatedAsObjectDataSchema
  2
AcDbDs::TreatedAsObjectData
280
     1
 91
        0
  0
XRECORD
  5
3A520
102
{ACAD_REACTORS
330
3A524
102
}
330
3A524
100
AcDbXrecord
280
     1
  1
AcDbDs::LegacySchema
  2
AcDbDs::Legacy
280
     1
 91
        0
  0
XRECORD
  5
3A521
102
{ACAD_REACTORS
330
3A524
102
}
330
3A524
100
AcDbXrecord
280
     1
  1
AcDbDs::IndexedPropertySchema
  2
AcDs:Indexable
280
     1
 91
        0
  0
XRECORD
  5
3A522
102
{ACAD_REACTORS
330
3A524
102
}
330
3A524
100
AcDbXrecord
280
     1
  1
AcDbDs::HandleAttributeSchema
  2
AcDbDs::HandleAttribute
280
     7
 91
        1
284
     1
  0
ACAD_PROXY_OBJECT
  5
3A134
102
{ACAD_REACTORS
330
3334F
102
}
330
3334F
100
AcDbProxyObject
 90
      499
 91
      565
 95
  5308447
 70
     0
162
              3904
311
40D10012401380242D0401B4019001D001140190019C0194014C01D00190010E410063006D005300750072006600540065007800740053007400640042504018C01B40118010C0118014C01D00190010D410063006D00570065006C00640069006E00670053007400640042104018C01B401240190014C01D00190010B4100
311
63006D0044006100740075006D0053007400640042504018C01B40108013C0134014C01D00190011041006D0064007400440065007400610069006C00530079006D005300740064004450401B4019001D0014C0194018C01D001A401BC01B8014C01E401B4014C01D00190011141006D0064007400430065006E0074006500
311
72004C0069006E0065005300740064004450401B4019001D0015001A001C8019401840190013001A401B80194014C01D00190010B41006D00640074004E006F007400650053007400640042D04018C01B40150018401C0019401C8014C01D00190010D41006D006400740041006E00560069006500770053007400640042D0
311
4018C010401B4019C0130018401E4014C01D00190010B4100630041006D006700440069006D0053007400640044504018C010401B4019C012001BC01B00194010C01A0018401C801D0014C01D00190010D4100630041006D0067005400690074006C00650053007400640000
161
               737
310
7340000000000000C408000000C00040540600800030C02000000300000000000000000C40C95224812028120281202812028120281202812028120481204812028120281202812028120281202812028120281203204809FFFE7FFFCC
340
11
360
3A135
360
3A136
360
3A137
360
3A138
360
3A139
360
3A13A
360
3A13B
360
3A13C
360
3A149
360
3A13D
360
3A148
360
3A13E
360
3A13F
360
3A140
360
3A141
360
3A142
360
3A143
360
3A144
360
3A145
360
3A147
340
381FB
340
0
340
15
340
15
 94
        0
  0
ACAD_PROXY_OBJECT
  5
3A109
102
{ACAD_REACTORS
330
3A108
102
}
330
3A108
100
AcDbProxyObject
 90
      499
 91
      537
 95
  5308447
 70
     0
162
              3996
311
42D10015C011C014C01140150015001240138011C014C0109430041004E00470041005200520041005900420CC00C001F000D000D401F000D800C00106430045004E0041004E004700424D000D401F000E400C001F000C400CC00D40106430045004E0044004900410041D0C01140138011001240104014C0108310030007C
311
00320030007C003300300041D0C0114013801100124014C01500106430045004E004C0045004E004190C01140138013C01180118010E4300480041004D00460045005200440049004D004D004F00440045004550C0120010401340118011401480110012401340134013C01100114011001140118010401540130015001094
311
3004C0049004E0041005200520041005900420C400C001F000C800C001F000CC00C0010843004C0049004E004500540059005000415600130012401380114010944005700470055005300430041004C00450041D300104014C0150013C0108012801013000421340104012C0114015801240114015C0106500053004300410
311
04C00450041948011401580124014C0124010130004154C010C010401300114010331003A00310042550012401340114014C01500104013401400107560045005200530049004F004E00414C400D400B800C000C001107B00440057004700530045005400540049004E004700530045004E0044007D00C
161
               572
310
40682A0A940000000000000488082A5000000000000004202500000000000001220250000000000000122027F27F20A82A50A0A9FA040C008000105415280D8BBC8C684DDCD0505C
 94
        0
  0
ACAD_PROXY_OBJECT
  5
3A10A
102
{ACAD_REACTORS
330
3A108
102
}
330
3A108
100
AcDbProxyObject
 90
      499
 91
      537
 95
  5308447
 70
     0
162
              1382
311
43550014801040138014C014C01140150015001240138011C014C0112440052004100570049004E0047005400520041004E0053004C004100540049004F004E004353C01480124011C012401380104013001300164017C013C0138010A53004F0055005200430045004C0041004E00470040D1001140154010955005000520
311
0450053004500520056004500441EC0110015C011C014C01140150015001240138011C014C01140138011001F400
161
               126
310
4060C00800041801000020A0C0080000
 94
        0
  0
DICTIONARY
  5
3A14C
102
{ACAD_REACTORS
330
3A14B
102
}
330
3A14B
100
AcDbDictionary
280
     1
281
     1
  3
TEXT
360
3A14D
  0
XRECORD
  5
3A55C
102
{ACAD_REACTORS
330
3A14B
102
}
330
3A14B
100
AcDbXrecord
280
     1
102
DISPLAYNAME
  1
DIN 6
102
FLAGS
 90
        1
  0
XRECORD
  5
3A55B
102
{ACAD_REACTORS
330
3A0F5
102
}
330
3A0F5
100
AcDbXrecord
280
     1
102
DISPLAYNAME
  1
Metric50
102
FLAGS
 90
        0
  0
DICTIONARY
  5
3A152
102
{ACAD_REACTORS
330
3A151
102
}
330
3A151
100
AcDbDictionary
280
     1
281
     1
  3
TEXT
360
3A153
  0
XRECORD
  5
3A55D
102
{ACAD_REACTORS
330
3A151
102
}
330
3A151
100
AcDbXrecord
280
     1
102
DISPLAYNAME
  1
DIN ISO 128-40:2002-05
102
FLAGS
 90
        1
  0
XRECORD
  5
3A55A
102
{ACAD_REACTORS
330
3A0F3
102
}
330
3A0F3
100
AcDbXrecord
280
     1
102
DISPLAYNAME
  1
Metric50
102
FLAGS
 90
        0
  0
CELLSTYLEMAP
  5
3A51A
102
{ACAD_REACTORS
330
2563
102
}
330
2563
100
AcDbCellStyleMap
 90
        3
300
CELLSTYLE
  1
TABLEFORMAT_BEGIN
 90
        5
170
     1
 91
        0
 92
    32768
 62
   257
 93
        1
300
CONTENTFORMAT
  1
CONTENTFORMAT_BEGIN
 90
        0
 91
        0
 92
        4
 93
        0
300

 40
0.0
140
1.0
 94
        5
 62
     0
340
11
144
6.0
309
CONTENTFORMAT_END
171
     1
301
MARGIN
  1
CELLMARGIN_BEGIN
 40
1.5
 40
1.5
 40
1.5
 40
1.5
 40
0.18
 40
0.18
309
CELLMARGIN_END
 94
        6
 95
        1
302
GRIDFORMAT
  1
GRIDFORMAT_BEGIN
 90
        0
 91
        1
 62
     0
 92
       -2
340
0
 93
        0
 40
0.045
309
GRIDFORMAT_END
 95
        2
302
GRIDFORMAT
  1
GRIDFORMAT_BEGIN
 90
        0
 91
        1
 62
     0
 92
       -2
340
0
 93
        0
 40
0.045
309
GRIDFORMAT_END
 95
        4
302
GRIDFORMAT
  1
GRIDFORMAT_BEGIN
 90
        0
 91
        1
 62
     0
 92
       -2
340
0
 93
        0
 40
0.045
309
GRIDFORMAT_END
 95
        8
302
GRIDFORMAT
  1
GRIDFORMAT_BEGIN
 90
        0
 91
        1
 62
     0
 92
       -2
340
0
 93
        0
 40
0.045
309
GRIDFORMAT_END
 95
       16
302
GRIDFORMAT
  1
GRIDFORMAT_BEGIN
 90
        0
 91
        1
 62
     0
 92
       -2
340
0
 93
        0
 40
0.045
309
GRIDFORMAT_END
 95
       32
302
GRIDFORMAT
  1
GRIDFORMAT_BEGIN
 90
        0
 91
        1
 62
     0
 92
       -2
340
0
 93
        0
 40
0.045
309
GRIDFORMAT_END
309
TABLEFORMAT_END
  1
CELLSTYLE_BEGIN
 90
        1
 91
        1
300
_TITLE
309
CELLSTYLE_END
300
CELLSTYLE
  1
TABLEFORMAT_BEGIN
 90
        5
170
     1
 91
        0
 92
        0
 62
   257
 93
        1
300
CONTENTFORMAT
  1
CONTENTFORMAT_BEGIN
 90
        0
 91
        0
 92
        4
 93
        0
300

 40
0.0
140
1.0
 94
        5
 62
     0
340
11
144
4.5
309
CONTENTFORMAT_END
171
     1
301
MARGIN
  1
CELLMARGIN_BEGIN
 40
1.5
 40
1.5
 40
1.5
 40
1.5
 40
0.18
 40
0.18
309
CELLMARGIN_END
 94
        6
 95
        1
302
GRIDFORMAT
  1
GRIDFORMAT_BEGIN
 90
        0
 91
        1
 62
     0
 92
       -2
340
0
 93
        0
 40
0.045
309
GRIDFORMAT_END
 95
        2
302
GRIDFORMAT
  1
GRIDFORMAT_BEGIN
 90
        0
 91
        1
 62
     0
 92
       -2
340
0
 93
        0
 40
0.045
309
GRIDFORMAT_END
 95
        4
302
GRIDFORMAT
  1
GRIDFORMAT_BEGIN
 90
        0
 91
        1
 62
     0
 92
       -2
340
0
 93
        0
 40
0.045
309
GRIDFORMAT_END
 95
        8
302
GRIDFORMAT
  1
GRIDFORMAT_BEGIN
 90
        0
 91
        1
 62
     0
 92
       -2
340
0
 93
        0
 40
0.045
309
GRIDFORMAT_END
 95
       16
302
GRIDFORMAT
  1
GRIDFORMAT_BEGIN
 90
        0
 91
        1
 62
     0
 92
       -2
340
0
 93
        0
 40
0.045
309
GRIDFORMAT_END
 95
       32
302
GRIDFORMAT
  1
GRIDFORMAT_BEGIN
 90
        0
 91
        1
 62
     0
 92
       -2
340
0
 93
        0
 40
0.045
309
GRIDFORMAT_END
309
TABLEFORMAT_END
  1
CELLSTYLE_BEGIN
 90
        2
 91
        1
300
_HEADER
309
CELLSTYLE_END
300
CELLSTYLE
  1
TABLEFORMAT_BEGIN
 90
        5
170
     1
 91
        0
 92
        0
 62
   257
 93
        1
300
CONTENTFORMAT
  1
CONTENTFORMAT_BEGIN
 90
        0
 91
        0
 92
        4
 93
        0
300

 40
0.0
140
1.0
 94
        2
 62
     0
340
11
144
4.5
309
CONTENTFORMAT_END
171
     1
301
MARGIN
  1
CELLMARGIN_BEGIN
 40
1.5
 40
1.5
 40
1.5
 40
1.5
 40
0.18
 40
0.18
309
CELLMARGIN_END
 94
        6
 95
        1
302
GRIDFORMAT
  1
GRIDFORMAT_BEGIN
 90
        0
 91
        1
 62
     0
 92
       -2
340
0
 93
        0
 40
0.045
309
GRIDFORMAT_END
 95
        2
302
GRIDFORMAT
  1
GRIDFORMAT_BEGIN
 90
        0
 91
        1
 62
     0
 92
       -2
340
0
 93
        0
 40
0.045
309
GRIDFORMAT_END
 95
        4
302
GRIDFORMAT
  1
GRIDFORMAT_BEGIN
 90
        0
 91
        1
 62
     0
 92
       -2
340
0
 93
        0
 40
0.045
309
GRIDFORMAT_END
 95
        8
302
GRIDFORMAT
  1
GRIDFORMAT_BEGIN
 90
        0
 91
        1
 62
     0
 92
       -2
340
0
 93
        0
 40
0.045
309
GRIDFORMAT_END
 95
       16
302
GRIDFORMAT
  1
GRIDFORMAT_BEGIN
 90
        0
 91
        1
 62
     0
 92
       -2
340
0
 93
        0
 40
0.045
309
GRIDFORMAT_END
 95
       32
302
GRIDFORMAT
  1
GRIDFORMAT_BEGIN
 90
        0
 91
        1
 62
     0
 92
       -2
340
0
 93
        0
 40
0.045
309
GRIDFORMAT_END
309
TABLEFORMAT_END
  1
CELLSTYLE_BEGIN
 90
        3
 91
        2
300
_DATA
309
CELLSTYLE_END
  0
XRECORD
  5
3A531
102
{ACAD_REACTORS
330
3A530
102
}
330
3A530
100
AcDbXrecord
280
     1
102
RTVSPost2010Prop28
280
     1
102
RTVSPost2010PropOp28
 70
     1
102
RTVSPost2010Prop29
280
     1
102
RTVSPost2010PropOp29
 70
     1
102
RTVSPost2010Prop30
280
     0
102
RTVSPost2010PropOp30
 70
     1
102
RTVSPost2010Prop31
280
     0
102
RTVSPost2010PropOp31
 70
     1
102
RTVSPost2010Prop32
280
     0
102
RTVSPost2010PropOp32
 70
     1
102
RTVSPost2010Prop33
280
     0
102
RTVSPost2010PropOp33
 70
     1
102
RTVSPost2010Prop34
280
     0
102
RTVSPost2010PropOp34
 70
     1
102
RTVSPost2010Prop35
280
     0
102
RTVSPost2010PropOp35
 70
     1
102
RTVSPost2010Prop36
280
     0
102
RTVSPost2010PropOp36
 70
     1
102
RTVSPost2010Prop37
 90
       50
102
RTVSPost2010PropOp37
 70
     1
102
RTVSPost2010Prop38
140
0.0
102
RTVSPost2010PropOp38
 70
     1
102
RTVSPost2010Prop39
140
1.0
102
RTVSPost2010PropOp39
 70
     1
102
RTVSPost2010Prop40
 90
        0
102
RTVSPost2010PropOp40
 70
     1
102
RTVSPost2010Prop41ColorIndex
 90
       18
102
RTVSPost2010Prop41ColorRGB
 90
        0
102
RTVSPost2010PropOp41
 70
     1
102
RTVSPost2010Prop42
 90
       50
102
RTVSPost2010PropOp42
 70
     1
102
RTVSPost2010Prop43
 90
        3
102
RTVSPost2010PropOp43
 70
     1
102
RTVSPost2010Prop44ColorIndex
 90
        5
102
RTVSPost2010Prop44ColorRGB
 90
      255
102
RTVSPost2010PropOp44
 70
     1
102
RTVSPost2010Prop45
280
     0
102
RTVSPost2010PropOp45
 70
     1
102
RTVSPost2010Prop46
 90
       50
102
RTVSPost2010PropOp46
 70
     1
102
RTVSPost2010Prop47
 90
       50
102
RTVSPost2010PropOp47
 70
     1
102
RTVSPost2010Prop48
 90
       50
102
RTVSPost2010PropOp48
 70
     1
102
RTVSPost2010Prop49
280
     0
102
RTVSPost2010PropOp49
 70
     1
102
RTVSPost2010Prop50
 90
       50
102
RTVSPost2010PropOp50
 70
     1
102
RTVSPost2010Prop51ColorIndex
 90
      256
102
RTVSPost2010Prop51ColorRGB
 90
-16777216
102
RTVSPost2010PropOp51
 70
     0
102
RTVSPost2010Prop52
140
1.0
102
RTVSPost2010PropOp52
 70
     0
102
RTVSPost2010Prop53
 90
        2
102
RTVSPost2010PropOp53
 70
     1
102
RTVSPost2010Prop54
  1
strokes_ogs.tif
102
RTVSPost2010PropOp54
 70
     1
102
RTVSPost2010Prop55
280
     0
102
RTVSPost2010PropOp55
 70
     1
102
RTVSPost2010Prop56
140
1.0
102
RTVSPost2010PropOp56
 70
     1
102
RTVSPost2010Prop57
140
1.0
102
RTVSPost2010PropOp57
 70
     1
  0
XRECORD
  5
3A535
102
{ACAD_REACTORS
330
3A534
102
}
330
3A534
100
AcDbXrecord
280
     1
102
RTVSPost2010Prop28
280
     0
102
RTVSPost2010PropOp28
 70
     1
102
RTVSPost2010Prop29
280
     1
102
RTVSPost2010PropOp29
 70
     1
102
RTVSPost2010Prop30
280
     1
102
RTVSPost2010PropOp30
 70
     1
102
RTVSPost2010Prop31
280
     0
102
RTVSPost2010PropOp31
 70
     1
102
RTVSPost2010Prop32
280
     0
102
RTVSPost2010PropOp32
 70
     1
102
RTVSPost2010Prop33
280
     0
102
RTVSPost2010PropOp33
 70
     1
102
RTVSPost2010Prop34
280
     0
102
RTVSPost2010PropOp34
 70
     1
102
RTVSPost2010Prop35
280
     0
102
RTVSPost2010PropOp35
 70
     1
102
RTVSPost2010Prop36
280
     0
102
RTVSPost2010PropOp36
 70
     1
102
RTVSPost2010Prop37
 90
       50
102
RTVSPost2010PropOp37
 70
     1
102
RTVSPost2010Prop38
140
0.0
102
RTVSPost2010PropOp38
 70
     1
102
RTVSPost2010Prop39
140
1.0
102
RTVSPost2010PropOp39
 70
     1
102
RTVSPost2010Prop40
 90
        0
102
RTVSPost2010PropOp40
 70
     1
102
RTVSPost2010Prop41ColorIndex
 90
       18
102
RTVSPost2010Prop41ColorRGB
 90
        0
102
RTVSPost2010PropOp41
 70
     1
102
RTVSPost2010Prop42
 90
       50
102
RTVSPost2010PropOp42
 70
     1
102
RTVSPost2010Prop43
 90
        3
102
RTVSPost2010PropOp43
 70
     1
102
RTVSPost2010Prop44ColorIndex
 90
        5
102
RTVSPost2010Prop44ColorRGB
 90
      255
102
RTVSPost2010PropOp44
 70
     1
102
RTVSPost2010Prop45
280
     0
102
RTVSPost2010PropOp45
 70
     1
102
RTVSPost2010Prop46
 90
       50
102
RTVSPost2010PropOp46
 70
     1
102
RTVSPost2010Prop47
 90
       50
102
RTVSPost2010PropOp47
 70
     1
102
RTVSPost2010Prop48
 90
       50
102
RTVSPost2010PropOp48
 70
     1
102
RTVSPost2010Prop49
280
     0
102
RTVSPost2010PropOp49
 70
     1
102
RTVSPost2010Prop50
 90
       50
102
RTVSPost2010PropOp50
 70
     1
102
RTVSPost2010Prop51ColorIndex
 90
      256
102
RTVSPost2010Prop51ColorRGB
 90
-16777216
102
RTVSPost2010PropOp51
 70
     0
102
RTVSPost2010Prop52
140
1.0
102
RTVSPost2010PropOp52
 70
     0
102
RTVSPost2010Prop53
 90
        2
102
RTVSPost2010PropOp53
 70
     1
102
RTVSPost2010Prop54
  1
strokes_ogs.tif
102
RTVSPost2010PropOp54
 70
     1
102
RTVSPost2010Prop55
280
     0
102
RTVSPost2010PropOp55
 70
     1
102
RTVSPost2010Prop56
140
1.0
102
RTVSPost2010PropOp56
 70
     1
102
RTVSPost2010Prop57
140
1.0
102
RTVSPost2010PropOp57
 70
     1
  0
XRECORD
  5
3A533
102
{ACAD_REACTORS
330
3A532
102
}
330
3A532
100
AcDbXrecord
280
     1
102
RTVSPost2010Prop28
280
     0
102
RTVSPost2010PropOp28
 70
     1
102
RTVSPost2010Prop29
280
     1
102
RTVSPost2010PropOp29
 70
     1
102
RTVSPost2010Prop30
280
     1
102
RTVSPost2010PropOp30
 70
     1
102
RTVSPost2010Prop31
280
     0
102
RTVSPost2010PropOp31
 70
     1
102
RTVSPost2010Prop32
280
     0
102
RTVSPost2010PropOp32
 70
     1
102
RTVSPost2010Prop33
280
     0
102
RTVSPost2010PropOp33
 70
     1
102
RTVSPost2010Prop34
280
     0
102
RTVSPost2010PropOp34
 70
     1
102
RTVSPost2010Prop35
280
     0
102
RTVSPost2010PropOp35
 70
     1
102
RTVSPost2010Prop36
280
     0
102
RTVSPost2010PropOp36
 70
     1
102
RTVSPost2010Prop37
 90
       50
102
RTVSPost2010PropOp37
 70
     1
102
RTVSPost2010Prop38
140
0.0
102
RTVSPost2010PropOp38
 70
     1
102
RTVSPost2010Prop39
140
1.0
102
RTVSPost2010PropOp39
 70
     1
102
RTVSPost2010Prop40
 90
        0
102
RTVSPost2010PropOp40
 70
     1
102
RTVSPost2010Prop41ColorIndex
 90
       18
102
RTVSPost2010Prop41ColorRGB
 90
        0
102
RTVSPost2010PropOp41
 70
     1
102
RTVSPost2010Prop42
 90
       50
102
RTVSPost2010PropOp42
 70
     1
102
RTVSPost2010Prop43
 90
        3
102
RTVSPost2010PropOp43
 70
     1
102
RTVSPost2010Prop44ColorIndex
 90
        5
102
RTVSPost2010Prop44ColorRGB
 90
      255
102
RTVSPost2010PropOp44
 70
     1
102
RTVSPost2010Prop45
280
     0
102
RTVSPost2010PropOp45
 70
     1
102
RTVSPost2010Prop46
 90
       50
102
RTVSPost2010PropOp46
 70
     1
102
RTVSPost2010Prop47
 90
       50
102
RTVSPost2010PropOp47
 70
     1
102
RTVSPost2010Prop48
 90
       50
102
RTVSPost2010PropOp48
 70
     1
102
RTVSPost2010Prop49
280
     0
102
RTVSPost2010PropOp49
 70
     1
102
RTVSPost2010Prop50
 90
       50
102
RTVSPost2010PropOp50
 70
     1
102
RTVSPost2010Prop51ColorIndex
 90
      256
102
RTVSPost2010Prop51ColorRGB
 90
-16777216
102
RTVSPost2010PropOp51
 70
     0
102
RTVSPost2010Prop52
140
1.0
102
RTVSPost2010PropOp52
 70
     0
102
RTVSPost2010Prop53
 90
        2
102
RTVSPost2010PropOp53
 70
     1
102
RTVSPost2010Prop54
  1
strokes_ogs.tif
102
RTVSPost2010PropOp54
 70
     1
102
RTVSPost2010Prop55
280
     0
102
RTVSPost2010PropOp55
 70
     1
102
RTVSPost2010Prop56
140
1.0
102
RTVSPost2010PropOp56
 70
     1
102
RTVSPost2010Prop57
140
1.0
102
RTVSPost2010PropOp57
 70
     1
  0
XRECORD
  5
3A52F
102
{ACAD_REACTORS
330
3A52E
102
}
330
3A52E
100
AcDbXrecord
280
     1
102
RTVSPost2010Prop28
280
     0
102
RTVSPost2010PropOp28
 70
     1
102
RTVSPost2010Prop29
280
     1
102
RTVSPost2010PropOp29
 70
     1
102
RTVSPost2010Prop30
280
     1
102
RTVSPost2010PropOp30
 70
     1
102
RTVSPost2010Prop31
280
     0
102
RTVSPost2010PropOp31
 70
     1
102
RTVSPost2010Prop32
280
     0
102
RTVSPost2010PropOp32
 70
     1
102
RTVSPost2010Prop33
280
     0
102
RTVSPost2010PropOp33
 70
     1
102
RTVSPost2010Prop34
280
     0
102
RTVSPost2010PropOp34
 70
     1
102
RTVSPost2010Prop35
280
     0
102
RTVSPost2010PropOp35
 70
     1
102
RTVSPost2010Prop36
280
     0
102
RTVSPost2010PropOp36
 70
     1
102
RTVSPost2010Prop37
 90
       50
102
RTVSPost2010PropOp37
 70
     1
102
RTVSPost2010Prop38
140
0.0
102
RTVSPost2010PropOp38
 70
     1
102
RTVSPost2010Prop39
140
1.0
102
RTVSPost2010PropOp39
 70
     1
102
RTVSPost2010Prop40
 90
        0
102
RTVSPost2010PropOp40
 70
     1
102
RTVSPost2010Prop41ColorIndex
 90
       18
102
RTVSPost2010Prop41ColorRGB
 90
        0
102
RTVSPost2010PropOp41
 70
     1
102
RTVSPost2010Prop42
 90
       50
102
RTVSPost2010PropOp42
 70
     1
102
RTVSPost2010Prop43
 90
        3
102
RTVSPost2010PropOp43
 70
     1
102
RTVSPost2010Prop44ColorIndex
 90
        5
102
RTVSPost2010Prop44ColorRGB
 90
      255
102
RTVSPost2010PropOp44
 70
     1
102
RTVSPost2010Prop45
280
     0
102
RTVSPost2010PropOp45
 70
     1
102
RTVSPost2010Prop46
 90
       50
102
RTVSPost2010PropOp46
 70
     1
102
RTVSPost2010Prop47
 90
       50
102
RTVSPost2010PropOp47
 70
     1
102
RTVSPost2010Prop48
 90
       50
102
RTVSPost2010PropOp48
 70
     1
102
RTVSPost2010Prop49
280
     0
102
RTVSPost2010PropOp49
 70
     1
102
RTVSPost2010Prop50
 90
       50
102
RTVSPost2010PropOp50
 70
     1
102
RTVSPost2010Prop51ColorIndex
 90
      256
102
RTVSPost2010Prop51ColorRGB
 90
-16777216
102
RTVSPost2010PropOp51
 70
     0
102
RTVSPost2010Prop52
140
1.0
102
RTVSPost2010PropOp52
 70
     0
102
RTVSPost2010Prop53
 90
        2
102
RTVSPost2010PropOp53
 70
     1
102
RTVSPost2010Prop54
  1
strokes_ogs.tif
102
RTVSPost2010PropOp54
 70
     1
102
RTVSPost2010Prop55
280
     0
102
RTVSPost2010PropOp55
 70
     1
102
RTVSPost2010Prop56
140
1.0
102
RTVSPost2010PropOp56
 70
     1
102
RTVSPost2010Prop57
140
1.0
102
RTVSPost2010PropOp57
 70
     1
  0
XRECORD
  5
3A53D
102
{ACAD_REACTORS
330
3A53C
102
}
330
3A53C
100
AcDbXrecord
280
     1
102
RTVSPost2010Prop28
280
     0
102
RTVSPost2010PropOp28
 70
     1
102
RTVSPost2010Prop29
280
     1
102
RTVSPost2010PropOp29
 70
     1
102
RTVSPost2010Prop30
280
     1
102
RTVSPost2010PropOp30
 70
     1
102
RTVSPost2010Prop31
280
     0
102
RTVSPost2010PropOp31
 70
     1
102
RTVSPost2010Prop32
280
     0
102
RTVSPost2010PropOp32
 70
     1
102
RTVSPost2010Prop33
280
     0
102
RTVSPost2010PropOp33
 70
     1
102
RTVSPost2010Prop34
280
     0
102
RTVSPost2010PropOp34
 70
     1
102
RTVSPost2010Prop35
280
     0
102
RTVSPost2010PropOp35
 70
     1
102
RTVSPost2010Prop36
280
     0
102
RTVSPost2010PropOp36
 70
     1
102
RTVSPost2010Prop37
 90
       50
102
RTVSPost2010PropOp37
 70
     1
102
RTVSPost2010Prop38
140
0.0
102
RTVSPost2010PropOp38
 70
     1
102
RTVSPost2010Prop39
140
1.0
102
RTVSPost2010PropOp39
 70
     1
102
RTVSPost2010Prop40
 90
        0
102
RTVSPost2010PropOp40
 70
     1
102
RTVSPost2010Prop41ColorIndex
 90
       18
102
RTVSPost2010Prop41ColorRGB
 90
        0
102
RTVSPost2010PropOp41
 70
     1
102
RTVSPost2010Prop42
 90
       50
102
RTVSPost2010PropOp42
 70
     1
102
RTVSPost2010Prop43
 90
        3
102
RTVSPost2010PropOp43
 70
     1
102
RTVSPost2010Prop44ColorIndex
 90
        5
102
RTVSPost2010Prop44ColorRGB
 90
      255
102
RTVSPost2010PropOp44
 70
     1
102
RTVSPost2010Prop45
280
     0
102
RTVSPost2010PropOp45
 70
     1
102
RTVSPost2010Prop46
 90
       50
102
RTVSPost2010PropOp46
 70
     1
102
RTVSPost2010Prop47
 90
       50
102
RTVSPost2010PropOp47
 70
     1
102
RTVSPost2010Prop48
 90
       50
102
RTVSPost2010PropOp48
 70
     1
102
RTVSPost2010Prop49
280
     0
102
RTVSPost2010PropOp49
 70
     1
102
RTVSPost2010Prop50
 90
       50
102
RTVSPost2010PropOp50
 70
     1
102
RTVSPost2010Prop51ColorIndex
 90
      256
102
RTVSPost2010Prop51ColorRGB
 90
-16777216
102
RTVSPost2010PropOp51
 70
     0
102
RTVSPost2010Prop52
140
1.0
102
RTVSPost2010PropOp52
 70
     0
102
RTVSPost2010Prop53
 90
        2
102
RTVSPost2010PropOp53
 70
     1
102
RTVSPost2010Prop54
  1
strokes_ogs.tif
102
RTVSPost2010PropOp54
 70
     1
102
RTVSPost2010Prop55
280
     0
102
RTVSPost2010PropOp55
 70
     1
102
RTVSPost2010Prop56
140
1.0
102
RTVSPost2010PropOp56
 70
     1
102
RTVSPost2010Prop57
140
1.0
102
RTVSPost2010PropOp57
 70
     1
  0
XRECORD
  5
3A545
102
{ACAD_REACTORS
330
3A544
102
}
330
3A544
100
AcDbXrecord
280
     1
102
RTVSPost2010Prop28
280
     0
102
RTVSPost2010PropOp28
 70
     1
102
RTVSPost2010Prop29
280
     1
102
RTVSPost2010PropOp29
 70
     1
102
RTVSPost2010Prop30
280
     1
102
RTVSPost2010PropOp30
 70
     1
102
RTVSPost2010Prop31
280
     0
102
RTVSPost2010PropOp31
 70
     1
102
RTVSPost2010Prop32
280
     0
102
RTVSPost2010PropOp32
 70
     1
102
RTVSPost2010Prop33
280
     0
102
RTVSPost2010PropOp33
 70
     1
102
RTVSPost2010Prop34
280
     0
102
RTVSPost2010PropOp34
 70
     1
102
RTVSPost2010Prop35
280
     0
102
RTVSPost2010PropOp35
 70
     1
102
RTVSPost2010Prop36
280
     0
102
RTVSPost2010PropOp36
 70
     1
102
RTVSPost2010Prop37
 90
       50
102
RTVSPost2010PropOp37
 70
     1
102
RTVSPost2010Prop38
140
0.0
102
RTVSPost2010PropOp38
 70
     1
102
RTVSPost2010Prop39
140
1.0
102
RTVSPost2010PropOp39
 70
     1
102
RTVSPost2010Prop40
 90
        0
102
RTVSPost2010PropOp40
 70
     1
102
RTVSPost2010Prop41ColorIndex
 90
       18
102
RTVSPost2010Prop41ColorRGB
 90
        0
102
RTVSPost2010PropOp41
 70
     1
102
RTVSPost2010Prop42
 90
       50
102
RTVSPost2010PropOp42
 70
     1
102
RTVSPost2010Prop43
 90
        3
102
RTVSPost2010PropOp43
 70
     1
102
RTVSPost2010Prop44ColorIndex
 90
        5
102
RTVSPost2010Prop44ColorRGB
 90
      255
102
RTVSPost2010PropOp44
 70
     1
102
RTVSPost2010Prop45
280
     0
102
RTVSPost2010PropOp45
 70
     1
102
RTVSPost2010Prop46
 90
       50
102
RTVSPost2010PropOp46
 70
     1
102
RTVSPost2010Prop47
 90
       50
102
RTVSPost2010PropOp47
 70
     1
102
RTVSPost2010Prop48
 90
       50
102
RTVSPost2010PropOp48
 70
     1
102
RTVSPost2010Prop49
280
     0
102
RTVSPost2010PropOp49
 70
     1
102
RTVSPost2010Prop50
 90
       50
102
RTVSPost2010PropOp50
 70
     1
102
RTVSPost2010Prop51ColorIndex
 90
      256
102
RTVSPost2010Prop51ColorRGB
 90
-16777216
102
RTVSPost2010PropOp51
 70
     0
102
RTVSPost2010Prop52
140
1.0
102
RTVSPost2010PropOp52
 70
     0
102
RTVSPost2010Prop53
 90
        2
102
RTVSPost2010PropOp53
 70
     1
102
RTVSPost2010Prop54
  1
strokes_ogs.tif
102
RTVSPost2010PropOp54
 70
     1
102
RTVSPost2010Prop55
280
     0
102
RTVSPost2010PropOp55
 70
     1
102
RTVSPost2010Prop56
140
1.0
102
RTVSPost2010PropOp56
 70
     1
102
RTVSPost2010Prop57
140
1.0
102
RTVSPost2010PropOp57
 70
     1
  0
XRECORD
  5
3A537
102
{ACAD_REACTORS
330
3A536
102
}
330
3A536
100
AcDbXrecord
280
     1
102
RTVSPost2010Prop28
280
     0
102
RTVSPost2010PropOp28
 70
     1
102
RTVSPost2010Prop29
280
     1
102
RTVSPost2010PropOp29
 70
     1
102
RTVSPost2010Prop30
280
     1
102
RTVSPost2010PropOp30
 70
     1
102
RTVSPost2010Prop31
280
     0
102
RTVSPost2010PropOp31
 70
     1
102
RTVSPost2010Prop32
280
     0
102
RTVSPost2010PropOp32
 70
     1
102
RTVSPost2010Prop33
280
     0
102
RTVSPost2010PropOp33
 70
     1
102
RTVSPost2010Prop34
280
     0
102
RTVSPost2010PropOp34
 70
     1
102
RTVSPost2010Prop35
280
     0
102
RTVSPost2010PropOp35
 70
     1
102
RTVSPost2010Prop36
280
     0
102
RTVSPost2010PropOp36
 70
     1
102
RTVSPost2010Prop37
 90
       50
102
RTVSPost2010PropOp37
 70
     1
102
RTVSPost2010Prop38
140
0.0
102
RTVSPost2010PropOp38
 70
     1
102
RTVSPost2010Prop39
140
1.0
102
RTVSPost2010PropOp39
 70
     1
102
RTVSPost2010Prop40
 90
        0
102
RTVSPost2010PropOp40
 70
     1
102
RTVSPost2010Prop41ColorIndex
 90
       18
102
RTVSPost2010Prop41ColorRGB
 90
        0
102
RTVSPost2010PropOp41
 70
     1
102
RTVSPost2010Prop42
 90
       50
102
RTVSPost2010PropOp42
 70
     1
102
RTVSPost2010Prop43
 90
        3
102
RTVSPost2010PropOp43
 70
     1
102
RTVSPost2010Prop44ColorIndex
 90
        5
102
RTVSPost2010Prop44ColorRGB
 90
      255
102
RTVSPost2010PropOp44
 70
     1
102
RTVSPost2010Prop45
280
     0
102
RTVSPost2010PropOp45
 70
     1
102
RTVSPost2010Prop46
 90
       50
102
RTVSPost2010PropOp46
 70
     1
102
RTVSPost2010Prop47
 90
       50
102
RTVSPost2010PropOp47
 70
     1
102
RTVSPost2010Prop48
 90
       50
102
RTVSPost2010PropOp48
 70
     1
102
RTVSPost2010Prop49
280
     0
102
RTVSPost2010PropOp49
 70
     1
102
RTVSPost2010Prop50
 90
       50
102
RTVSPost2010PropOp50
 70
     1
102
RTVSPost2010Prop51ColorIndex
 90
      256
102
RTVSPost2010Prop51ColorRGB
 90
-16777216
102
RTVSPost2010PropOp51
 70
     0
102
RTVSPost2010Prop52
140
1.0
102
RTVSPost2010PropOp52
 70
     0
102
RTVSPost2010Prop53
 90
        2
102
RTVSPost2010PropOp53
 70
     1
102
RTVSPost2010Prop54
  1
strokes_ogs.tif
102
RTVSPost2010PropOp54
 70
     1
102
RTVSPost2010Prop55
280
     0
102
RTVSPost2010PropOp55
 70
     1
102
RTVSPost2010Prop56
140
1.0
102
RTVSPost2010PropOp56
 70
     1
102
RTVSPost2010Prop57
140
1.0
102
RTVSPost2010PropOp57
 70
     1
  0
XRECORD
  5
3A53B
102
{ACAD_REACTORS
330
3A53A
102
}
330
3A53A
100
AcDbXrecord
280
     1
102
RTVSPost2010Prop28
280
     0
102
RTVSPost2010PropOp28
 70
     1
102
RTVSPost2010Prop29
280
     1
102
RTVSPost2010PropOp29
 70
     1
102
RTVSPost2010Prop30
280
     1
102
RTVSPost2010PropOp30
 70
     1
102
RTVSPost2010Prop31
280
     0
102
RTVSPost2010PropOp31
 70
     1
102
RTVSPost2010Prop32
280
     0
102
RTVSPost2010PropOp32
 70
     1
102
RTVSPost2010Prop33
280
     0
102
RTVSPost2010PropOp33
 70
     1
102
RTVSPost2010Prop34
280
     0
102
RTVSPost2010PropOp34
 70
     1
102
RTVSPost2010Prop35
280
     0
102
RTVSPost2010PropOp35
 70
     1
102
RTVSPost2010Prop36
280
     0
102
RTVSPost2010PropOp36
 70
     1
102
RTVSPost2010Prop37
 90
       50
102
RTVSPost2010PropOp37
 70
     1
102
RTVSPost2010Prop38
140
0.0
102
RTVSPost2010PropOp38
 70
     1
102
RTVSPost2010Prop39
140
1.0
102
RTVSPost2010PropOp39
 70
     1
102
RTVSPost2010Prop40
 90
        0
102
RTVSPost2010PropOp40
 70
     1
102
RTVSPost2010Prop41ColorIndex
 90
       18
102
RTVSPost2010Prop41ColorRGB
 90
        0
102
RTVSPost2010PropOp41
 70
     1
102
RTVSPost2010Prop42
 90
       50
102
RTVSPost2010PropOp42
 70
     1
102
RTVSPost2010Prop43
 90
        3
102
RTVSPost2010PropOp43
 70
     1
102
RTVSPost2010Prop44ColorIndex
 90
        5
102
RTVSPost2010Prop44ColorRGB
 90
      255
102
RTVSPost2010PropOp44
 70
     1
102
RTVSPost2010Prop45
280
     0
102
RTVSPost2010PropOp45
 70
     1
102
RTVSPost2010Prop46
 90
       50
102
RTVSPost2010PropOp46
 70
     1
102
RTVSPost2010Prop47
 90
       50
102
RTVSPost2010PropOp47
 70
     1
102
RTVSPost2010Prop48
 90
       50
102
RTVSPost2010PropOp48
 70
     1
102
RTVSPost2010Prop49
280
     0
102
RTVSPost2010PropOp49
 70
     1
102
RTVSPost2010Prop50
 90
       50
102
RTVSPost2010PropOp50
 70
     1
102
RTVSPost2010Prop51ColorIndex
 90
      256
102
RTVSPost2010Prop51ColorRGB
 90
-16777216
102
RTVSPost2010PropOp51
 70
     0
102
RTVSPost2010Prop52
140
1.0
102
RTVSPost2010PropOp52
 70
     0
102
RTVSPost2010Prop53
 90
        2
102
RTVSPost2010PropOp53
 70
     1
102
RTVSPost2010Prop54
  1
strokes_ogs.tif
102
RTVSPost2010PropOp54
 70
     1
102
RTVSPost2010Prop55
280
     0
102
RTVSPost2010PropOp55
 70
     1
102
RTVSPost2010Prop56
140
1.0
102
RTVSPost2010PropOp56
 70
     1
102
RTVSPost2010Prop57
140
1.0
102
RTVSPost2010PropOp57
 70
     1
  0
XRECORD
  5
3A54B
102
{ACAD_REACTORS
330
3A54A
102
}
330
3A54A
100
AcDbXrecord
280
     1
102
RTVSPost2010Prop28
280
     0
102
RTVSPost2010PropOp28
 70
     1
102
RTVSPost2010Prop29
280
     1
102
RTVSPost2010PropOp29
 70
     1
102
RTVSPost2010Prop30
280
     1
102
RTVSPost2010PropOp30
 70
     1
102
RTVSPost2010Prop31
280
     0
102
RTVSPost2010PropOp31
 70
     1
102
RTVSPost2010Prop32
280
     0
102
RTVSPost2010PropOp32
 70
     1
102
RTVSPost2010Prop33
280
     0
102
RTVSPost2010PropOp33
 70
     1
102
RTVSPost2010Prop34
280
     0
102
RTVSPost2010PropOp34
 70
     1
102
RTVSPost2010Prop35
280
     0
102
RTVSPost2010PropOp35
 70
     1
102
RTVSPost2010Prop36
280
     0
102
RTVSPost2010PropOp36
 70
     1
102
RTVSPost2010Prop37
 90
       50
102
RTVSPost2010PropOp37
 70
     1
102
RTVSPost2010Prop38
140
0.0
102
RTVSPost2010PropOp38
 70
     1
102
RTVSPost2010Prop39
140
1.0
102
RTVSPost2010PropOp39
 70
     1
102
RTVSPost2010Prop40
 90
        0
102
RTVSPost2010PropOp40
 70
     1
102
RTVSPost2010Prop41ColorIndex
 90
       18
102
RTVSPost2010Prop41ColorRGB
 90
        0
102
RTVSPost2010PropOp41
 70
     1
102
RTVSPost2010Prop42
 90
       50
102
RTVSPost2010PropOp42
 70
     1
102
RTVSPost2010Prop43
 90
        3
102
RTVSPost2010PropOp43
 70
     1
102
RTVSPost2010Prop44ColorIndex
 90
        5
102
RTVSPost2010Prop44ColorRGB
 90
      255
102
RTVSPost2010PropOp44
 70
     1
102
RTVSPost2010Prop45
280
     0
102
RTVSPost2010PropOp45
 70
     1
102
RTVSPost2010Prop46
 90
       50
102
RTVSPost2010PropOp46
 70
     1
102
RTVSPost2010Prop47
 90
       50
102
RTVSPost2010PropOp47
 70
     1
102
RTVSPost2010Prop48
 90
       50
102
RTVSPost2010PropOp48
 70
     1
102
RTVSPost2010Prop49
280
     0
102
RTVSPost2010PropOp49
 70
     1
102
RTVSPost2010Prop50
 90
       50
102
RTVSPost2010PropOp50
 70
     1
102
RTVSPost2010Prop51ColorIndex
 90
      256
102
RTVSPost2010Prop51ColorRGB
 90
-16777216
102
RTVSPost2010PropOp51
 70
     0
102
RTVSPost2010Prop52
140
1.0
102
RTVSPost2010PropOp52
 70
     0
102
RTVSPost2010Prop53
 90
        2
102
RTVSPost2010PropOp53
 70
     1
102
RTVSPost2010Prop54
  1
strokes_ogs.tif
102
RTVSPost2010PropOp54
 70
     1
102
RTVSPost2010Prop55
280
     0
102
RTVSPost2010PropOp55
 70
     1
102
RTVSPost2010Prop56
140
1.0
102
RTVSPost2010PropOp56
 70
     1
102
RTVSPost2010Prop57
140
1.0
102
RTVSPost2010PropOp57
 70
     1
  0
XRECORD
  5
3A543
102
{ACAD_REACTORS
330
3A542
102
}
330
3A542
100
AcDbXrecord
280
     1
102
RTVSPost2010Prop28
280
     0
102
RTVSPost2010PropOp28
 70
     1
102
RTVSPost2010Prop29
280
     1
102
RTVSPost2010PropOp29
 70
     1
102
RTVSPost2010Prop30
280
     1
102
RTVSPost2010PropOp30
 70
     1
102
RTVSPost2010Prop31
280
     0
102
RTVSPost2010PropOp31
 70
     1
102
RTVSPost2010Prop32
280
     0
102
RTVSPost2010PropOp32
 70
     1
102
RTVSPost2010Prop33
280
     0
102
RTVSPost2010PropOp33
 70
     1
102
RTVSPost2010Prop34
280
     0
102
RTVSPost2010PropOp34
 70
     1
102
RTVSPost2010Prop35
280
     0
102
RTVSPost2010PropOp35
 70
     1
102
RTVSPost2010Prop36
280
     0
102
RTVSPost2010PropOp36
 70
     1
102
RTVSPost2010Prop37
 90
       50
102
RTVSPost2010PropOp37
 70
     1
102
RTVSPost2010Prop38
140
0.0
102
RTVSPost2010PropOp38
 70
     1
102
RTVSPost2010Prop39
140
1.0
102
RTVSPost2010PropOp39
 70
     1
102
RTVSPost2010Prop40
 90
        0
102
RTVSPost2010PropOp40
 70
     1
102
RTVSPost2010Prop41ColorIndex
 90
       18
102
RTVSPost2010Prop41ColorRGB
 90
        0
102
RTVSPost2010PropOp41
 70
     1
102
RTVSPost2010Prop42
 90
       50
102
RTVSPost2010PropOp42
 70
     1
102
RTVSPost2010Prop43
 90
        3
102
RTVSPost2010PropOp43
 70
     1
102
RTVSPost2010Prop44ColorIndex
 90
        5
102
RTVSPost2010Prop44ColorRGB
 90
      255
102
RTVSPost2010PropOp44
 70
     1
102
RTVSPost2010Prop45
280
     0
102
RTVSPost2010PropOp45
 70
     1
102
RTVSPost2010Prop46
 90
       50
102
RTVSPost2010PropOp46
 70
     1
102
RTVSPost2010Prop47
 90
       50
102
RTVSPost2010PropOp47
 70
     1
102
RTVSPost2010Prop48
 90
       50
102
RTVSPost2010PropOp48
 70
     1
102
RTVSPost2010Prop49
280
     0
102
RTVSPost2010PropOp49
 70
     1
102
RTVSPost2010Prop50
 90
       50
102
RTVSPost2010PropOp50
 70
     1
102
RTVSPost2010Prop51ColorIndex
 90
      256
102
RTVSPost2010Prop51ColorRGB
 90
-16777216
102
RTVSPost2010PropOp51
 70
     0
102
RTVSPost2010Prop52
140
1.0
102
RTVSPost2010PropOp52
 70
     0
102
RTVSPost2010Prop53
 90
        2
102
RTVSPost2010PropOp53
 70
     1
102
RTVSPost2010Prop54
  1
strokes_ogs.tif
102
RTVSPost2010PropOp54
 70
     1
102
RTVSPost2010Prop55
280
     0
102
RTVSPost2010PropOp55
 70
     1
102
RTVSPost2010Prop56
140
1.0
102
RTVSPost2010PropOp56
 70
     1
102
RTVSPost2010Prop57
140
1.0
102
RTVSPost2010PropOp57
 70
     1
  0
XRECORD
  5
3A527
102
{ACAD_REACTORS
330
3A526
102
}
330
3A526
100
AcDbXrecord
280
     1
102
RTVSPost2010Prop28
280
     0
102
RTVSPost2010PropOp28
 70
     1
102
RTVSPost2010Prop29
280
     1
102
RTVSPost2010PropOp29
 70
     1
102
RTVSPost2010Prop30
280
     1
102
RTVSPost2010PropOp30
 70
     1
102
RTVSPost2010Prop31
280
     0
102
RTVSPost2010PropOp31
 70
     1
102
RTVSPost2010Prop32
280
     0
102
RTVSPost2010PropOp32
 70
     1
102
RTVSPost2010Prop33
280
     0
102
RTVSPost2010PropOp33
 70
     1
102
RTVSPost2010Prop34
280
     0
102
RTVSPost2010PropOp34
 70
     1
102
RTVSPost2010Prop35
280
     0
102
RTVSPost2010PropOp35
 70
     1
102
RTVSPost2010Prop36
280
     0
102
RTVSPost2010PropOp36
 70
     1
102
RTVSPost2010Prop37
 90
       50
102
RTVSPost2010PropOp37
 70
     1
102
RTVSPost2010Prop38
140
0.0
102
RTVSPost2010PropOp38
 70
     1
102
RTVSPost2010Prop39
140
1.0
102
RTVSPost2010PropOp39
 70
     1
102
RTVSPost2010Prop40
 90
        0
102
RTVSPost2010PropOp40
 70
     1
102
RTVSPost2010Prop41ColorIndex
 90
       18
102
RTVSPost2010Prop41ColorRGB
 90
        0
102
RTVSPost2010PropOp41
 70
     1
102
RTVSPost2010Prop42
 90
       50
102
RTVSPost2010PropOp42
 70
     1
102
RTVSPost2010Prop43
 90
        3
102
RTVSPost2010PropOp43
 70
     1
102
RTVSPost2010Prop44ColorIndex
 90
        5
102
RTVSPost2010Prop44ColorRGB
 90
      255
102
RTVSPost2010PropOp44
 70
     1
102
RTVSPost2010Prop45
280
     0
102
RTVSPost2010PropOp45
 70
     1
102
RTVSPost2010Prop46
 90
       50
102
RTVSPost2010PropOp46
 70
     1
102
RTVSPost2010Prop47
 90
       50
102
RTVSPost2010PropOp47
 70
     1
102
RTVSPost2010Prop48
 90
       50
102
RTVSPost2010PropOp48
 70
     1
102
RTVSPost2010Prop49
280
     0
102
RTVSPost2010PropOp49
 70
     1
102
RTVSPost2010Prop50
 90
       50
102
RTVSPost2010PropOp50
 70
     1
102
RTVSPost2010Prop51ColorIndex
 90
      256
102
RTVSPost2010Prop51ColorRGB
 90
-16777216
102
RTVSPost2010PropOp51
 70
     0
102
RTVSPost2010Prop52
140
1.0
102
RTVSPost2010PropOp52
 70
     0
102
RTVSPost2010Prop53
 90
        2
102
RTVSPost2010PropOp53
 70
     1
102
RTVSPost2010Prop54
  1
strokes_ogs.tif
102
RTVSPost2010PropOp54
 70
     1
102
RTVSPost2010Prop55
280
     0
102
RTVSPost2010PropOp55
 70
     1
102
RTVSPost2010Prop56
140
1.0
102
RTVSPost2010PropOp56
 70
     1
102
RTVSPost2010Prop57
140
1.0
102
RTVSPost2010PropOp57
 70
     1
  0
XRECORD
  5
3A529
102
{ACAD_REACTORS
330
3A528
102
}
330
3A528
100
AcDbXrecord
280
     1
102
RTVSPost2010Prop28
280
     0
102
RTVSPost2010PropOp28
 70
     1
102
RTVSPost2010Prop29
280
     1
102
RTVSPost2010PropOp29
 70
     1
102
RTVSPost2010Prop30
280
     1
102
RTVSPost2010PropOp30
 70
     1
102
RTVSPost2010Prop31
280
     0
102
RTVSPost2010PropOp31
 70
     1
102
RTVSPost2010Prop32
280
     0
102
RTVSPost2010PropOp32
 70
     1
102
RTVSPost2010Prop33
280
     0
102
RTVSPost2010PropOp33
 70
     1
102
RTVSPost2010Prop34
280
     0
102
RTVSPost2010PropOp34
 70
     1
102
RTVSPost2010Prop35
280
     0
102
RTVSPost2010PropOp35
 70
     1
102
RTVSPost2010Prop36
280
     0
102
RTVSPost2010PropOp36
 70
     1
102
RTVSPost2010Prop37
 90
       50
102
RTVSPost2010PropOp37
 70
     1
102
RTVSPost2010Prop38
140
0.0
102
RTVSPost2010PropOp38
 70
     1
102
RTVSPost2010Prop39
140
1.0
102
RTVSPost2010PropOp39
 70
     1
102
RTVSPost2010Prop40
 90
        0
102
RTVSPost2010PropOp40
 70
     1
102
RTVSPost2010Prop41ColorIndex
 90
       18
102
RTVSPost2010Prop41ColorRGB
 90
        0
102
RTVSPost2010PropOp41
 70
     1
102
RTVSPost2010Prop42
 90
       50
102
RTVSPost2010PropOp42
 70
     1
102
RTVSPost2010Prop43
 90
        3
102
RTVSPost2010PropOp43
 70
     1
102
RTVSPost2010Prop44ColorIndex
 90
        5
102
RTVSPost2010Prop44ColorRGB
 90
      255
102
RTVSPost2010PropOp44
 70
     1
102
RTVSPost2010Prop45
280
     0
102
RTVSPost2010PropOp45
 70
     1
102
RTVSPost2010Prop46
 90
       50
102
RTVSPost2010PropOp46
 70
     1
102
RTVSPost2010Prop47
 90
       50
102
RTVSPost2010PropOp47
 70
     1
102
RTVSPost2010Prop48
 90
       50
102
RTVSPost2010PropOp48
 70
     1
102
RTVSPost2010Prop49
280
     0
102
RTVSPost2010PropOp49
 70
     1
102
RTVSPost2010Prop50
 90
       50
102
RTVSPost2010PropOp50
 70
     1
102
RTVSPost2010Prop51ColorIndex
 90
      256
102
RTVSPost2010Prop51ColorRGB
 90
-16777216
102
RTVSPost2010PropOp51
 70
     0
102
RTVSPost2010Prop52
140
1.0
102
RTVSPost2010PropOp52
 70
     0
102
RTVSPost2010Prop53
 90
        2
102
RTVSPost2010PropOp53
 70
     1
102
RTVSPost2010Prop54
  1
strokes_ogs.tif
102
RTVSPost2010PropOp54
 70
     1
102
RTVSPost2010Prop55
280
     0
102
RTVSPost2010PropOp55
 70
     1
102
RTVSPost2010Prop56
140
1.0
102
RTVSPost2010PropOp56
 70
     1
102
RTVSPost2010Prop57
140
1.0
102
RTVSPost2010PropOp57
 70
     1
  0
XRECORD
  5
3A52B
102
{ACAD_REACTORS
330
3A52A
102
}
330
3A52A
100
AcDbXrecord
280
     1
102
RTVSPost2010Prop28
280
     0
102
RTVSPost2010PropOp28
 70
     1
102
RTVSPost2010Prop29
280
     1
102
RTVSPost2010PropOp29
 70
     1
102
RTVSPost2010Prop30
280
     1
102
RTVSPost2010PropOp30
 70
     1
102
RTVSPost2010Prop31
280
     0
102
RTVSPost2010PropOp31
 70
     1
102
RTVSPost2010Prop32
280
     0
102
RTVSPost2010PropOp32
 70
     1
102
RTVSPost2010Prop33
280
     0
102
RTVSPost2010PropOp33
 70
     1
102
RTVSPost2010Prop34
280
     0
102
RTVSPost2010PropOp34
 70
     1
102
RTVSPost2010Prop35
280
     0
102
RTVSPost2010PropOp35
 70
     1
102
RTVSPost2010Prop36
280
     0
102
RTVSPost2010PropOp36
 70
     1
102
RTVSPost2010Prop37
 90
       50
102
RTVSPost2010PropOp37
 70
     1
102
RTVSPost2010Prop38
140
0.0
102
RTVSPost2010PropOp38
 70
     1
102
RTVSPost2010Prop39
140
1.0
102
RTVSPost2010PropOp39
 70
     1
102
RTVSPost2010Prop40
 90
        0
102
RTVSPost2010PropOp40
 70
     1
102
RTVSPost2010Prop41ColorIndex
 90
       18
102
RTVSPost2010Prop41ColorRGB
 90
        0
102
RTVSPost2010PropOp41
 70
     1
102
RTVSPost2010Prop42
 90
       50
102
RTVSPost2010PropOp42
 70
     1
102
RTVSPost2010Prop43
 90
        3
102
RTVSPost2010PropOp43
 70
     1
102
RTVSPost2010Prop44ColorIndex
 90
        5
102
RTVSPost2010Prop44ColorRGB
 90
      255
102
RTVSPost2010PropOp44
 70
     1
102
RTVSPost2010Prop45
280
     0
102
RTVSPost2010PropOp45
 70
     1
102
RTVSPost2010Prop46
 90
       50
102
RTVSPost2010PropOp46
 70
     1
102
RTVSPost2010Prop47
 90
       50
102
RTVSPost2010PropOp47
 70
     1
102
RTVSPost2010Prop48
 90
       50
102
RTVSPost2010PropOp48
 70
     1
102
RTVSPost2010Prop49
280
     0
102
RTVSPost2010PropOp49
 70
     1
102
RTVSPost2010Prop50
 90
       50
102
RTVSPost2010PropOp50
 70
     1
102
RTVSPost2010Prop51ColorIndex
 90
      256
102
RTVSPost2010Prop51ColorRGB
 90
-16777216
102
RTVSPost2010PropOp51
 70
     0
102
RTVSPost2010Prop52
140
1.0
102
RTVSPost2010PropOp52
 70
     0
102
RTVSPost2010Prop53
 90
        2
102
RTVSPost2010PropOp53
 70
     1
102
RTVSPost2010Prop54
  1
strokes_ogs.tif
102
RTVSPost2010PropOp54
 70
     1
102
RTVSPost2010Prop55
280
     0
102
RTVSPost2010PropOp55
 70
     1
102
RTVSPost2010Prop56
140
1.0
102
RTVSPost2010PropOp56
 70
     1
102
RTVSPost2010Prop57
140
1.0
102
RTVSPost2010PropOp57
 70
     1
  0
XRECORD
  5
3A52D
102
{ACAD_REACTORS
330
3A52C
102
}
330
3A52C
100
AcDbXrecord
280
     1
102
RTVSPost2010Prop28
280
     0
102
RTVSPost2010PropOp28
 70
     1
102
RTVSPost2010Prop29
280
     1
102
RTVSPost2010PropOp29
 70
     1
102
RTVSPost2010Prop30
280
     1
102
RTVSPost2010PropOp30
 70
     1
102
RTVSPost2010Prop31
280
     0
102
RTVSPost2010PropOp31
 70
     1
102
RTVSPost2010Prop32
280
     0
102
RTVSPost2010PropOp32
 70
     1
102
RTVSPost2010Prop33
280
     0
102
RTVSPost2010PropOp33
 70
     1
102
RTVSPost2010Prop34
280
     0
102
RTVSPost2010PropOp34
 70
     1
102
RTVSPost2010Prop35
280
     0
102
RTVSPost2010PropOp35
 70
     1
102
RTVSPost2010Prop36
280
     0
102
RTVSPost2010PropOp36
 70
     1
102
RTVSPost2010Prop37
 90
       50
102
RTVSPost2010PropOp37
 70
     1
102
RTVSPost2010Prop38
140
0.0
102
RTVSPost2010PropOp38
 70
     1
102
RTVSPost2010Prop39
140
1.0
102
RTVSPost2010PropOp39
 70
     1
102
RTVSPost2010Prop40
 90
        0
102
RTVSPost2010PropOp40
 70
     1
102
RTVSPost2010Prop41ColorIndex
 90
       18
102
RTVSPost2010Prop41ColorRGB
 90
        0
102
RTVSPost2010PropOp41
 70
     1
102
RTVSPost2010Prop42
 90
       50
102
RTVSPost2010PropOp42
 70
     1
102
RTVSPost2010Prop43
 90
        3
102
RTVSPost2010PropOp43
 70
     1
102
RTVSPost2010Prop44ColorIndex
 90
        5
102
RTVSPost2010Prop44ColorRGB
 90
      255
102
RTVSPost2010PropOp44
 70
     1
102
RTVSPost2010Prop45
280
     0
102
RTVSPost2010PropOp45
 70
     1
102
RTVSPost2010Prop46
 90
       50
102
RTVSPost2010PropOp46
 70
     1
102
RTVSPost2010Prop47
 90
       50
102
RTVSPost2010PropOp47
 70
     1
102
RTVSPost2010Prop48
 90
       50
102
RTVSPost2010PropOp48
 70
     1
102
RTVSPost2010Prop49
280
     0
102
RTVSPost2010PropOp49
 70
     1
102
RTVSPost2010Prop50
 90
       50
102
RTVSPost2010PropOp50
 70
     1
102
RTVSPost2010Prop51ColorIndex
 90
      256
102
RTVSPost2010Prop51ColorRGB
 90
-16777216
102
RTVSPost2010PropOp51
 70
     0
102
RTVSPost2010Prop52
140
1.0
102
RTVSPost2010PropOp52
 70
     0
102
RTVSPost2010Prop53
 90
        2
102
RTVSPost2010PropOp53
 70
     1
102
RTVSPost2010Prop54
  1
strokes_ogs.tif
102
RTVSPost2010PropOp54
 70
     1
102
RTVSPost2010Prop55
280
     0
102
RTVSPost2010PropOp55
 70
     1
102
RTVSPost2010Prop56
140
1.0
102
RTVSPost2010PropOp56
 70
     1
102
RTVSPost2010Prop57
140
1.0
102
RTVSPost2010PropOp57
 70
     1
  0
XRECORD
  5
3A54F
102
{ACAD_REACTORS
330
3A54E
102
}
330
3A54E
100
AcDbXrecord
280
     1
102
RTVSPost2010Prop28
280
     0
102
RTVSPost2010PropOp28
 70
     1
102
RTVSPost2010Prop29
280
     1
102
RTVSPost2010PropOp29
 70
     1
102
RTVSPost2010Prop30
280
     1
102
RTVSPost2010PropOp30
 70
     1
102
RTVSPost2010Prop31
280
     0
102
RTVSPost2010PropOp31
 70
     1
102
RTVSPost2010Prop32
280
     0
102
RTVSPost2010PropOp32
 70
     1
102
RTVSPost2010Prop33
280
     0
102
RTVSPost2010PropOp33
 70
     1
102
RTVSPost2010Prop34
280
     0
102
RTVSPost2010PropOp34
 70
     1
102
RTVSPost2010Prop35
280
     0
102
RTVSPost2010PropOp35
 70
     1
102
RTVSPost2010Prop36
280
     0
102
RTVSPost2010PropOp36
 70
     1
102
RTVSPost2010Prop37
 90
       50
102
RTVSPost2010PropOp37
 70
     1
102
RTVSPost2010Prop38
140
0.0
102
RTVSPost2010PropOp38
 70
     1
102
RTVSPost2010Prop39
140
1.0
102
RTVSPost2010PropOp39
 70
     1
102
RTVSPost2010Prop40
 90
        0
102
RTVSPost2010PropOp40
 70
     1
102
RTVSPost2010Prop41ColorIndex
 90
       18
102
RTVSPost2010Prop41ColorRGB
 90
        0
102
RTVSPost2010PropOp41
 70
     1
102
RTVSPost2010Prop42
 90
       50
102
RTVSPost2010PropOp42
 70
     1
102
RTVSPost2010Prop43
 90
        3
102
RTVSPost2010PropOp43
 70
     1
102
RTVSPost2010Prop44ColorIndex
 90
        5
102
RTVSPost2010Prop44ColorRGB
 90
      255
102
RTVSPost2010PropOp44
 70
     1
102
RTVSPost2010Prop45
280
     0
102
RTVSPost2010PropOp45
 70
     1
102
RTVSPost2010Prop46
 90
       50
102
RTVSPost2010PropOp46
 70
     1
102
RTVSPost2010Prop47
 90
       50
102
RTVSPost2010PropOp47
 70
     1
102
RTVSPost2010Prop48
 90
       50
102
RTVSPost2010PropOp48
 70
     1
102
RTVSPost2010Prop49
280
     0
102
RTVSPost2010PropOp49
 70
     1
102
RTVSPost2010Prop50
 90
       50
102
RTVSPost2010PropOp50
 70
     1
102
RTVSPost2010Prop51ColorIndex
 90
      256
102
RTVSPost2010Prop51ColorRGB
 90
-16777216
102
RTVSPost2010PropOp51
 70
     0
102
RTVSPost2010Prop52
140
1.0
102
RTVSPost2010PropOp52
 70
     0
102
RTVSPost2010Prop53
 90
        2
102
RTVSPost2010PropOp53
 70
     1
102
RTVSPost2010Prop54
  1
strokes_ogs.tif
102
RTVSPost2010PropOp54
 70
     1
102
RTVSPost2010Prop55
280
     0
102
RTVSPost2010PropOp55
 70
     1
102
RTVSPost2010Prop56
140
1.0
102
RTVSPost2010PropOp56
 70
     1
102
RTVSPost2010Prop57
140
1.0
102
RTVSPost2010PropOp57
 70
     1
  0
XRECORD
  5
3A547
102
{ACAD_REACTORS
330
3A546
102
}
330
3A546
100
AcDbXrecord
280
     1
102
RTVSPost2010Prop28
280
     0
102
RTVSPost2010PropOp28
 70
     1
102
RTVSPost2010Prop29
280
     1
102
RTVSPost2010PropOp29
 70
     1
102
RTVSPost2010Prop30
280
     1
102
RTVSPost2010PropOp30
 70
     1
102
RTVSPost2010Prop31
280
     0
102
RTVSPost2010PropOp31
 70
     1
102
RTVSPost2010Prop32
280
     0
102
RTVSPost2010PropOp32
 70
     1
102
RTVSPost2010Prop33
280
     0
102
RTVSPost2010PropOp33
 70
     1
102
RTVSPost2010Prop34
280
     0
102
RTVSPost2010PropOp34
 70
     1
102
RTVSPost2010Prop35
280
     0
102
RTVSPost2010PropOp35
 70
     1
102
RTVSPost2010Prop36
280
     0
102
RTVSPost2010PropOp36
 70
     1
102
RTVSPost2010Prop37
 90
       50
102
RTVSPost2010PropOp37
 70
     1
102
RTVSPost2010Prop38
140
0.0
102
RTVSPost2010PropOp38
 70
     1
102
RTVSPost2010Prop39
140
1.0
102
RTVSPost2010PropOp39
 70
     1
102
RTVSPost2010Prop40
 90
        0
102
RTVSPost2010PropOp40
 70
     1
102
RTVSPost2010Prop41ColorIndex
 90
       18
102
RTVSPost2010Prop41ColorRGB
 90
        0
102
RTVSPost2010PropOp41
 70
     1
102
RTVSPost2010Prop42
 90
       50
102
RTVSPost2010PropOp42
 70
     1
102
RTVSPost2010Prop43
 90
        3
102
RTVSPost2010PropOp43
 70
     1
102
RTVSPost2010Prop44ColorIndex
 90
        5
102
RTVSPost2010Prop44ColorRGB
 90
      255
102
RTVSPost2010PropOp44
 70
     1
102
RTVSPost2010Prop45
280
     0
102
RTVSPost2010PropOp45
 70
     1
102
RTVSPost2010Prop46
 90
       50
102
RTVSPost2010PropOp46
 70
     1
102
RTVSPost2010Prop47
 90
       50
102
RTVSPost2010PropOp47
 70
     1
102
RTVSPost2010Prop48
 90
       50
102
RTVSPost2010PropOp48
 70
     1
102
RTVSPost2010Prop49
280
     0
102
RTVSPost2010PropOp49
 70
     1
102
RTVSPost2010Prop50
 90
       50
102
RTVSPost2010PropOp50
 70
     1
102
RTVSPost2010Prop51ColorIndex
 90
      256
102
RTVSPost2010Prop51ColorRGB
 90
-16777216
102
RTVSPost2010PropOp51
 70
     0
102
RTVSPost2010Prop52
140
1.0
102
RTVSPost2010PropOp52
 70
     0
102
RTVSPost2010Prop53
 90
        2
102
RTVSPost2010PropOp53
 70
     1
102
RTVSPost2010Prop54
  1
strokes_ogs.tif
102
RTVSPost2010PropOp54
 70
     1
102
RTVSPost2010Prop55
280
     0
102
RTVSPost2010PropOp55
 70
     1
102
RTVSPost2010Prop56
140
1.0
102
RTVSPost2010PropOp56
 70
     1
102
RTVSPost2010Prop57
140
1.0
102
RTVSPost2010PropOp57
 70
     1
  0
XRECORD
  5
3A541
102
{ACAD_REACTORS
330
3A540
102
}
330
3A540
100
AcDbXrecord
280
     1
102
RTVSPost2010Prop28
280
     0
102
RTVSPost2010PropOp28
 70
     1
102
RTVSPost2010Prop29
280
     1
102
RTVSPost2010PropOp29
 70
     1
102
RTVSPost2010Prop30
280
     1
102
RTVSPost2010PropOp30
 70
     1
102
RTVSPost2010Prop31
280
     0
102
RTVSPost2010PropOp31
 70
     1
102
RTVSPost2010Prop32
280
     0
102
RTVSPost2010PropOp32
 70
     1
102
RTVSPost2010Prop33
280
     0
102
RTVSPost2010PropOp33
 70
     1
102
RTVSPost2010Prop34
280
     0
102
RTVSPost2010PropOp34
 70
     1
102
RTVSPost2010Prop35
280
     0
102
RTVSPost2010PropOp35
 70
     1
102
RTVSPost2010Prop36
280
     0
102
RTVSPost2010PropOp36
 70
     1
102
RTVSPost2010Prop37
 90
       50
102
RTVSPost2010PropOp37
 70
     1
102
RTVSPost2010Prop38
140
0.0
102
RTVSPost2010PropOp38
 70
     1
102
RTVSPost2010Prop39
140
1.0
102
RTVSPost2010PropOp39
 70
     1
102
RTVSPost2010Prop40
 90
        0
102
RTVSPost2010PropOp40
 70
     1
102
RTVSPost2010Prop41ColorIndex
 90
       18
102
RTVSPost2010Prop41ColorRGB
 90
        0
102
RTVSPost2010PropOp41
 70
     1
102
RTVSPost2010Prop42
 90
       50
102
RTVSPost2010PropOp42
 70
     1
102
RTVSPost2010Prop43
 90
        3
102
RTVSPost2010PropOp43
 70
     1
102
RTVSPost2010Prop44ColorIndex
 90
        5
102
RTVSPost2010Prop44ColorRGB
 90
      255
102
RTVSPost2010PropOp44
 70
     1
102
RTVSPost2010Prop45
280
     0
102
RTVSPost2010PropOp45
 70
     1
102
RTVSPost2010Prop46
 90
       50
102
RTVSPost2010PropOp46
 70
     1
102
RTVSPost2010Prop47
 90
       50
102
RTVSPost2010PropOp47
 70
     1
102
RTVSPost2010Prop48
 90
       50
102
RTVSPost2010PropOp48
 70
     1
102
RTVSPost2010Prop49
280
     0
102
RTVSPost2010PropOp49
 70
     1
102
RTVSPost2010Prop50
 90
       50
102
RTVSPost2010PropOp50
 70
     1
102
RTVSPost2010Prop51ColorIndex
 90
      256
102
RTVSPost2010Prop51ColorRGB
 90
-16777216
102
RTVSPost2010PropOp51
 70
     0
102
RTVSPost2010Prop52
140
1.0
102
RTVSPost2010PropOp52
 70
     0
102
RTVSPost2010Prop53
 90
        2
102
RTVSPost2010PropOp53
 70
     1
102
RTVSPost2010Prop54
  1
strokes_ogs.tif
102
RTVSPost2010PropOp54
 70
     1
102
RTVSPost2010Prop55
280
     0
102
RTVSPost2010PropOp55
 70
     1
102
RTVSPost2010Prop56
140
1.0
102
RTVSPost2010PropOp56
 70
     1
102
RTVSPost2010Prop57
140
1.0
102
RTVSPost2010PropOp57
 70
     1
  0
XRECORD
  5
3A549
102
{ACAD_REACTORS
330
3A548
102
}
330
3A548
100
AcDbXrecord
280
     1
102
RTVSPost2010Prop28
280
     0
102
RTVSPost2010PropOp28
 70
     1
102
RTVSPost2010Prop29
280
     1
102
RTVSPost2010PropOp29
 70
     1
102
RTVSPost2010Prop30
280
     1
102
RTVSPost2010PropOp30
 70
     1
102
RTVSPost2010Prop31
280
     0
102
RTVSPost2010PropOp31
 70
     1
102
RTVSPost2010Prop32
280
     0
102
RTVSPost2010PropOp32
 70
     1
102
RTVSPost2010Prop33
280
     0
102
RTVSPost2010PropOp33
 70
     1
102
RTVSPost2010Prop34
280
     0
102
RTVSPost2010PropOp34
 70
     1
102
RTVSPost2010Prop35
280
     0
102
RTVSPost2010PropOp35
 70
     1
102
RTVSPost2010Prop36
280
     0
102
RTVSPost2010PropOp36
 70
     1
102
RTVSPost2010Prop37
 90
       50
102
RTVSPost2010PropOp37
 70
     1
102
RTVSPost2010Prop38
140
0.0
102
RTVSPost2010PropOp38
 70
     1
102
RTVSPost2010Prop39
140
1.0
102
RTVSPost2010PropOp39
 70
     1
102
RTVSPost2010Prop40
 90
        0
102
RTVSPost2010PropOp40
 70
     1
102
RTVSPost2010Prop41ColorIndex
 90
       18
102
RTVSPost2010Prop41ColorRGB
 90
        0
102
RTVSPost2010PropOp41
 70
     1
102
RTVSPost2010Prop42
 90
       50
102
RTVSPost2010PropOp42
 70
     1
102
RTVSPost2010Prop43
 90
        3
102
RTVSPost2010PropOp43
 70
     1
102
RTVSPost2010Prop44ColorIndex
 90
        5
102
RTVSPost2010Prop44ColorRGB
 90
      255
102
RTVSPost2010PropOp44
 70
     1
102
RTVSPost2010Prop45
280
     0
102
RTVSPost2010PropOp45
 70
     1
102
RTVSPost2010Prop46
 90
       50
102
RTVSPost2010PropOp46
 70
     1
102
RTVSPost2010Prop47
 90
       50
102
RTVSPost2010PropOp47
 70
     1
102
RTVSPost2010Prop48
 90
       50
102
RTVSPost2010PropOp48
 70
     1
102
RTVSPost2010Prop49
280
     0
102
RTVSPost2010PropOp49
 70
     1
102
RTVSPost2010Prop50
 90
       50
102
RTVSPost2010PropOp50
 70
     1
102
RTVSPost2010Prop51ColorIndex
 90
      256
102
RTVSPost2010Prop51ColorRGB
 90
-16777216
102
RTVSPost2010PropOp51
 70
     0
102
RTVSPost2010Prop52
140
1.0
102
RTVSPost2010PropOp52
 70
     0
102
RTVSPost2010Prop53
 90
        2
102
RTVSPost2010PropOp53
 70
     1
102
RTVSPost2010Prop54
  1
strokes_ogs.tif
102
RTVSPost2010PropOp54
 70
     1
102
RTVSPost2010Prop55
280
     0
102
RTVSPost2010PropOp55
 70
     1
102
RTVSPost2010Prop56
140
1.0
102
RTVSPost2010PropOp56
 70
     1
102
RTVSPost2010Prop57
140
1.0
102
RTVSPost2010PropOp57
 70
     1
  0
XRECORD
  5
3A539
102
{ACAD_REACTORS
330
3A538
102
}
330
3A538
100
AcDbXrecord
280
     1
102
RTVSPost2010Prop28
280
     0
102
RTVSPost2010PropOp28
 70
     1
102
RTVSPost2010Prop29
280
     1
102
RTVSPost2010PropOp29
 70
     1
102
RTVSPost2010Prop30
280
     1
102
RTVSPost2010PropOp30
 70
     1
102
RTVSPost2010Prop31
280
     0
102
RTVSPost2010PropOp31
 70
     1
102
RTVSPost2010Prop32
280
     0
102
RTVSPost2010PropOp32
 70
     1
102
RTVSPost2010Prop33
280
     0
102
RTVSPost2010PropOp33
 70
     1
102
RTVSPost2010Prop34
280
     0
102
RTVSPost2010PropOp34
 70
     1
102
RTVSPost2010Prop35
280
     0
102
RTVSPost2010PropOp35
 70
     1
102
RTVSPost2010Prop36
280
     0
102
RTVSPost2010PropOp36
 70
     1
102
RTVSPost2010Prop37
 90
       50
102
RTVSPost2010PropOp37
 70
     1
102
RTVSPost2010Prop38
140
0.0
102
RTVSPost2010PropOp38
 70
     1
102
RTVSPost2010Prop39
140
1.0
102
RTVSPost2010PropOp39
 70
     1
102
RTVSPost2010Prop40
 90
        0
102
RTVSPost2010PropOp40
 70
     1
102
RTVSPost2010Prop41ColorIndex
 90
       18
102
RTVSPost2010Prop41ColorRGB
 90
        0
102
RTVSPost2010PropOp41
 70
     1
102
RTVSPost2010Prop42
 90
       50
102
RTVSPost2010PropOp42
 70
     1
102
RTVSPost2010Prop43
 90
        3
102
RTVSPost2010PropOp43
 70
     1
102
RTVSPost2010Prop44ColorIndex
 90
        5
102
RTVSPost2010Prop44ColorRGB
 90
      255
102
RTVSPost2010PropOp44
 70
     1
102
RTVSPost2010Prop45
280
     0
102
RTVSPost2010PropOp45
 70
     1
102
RTVSPost2010Prop46
 90
       50
102
RTVSPost2010PropOp46
 70
     1
102
RTVSPost2010Prop47
 90
       50
102
RTVSPost2010PropOp47
 70
     1
102
RTVSPost2010Prop48
 90
       50
102
RTVSPost2010PropOp48
 70
     1
102
RTVSPost2010Prop49
280
     0
102
RTVSPost2010PropOp49
 70
     1
102
RTVSPost2010Prop50
 90
       50
102
RTVSPost2010PropOp50
 70
     1
102
RTVSPost2010Prop51ColorIndex
 90
      256
102
RTVSPost2010Prop51ColorRGB
 90
-16777216
102
RTVSPost2010PropOp51
 70
     0
102
RTVSPost2010Prop52
140
1.0
102
RTVSPost2010PropOp52
 70
     0
102
RTVSPost2010Prop53
 90
        2
102
RTVSPost2010PropOp53
 70
     1
102
RTVSPost2010Prop54
  1
strokes_ogs.tif
102
RTVSPost2010PropOp54
 70
     1
102
RTVSPost2010Prop55
280
     0
102
RTVSPost2010PropOp55
 70
     1
102
RTVSPost2010Prop56
140
1.0
102
RTVSPost2010PropOp56
 70
     1
102
RTVSPost2010Prop57
140
1.0
102
RTVSPost2010PropOp57
 70
     1
  0
XRECORD
  5
3A559
102
{ACAD_REACTORS
330
3A558
102
}
330
3A558
100
AcDbXrecord
280
     1
102
RTVSPost2010Prop28
280
     0
102
RTVSPost2010PropOp28
 70
     1
102
RTVSPost2010Prop29
280
     1
102
RTVSPost2010PropOp29
 70
     1
102
RTVSPost2010Prop30
280
     1
102
RTVSPost2010PropOp30
 70
     1
102
RTVSPost2010Prop31
280
     0
102
RTVSPost2010PropOp31
 70
     1
102
RTVSPost2010Prop32
280
     0
102
RTVSPost2010PropOp32
 70
     1
102
RTVSPost2010Prop33
280
     0
102
RTVSPost2010PropOp33
 70
     1
102
RTVSPost2010Prop34
280
     0
102
RTVSPost2010PropOp34
 70
     1
102
RTVSPost2010Prop35
280
     0
102
RTVSPost2010PropOp35
 70
     1
102
RTVSPost2010Prop36
280
     0
102
RTVSPost2010PropOp36
 70
     1
102
RTVSPost2010Prop37
 90
       50
102
RTVSPost2010PropOp37
 70
     1
102
RTVSPost2010Prop38
140
0.0
102
RTVSPost2010PropOp38
 70
     1
102
RTVSPost2010Prop39
140
1.0
102
RTVSPost2010PropOp39
 70
     1
102
RTVSPost2010Prop40
 90
        0
102
RTVSPost2010PropOp40
 70
     1
102
RTVSPost2010Prop41ColorIndex
 90
       18
102
RTVSPost2010Prop41ColorRGB
 90
        0
102
RTVSPost2010PropOp41
 70
     1
102
RTVSPost2010Prop42
 90
       50
102
RTVSPost2010PropOp42
 70
     1
102
RTVSPost2010Prop43
 90
        3
102
RTVSPost2010PropOp43
 70
     1
102
RTVSPost2010Prop44ColorIndex
 90
        5
102
RTVSPost2010Prop44ColorRGB
 90
      255
102
RTVSPost2010PropOp44
 70
     1
102
RTVSPost2010Prop45
280
     0
102
RTVSPost2010PropOp45
 70
     1
102
RTVSPost2010Prop46
 90
       50
102
RTVSPost2010PropOp46
 70
     1
102
RTVSPost2010Prop47
 90
       50
102
RTVSPost2010PropOp47
 70
     1
102
RTVSPost2010Prop48
 90
       50
102
RTVSPost2010PropOp48
 70
     1
102
RTVSPost2010Prop49
280
     0
102
RTVSPost2010PropOp49
 70
     1
102
RTVSPost2010Prop50
 90
       50
102
RTVSPost2010PropOp50
 70
     1
102
RTVSPost2010Prop51ColorIndex
 90
      256
102
RTVSPost2010Prop51ColorRGB
 90
-16777216
102
RTVSPost2010PropOp51
 70
     0
102
RTVSPost2010Prop52
140
1.0
102
RTVSPost2010PropOp52
 70
     0
102
RTVSPost2010Prop53
 90
        2
102
RTVSPost2010PropOp53
 70
     1
102
RTVSPost2010Prop54
  1
strokes_ogs.tif
102
RTVSPost2010PropOp54
 70
     1
102
RTVSPost2010Prop55
280
     0
102
RTVSPost2010PropOp55
 70
     1
102
RTVSPost2010Prop56
140
1.0
102
RTVSPost2010PropOp56
 70
     1
102
RTVSPost2010Prop57
140
1.0
102
RTVSPost2010PropOp57
 70
     1
  0
XRECORD
  5
3A557
102
{ACAD_REACTORS
330
3A556
102
}
330
3A556
100
AcDbXrecord
280
     1
102
RTVSPost2010Prop28
280
     0
102
RTVSPost2010PropOp28
 70
     1
102
RTVSPost2010Prop29
280
     1
102
RTVSPost2010PropOp29
 70
     1
102
RTVSPost2010Prop30
280
     1
102
RTVSPost2010PropOp30
 70
     1
102
RTVSPost2010Prop31
280
     0
102
RTVSPost2010PropOp31
 70
     1
102
RTVSPost2010Prop32
280
     0
102
RTVSPost2010PropOp32
 70
     1
102
RTVSPost2010Prop33
280
     0
102
RTVSPost2010PropOp33
 70
     1
102
RTVSPost2010Prop34
280
     0
102
RTVSPost2010PropOp34
 70
     1
102
RTVSPost2010Prop35
280
     0
102
RTVSPost2010PropOp35
 70
     1
102
RTVSPost2010Prop36
280
     0
102
RTVSPost2010PropOp36
 70
     1
102
RTVSPost2010Prop37
 90
       50
102
RTVSPost2010PropOp37
 70
     1
102
RTVSPost2010Prop38
140
0.0
102
RTVSPost2010PropOp38
 70
     1
102
RTVSPost2010Prop39
140
1.0
102
RTVSPost2010PropOp39
 70
     1
102
RTVSPost2010Prop40
 90
        0
102
RTVSPost2010PropOp40
 70
     1
102
RTVSPost2010Prop41ColorIndex
 90
       18
102
RTVSPost2010Prop41ColorRGB
 90
        0
102
RTVSPost2010PropOp41
 70
     1
102
RTVSPost2010Prop42
 90
       50
102
RTVSPost2010PropOp42
 70
     1
102
RTVSPost2010Prop43
 90
        3
102
RTVSPost2010PropOp43
 70
     1
102
RTVSPost2010Prop44ColorIndex
 90
        5
102
RTVSPost2010Prop44ColorRGB
 90
      255
102
RTVSPost2010PropOp44
 70
     1
102
RTVSPost2010Prop45
280
     0
102
RTVSPost2010PropOp45
 70
     1
102
RTVSPost2010Prop46
 90
       50
102
RTVSPost2010PropOp46
 70
     1
102
RTVSPost2010Prop47
 90
       50
102
RTVSPost2010PropOp47
 70
     1
102
RTVSPost2010Prop48
 90
       50
102
RTVSPost2010PropOp48
 70
     1
102
RTVSPost2010Prop49
280
     0
102
RTVSPost2010PropOp49
 70
     1
102
RTVSPost2010Prop50
 90
       50
102
RTVSPost2010PropOp50
 70
     1
102
RTVSPost2010Prop51ColorIndex
 90
      256
102
RTVSPost2010Prop51ColorRGB
 90
-16777216
102
RTVSPost2010PropOp51
 70
     0
102
RTVSPost2010Prop52
140
1.0
102
RTVSPost2010PropOp52
 70
     0
102
RTVSPost2010Prop53
 90
        2
102
RTVSPost2010PropOp53
 70
     1
102
RTVSPost2010Prop54
  1
strokes_ogs.tif
102
RTVSPost2010PropOp54
 70
     1
102
RTVSPost2010Prop55
280
     0
102
RTVSPost2010PropOp55
 70
     1
102
RTVSPost2010Prop56
140
1.0
102
RTVSPost2010PropOp56
 70
     1
102
RTVSPost2010Prop57
140
1.0
102
RTVSPost2010PropOp57
 70
     1
  0
XRECORD
  5
3A551
102
{ACAD_REACTORS
330
3A550
102
}
330
3A550
100
AcDbXrecord
280
     1
102
RTVSPost2010Prop28
280
     0
102
RTVSPost2010PropOp28
 70
     1
102
RTVSPost2010Prop29
280
     1
102
RTVSPost2010PropOp29
 70
     1
102
RTVSPost2010Prop30
280
     1
102
RTVSPost2010PropOp30
 70
     1
102
RTVSPost2010Prop31
280
     0
102
RTVSPost2010PropOp31
 70
     1
102
RTVSPost2010Prop32
280
     0
102
RTVSPost2010PropOp32
 70
     1
102
RTVSPost2010Prop33
280
     0
102
RTVSPost2010PropOp33
 70
     1
102
RTVSPost2010Prop34
280
     0
102
RTVSPost2010PropOp34
 70
     1
102
RTVSPost2010Prop35
280
     0
102
RTVSPost2010PropOp35
 70
     1
102
RTVSPost2010Prop36
280
     0
102
RTVSPost2010PropOp36
 70
     1
102
RTVSPost2010Prop37
 90
       50
102
RTVSPost2010PropOp37
 70
     1
102
RTVSPost2010Prop38
140
0.0
102
RTVSPost2010PropOp38
 70
     1
102
RTVSPost2010Prop39
140
1.0
102
RTVSPost2010PropOp39
 70
     1
102
RTVSPost2010Prop40
 90
        0
102
RTVSPost2010PropOp40
 70
     1
102
RTVSPost2010Prop41ColorIndex
 90
       18
102
RTVSPost2010Prop41ColorRGB
 90
        0
102
RTVSPost2010PropOp41
 70
     1
102
RTVSPost2010Prop42
 90
       50
102
RTVSPost2010PropOp42
 70
     1
102
RTVSPost2010Prop43
 90
        3
102
RTVSPost2010PropOp43
 70
     1
102
RTVSPost2010Prop44ColorIndex
 90
        5
102
RTVSPost2010Prop44ColorRGB
 90
      255
102
RTVSPost2010PropOp44
 70
     1
102
RTVSPost2010Prop45
280
     0
102
RTVSPost2010PropOp45
 70
     1
102
RTVSPost2010Prop46
 90
       50
102
RTVSPost2010PropOp46
 70
     1
102
RTVSPost2010Prop47
 90
       50
102
RTVSPost2010PropOp47
 70
     1
102
RTVSPost2010Prop48
 90
       50
102
RTVSPost2010PropOp48
 70
     1
102
RTVSPost2010Prop49
280
     0
102
RTVSPost2010PropOp49
 70
     1
102
RTVSPost2010Prop50
 90
       50
102
RTVSPost2010PropOp50
 70
     1
102
RTVSPost2010Prop51ColorIndex
 90
      256
102
RTVSPost2010Prop51ColorRGB
 90
-16777216
102
RTVSPost2010PropOp51
 70
     0
102
RTVSPost2010Prop52
140
1.0
102
RTVSPost2010PropOp52
 70
     0
102
RTVSPost2010Prop53
 90
        2
102
RTVSPost2010PropOp53
 70
     1
102
RTVSPost2010Prop54
  1
strokes_ogs.tif
102
RTVSPost2010PropOp54
 70
     1
102
RTVSPost2010Prop55
280
     0
102
RTVSPost2010PropOp55
 70
     1
102
RTVSPost2010Prop56
140
1.0
102
RTVSPost2010PropOp56
 70
     1
102
RTVSPost2010Prop57
140
1.0
102
RTVSPost2010PropOp57
 70
     1
  0
XRECORD
  5
3A553
102
{ACAD_REACTORS
330
3A552
102
}
330
3A552
100
AcDbXrecord
280
     1
102
RTVSPost2010Prop28
280
     0
102
RTVSPost2010PropOp28
 70
     1
102
RTVSPost2010Prop29
280
     1
102
RTVSPost2010PropOp29
 70
     1
102
RTVSPost2010Prop30
280
     1
102
RTVSPost2010PropOp30
 70
     1
102
RTVSPost2010Prop31
280
     0
102
RTVSPost2010PropOp31
 70
     1
102
RTVSPost2010Prop32
280
     0
102
RTVSPost2010PropOp32
 70
     1
102
RTVSPost2010Prop33
280
     0
102
RTVSPost2010PropOp33
 70
     1
102
RTVSPost2010Prop34
280
     0
102
RTVSPost2010PropOp34
 70
     1
102
RTVSPost2010Prop35
280
     0
102
RTVSPost2010PropOp35
 70
     1
102
RTVSPost2010Prop36
280
     0
102
RTVSPost2010PropOp36
 70
     1
102
RTVSPost2010Prop37
 90
       50
102
RTVSPost2010PropOp37
 70
     1
102
RTVSPost2010Prop38
140
0.0
102
RTVSPost2010PropOp38
 70
     1
102
RTVSPost2010Prop39
140
1.0
102
RTVSPost2010PropOp39
 70
     1
102
RTVSPost2010Prop40
 90
        0
102
RTVSPost2010PropOp40
 70
     1
102
RTVSPost2010Prop41ColorIndex
 90
       18
102
RTVSPost2010Prop41ColorRGB
 90
        0
102
RTVSPost2010PropOp41
 70
     1
102
RTVSPost2010Prop42
 90
       50
102
RTVSPost2010PropOp42
 70
     1
102
RTVSPost2010Prop43
 90
        3
102
RTVSPost2010PropOp43
 70
     1
102
RTVSPost2010Prop44ColorIndex
 90
        5
102
RTVSPost2010Prop44ColorRGB
 90
      255
102
RTVSPost2010PropOp44
 70
     1
102
RTVSPost2010Prop45
280
     0
102
RTVSPost2010PropOp45
 70
     1
102
RTVSPost2010Prop46
 90
       50
102
RTVSPost2010PropOp46
 70
     1
102
RTVSPost2010Prop47
 90
       50
102
RTVSPost2010PropOp47
 70
     1
102
RTVSPost2010Prop48
 90
       50
102
RTVSPost2010PropOp48
 70
     1
102
RTVSPost2010Prop49
280
     0
102
RTVSPost2010PropOp49
 70
     1
102
RTVSPost2010Prop50
 90
       50
102
RTVSPost2010PropOp50
 70
     1
102
RTVSPost2010Prop51ColorIndex
 90
      256
102
RTVSPost2010Prop51ColorRGB
 90
-16777216
102
RTVSPost2010PropOp51
 70
     0
102
RTVSPost2010Prop52
140
1.0
102
RTVSPost2010PropOp52
 70
     0
102
RTVSPost2010Prop53
 90
        2
102
RTVSPost2010PropOp53
 70
     1
102
RTVSPost2010Prop54
  1
strokes_ogs.tif
102
RTVSPost2010PropOp54
 70
     1
102
RTVSPost2010Prop55
280
     0
102
RTVSPost2010PropOp55
 70
     1
102
RTVSPost2010Prop56
140
1.0
102
RTVSPost2010PropOp56
 70
     1
102
RTVSPost2010Prop57
140
1.0
102
RTVSPost2010PropOp57
 70
     1
  0
XRECORD
  5
3A53F
102
{ACAD_REACTORS
330
3A53E
102
}
330
3A53E
100
AcDbXrecord
280
     1
102
RTVSPost2010Prop28
280
     0
102
RTVSPost2010PropOp28
 70
     1
102
RTVSPost2010Prop29
280
     1
102
RTVSPost2010PropOp29
 70
     1
102
RTVSPost2010Prop30
280
     1
102
RTVSPost2010PropOp30
 70
     1
102
RTVSPost2010Prop31
280
     0
102
RTVSPost2010PropOp31
 70
     1
102
RTVSPost2010Prop32
280
     0
102
RTVSPost2010PropOp32
 70
     1
102
RTVSPost2010Prop33
280
     0
102
RTVSPost2010PropOp33
 70
     1
102
RTVSPost2010Prop34
280
     0
102
RTVSPost2010PropOp34
 70
     1
102
RTVSPost2010Prop35
280
     0
102
RTVSPost2010PropOp35
 70
     1
102
RTVSPost2010Prop36
280
     0
102
RTVSPost2010PropOp36
 70
     1
102
RTVSPost2010Prop37
 90
       50
102
RTVSPost2010PropOp37
 70
     1
102
RTVSPost2010Prop38
140
0.0
102
RTVSPost2010PropOp38
 70
     1
102
RTVSPost2010Prop39
140
1.0
102
RTVSPost2010PropOp39
 70
     1
102
RTVSPost2010Prop40
 90
        0
102
RTVSPost2010PropOp40
 70
     1
102
RTVSPost2010Prop41ColorIndex
 90
       18
102
RTVSPost2010Prop41ColorRGB
 90
        0
102
RTVSPost2010PropOp41
 70
     1
102
RTVSPost2010Prop42
 90
       50
102
RTVSPost2010PropOp42
 70
     1
102
RTVSPost2010Prop43
 90
        3
102
RTVSPost2010PropOp43
 70
     1
102
RTVSPost2010Prop44ColorIndex
 90
        5
102
RTVSPost2010Prop44ColorRGB
 90
      255
102
RTVSPost2010PropOp44
 70
     1
102
RTVSPost2010Prop45
280
     0
102
RTVSPost2010PropOp45
 70
     1
102
RTVSPost2010Prop46
 90
       50
102
RTVSPost2010PropOp46
 70
     1
102
RTVSPost2010Prop47
 90
       50
102
RTVSPost2010PropOp47
 70
     1
102
RTVSPost2010Prop48
 90
       50
102
RTVSPost2010PropOp48
 70
     1
102
RTVSPost2010Prop49
280
     0
102
RTVSPost2010PropOp49
 70
     1
102
RTVSPost2010Prop50
 90
       50
102
RTVSPost2010PropOp50
 70
     1
102
RTVSPost2010Prop51ColorIndex
 90
      256
102
RTVSPost2010Prop51ColorRGB
 90
-16777216
102
RTVSPost2010PropOp51
 70
     0
102
RTVSPost2010Prop52
140
1.0
102
RTVSPost2010PropOp52
 70
     0
102
RTVSPost2010Prop53
 90
        2
102
RTVSPost2010PropOp53
 70
     1
102
RTVSPost2010Prop54
  1
strokes_ogs.tif
102
RTVSPost2010PropOp54
 70
     1
102
RTVSPost2010Prop55
280
     0
102
RTVSPost2010PropOp55
 70
     1
102
RTVSPost2010Prop56
140
1.0
102
RTVSPost2010PropOp56
 70
     1
102
RTVSPost2010Prop57
140
1.0
102
RTVSPost2010PropOp57
 70
     1
  0
XRECORD
  5
3A54D
102
{ACAD_REACTORS
330
3A54C
102
}
330
3A54C
100
AcDbXrecord
280
     1
102
RTVSPost2010Prop28
280
     0
102
RTVSPost2010PropOp28
 70
     1
102
RTVSPost2010Prop29
280
     1
102
RTVSPost2010PropOp29
 70
     1
102
RTVSPost2010Prop30
280
     1
102
RTVSPost2010PropOp30
 70
     1
102
RTVSPost2010Prop31
280
     0
102
RTVSPost2010PropOp31
 70
     1
102
RTVSPost2010Prop32
280
     0
102
RTVSPost2010PropOp32
 70
     1
102
RTVSPost2010Prop33
280
     0
102
RTVSPost2010PropOp33
 70
     1
102
RTVSPost2010Prop34
280
     0
102
RTVSPost2010PropOp34
 70
     1
102
RTVSPost2010Prop35
280
     0
102
RTVSPost2010PropOp35
 70
     1
102
RTVSPost2010Prop36
280
     0
102
RTVSPost2010PropOp36
 70
     1
102
RTVSPost2010Prop37
 90
       50
102
RTVSPost2010PropOp37
 70
     1
102
RTVSPost2010Prop38
140
0.0
102
RTVSPost2010PropOp38
 70
     1
102
RTVSPost2010Prop39
140
1.0
102
RTVSPost2010PropOp39
 70
     1
102
RTVSPost2010Prop40
 90
        0
102
RTVSPost2010PropOp40
 70
     1
102
RTVSPost2010Prop41ColorIndex
 90
       18
102
RTVSPost2010Prop41ColorRGB
 90
        0
102
RTVSPost2010PropOp41
 70
     1
102
RTVSPost2010Prop42
 90
       50
102
RTVSPost2010PropOp42
 70
     1
102
RTVSPost2010Prop43
 90
        3
102
RTVSPost2010PropOp43
 70
     1
102
RTVSPost2010Prop44ColorIndex
 90
        5
102
RTVSPost2010Prop44ColorRGB
 90
      255
102
RTVSPost2010PropOp44
 70
     1
102
RTVSPost2010Prop45
280
     0
102
RTVSPost2010PropOp45
 70
     1
102
RTVSPost2010Prop46
 90
       50
102
RTVSPost2010PropOp46
 70
     1
102
RTVSPost2010Prop47
 90
       50
102
RTVSPost2010PropOp47
 70
     1
102
RTVSPost2010Prop48
 90
       50
102
RTVSPost2010PropOp48
 70
     1
102
RTVSPost2010Prop49
280
     0
102
RTVSPost2010PropOp49
 70
     1
102
RTVSPost2010Prop50
 90
       50
102
RTVSPost2010PropOp50
 70
     1
102
RTVSPost2010Prop51ColorIndex
 90
      256
102
RTVSPost2010Prop51ColorRGB
 90
-16777216
102
RTVSPost2010PropOp51
 70
     0
102
RTVSPost2010Prop52
140
1.0
102
RTVSPost2010PropOp52
 70
     0
102
RTVSPost2010Prop53
 90
        2
102
RTVSPost2010PropOp53
 70
     1
102
RTVSPost2010Prop54
  1
strokes_ogs.tif
102
RTVSPost2010PropOp54
 70
     1
102
RTVSPost2010Prop55
280
     0
102
RTVSPost2010PropOp55
 70
     1
102
RTVSPost2010Prop56
140
1.0
102
RTVSPost2010PropOp56
 70
     1
102
RTVSPost2010Prop57
140
1.0
102
RTVSPost2010PropOp57
 70
     1
  0
XRECORD
  5
3A555
102
{ACAD_REACTORS
330
3A554
102
}
330
3A554
100
AcDbXrecord
280
     1
102
RTVSPost2010Prop28
280
     0
102
RTVSPost2010PropOp28
 70
     1
102
RTVSPost2010Prop29
280
     1
102
RTVSPost2010PropOp29
 70
     1
102
RTVSPost2010Prop30
280
     1
102
RTVSPost2010PropOp30
 70
     1
102
RTVSPost2010Prop31
280
     0
102
RTVSPost2010PropOp31
 70
     1
102
RTVSPost2010Prop32
280
     0
102
RTVSPost2010PropOp32
 70
     1
102
RTVSPost2010Prop33
280
     0
102
RTVSPost2010PropOp33
 70
     1
102
RTVSPost2010Prop34
280
     0
102
RTVSPost2010PropOp34
 70
     1
102
RTVSPost2010Prop35
280
     0
102
RTVSPost2010PropOp35
 70
     1
102
RTVSPost2010Prop36
280
     0
102
RTVSPost2010PropOp36
 70
     1
102
RTVSPost2010Prop37
 90
       50
102
RTVSPost2010PropOp37
 70
     1
102
RTVSPost2010Prop38
140
0.0
102
RTVSPost2010PropOp38
 70
     1
102
RTVSPost2010Prop39
140
1.0
102
RTVSPost2010PropOp39
 70
     1
102
RTVSPost2010Prop40
 90
        0
102
RTVSPost2010PropOp40
 70
     1
102
RTVSPost2010Prop41ColorIndex
 90
       18
102
RTVSPost2010Prop41ColorRGB
 90
        0
102
RTVSPost2010PropOp41
 70
     1
102
RTVSPost2010Prop42
 90
       50
102
RTVSPost2010PropOp42
 70
     1
102
RTVSPost2010Prop43
 90
        3
102
RTVSPost2010PropOp43
 70
     1
102
RTVSPost2010Prop44ColorIndex
 90
        5
102
RTVSPost2010Prop44ColorRGB
 90
      255
102
RTVSPost2010PropOp44
 70
     1
102
RTVSPost2010Prop45
280
     0
102
RTVSPost2010PropOp45
 70
     1
102
RTVSPost2010Prop46
 90
       50
102
RTVSPost2010PropOp46
 70
     1
102
RTVSPost2010Prop47
 90
       50
102
RTVSPost2010PropOp47
 70
     1
102
RTVSPost2010Prop48
 90
       50
102
RTVSPost2010PropOp48
 70
     1
102
RTVSPost2010Prop49
280
     0
102
RTVSPost2010PropOp49
 70
     1
102
RTVSPost2010Prop50
 90
       50
102
RTVSPost2010PropOp50
 70
     1
102
RTVSPost2010Prop51ColorIndex
 90
      256
102
RTVSPost2010Prop51ColorRGB
 90
-16777216
102
RTVSPost2010PropOp51
 70
     0
102
RTVSPost2010Prop52
140
1.0
102
RTVSPost2010PropOp52
 70
     0
102
RTVSPost2010Prop53
 90
        2
102
RTVSPost2010PropOp53
 70
     1
102
RTVSPost2010Prop54
  1
strokes_ogs.tif
102
RTVSPost2010PropOp54
 70
     1
102
RTVSPost2010Prop55
280
     0
102
RTVSPost2010PropOp55
 70
     1
102
RTVSPost2010Prop56
140
1.0
102
RTVSPost2010PropOp56
 70
     1
102
RTVSPost2010Prop57
140
1.0
102
RTVSPost2010PropOp57
 70
     1
  0
ACAD_PROXY_OBJECT
  5
3A135
330
3A134
100
AcDbProxyObject
 90
      499
 91
      566
 95
  5308447
 70
     0
162
                 0
161
               249
310
7340000000000000C400000000000000310200800030C02000000300012AFBCC
 94
        0
  0
ACAD_PROXY_OBJECT
  5
3A136
330
3A134
100
AcDbProxyObject
 90
      499
 91
      567
 95
  5308447
 70
     0
162
              2608
311
415480184008000D400C001055200610020003200350041D480184008000C400C800B000D4010652006100200036002C003300419480184008000CC00B000C8010652006100200031002C003600419480184008000C000B000E0010652006100200030002C003400419480184008000C000B000C8010652006100200030002
311
C00310041D480184008000C000B000C000D4010852006100200030002C00300032003500415480184008000D400C001055200610020003200350041D480184008000C400C800B000D4010652006100200036002C003300419480184008000CC00B000C8010652006100200031002C003600419480184008000C000B000E001
311
0652006100200030002C003400419480184008000C000B000C8010652006100200030002C00310041D480184008000C000B000C000D4010852006100200030002C003000320035000F
161
               517
310
7340000000000000C400000000000000310200800030C02000000300012AFD41D01405014050140501E83C80A0481A0882A0C86219555400000000000006205214
 94
        0
  0
ACAD_PROXY_OBJECT
  5
3A137
330
3A134
100
AcDbProxyObject
 90
      499
 91
      568
 95
  5308447
 70
     0
162
                 0
161
               695
310
7340000000000000C400000000000000310200800030C02000000300012AFA1E80A0280A0280A0280A0280A0280A0280A0280A1A80A0280A0280A0280A0280A0280A028096000000000000002000000000000001881484
340
38218
 94
        0
  0
ACAD_PROXY_OBJECT
  5
3A138
330
3A134
100
AcDbProxyObject
 90
      499
 91
      569
 95
  5308447
 70
     0
162
                 0
161
               810
310
7340000000000000C400000000000000310200800030C02000000300012AFD0CCCCCCCCCCCF4CFC333333333333D33FA4680A0280A0280A0280A0280A0280A0280A0280A0280A0280A0280A0280A0280A0280A0280A0280A0280A028093373333333333C0FCC
340
38219
 94
        0
  0
ACAD_PROXY_OBJECT
  5
3A139
330
3A134
100
AcDbProxyObject
 90
      499
 91
      570
 95
  5308447
 70
     0
162
                 0
161
               323
310
7340000000000000C400000000000000310200800030C02000000300012AFA4200000000000003102C
340
3821A
 94
        0
  0
ACAD_PROXY_OBJECT
  5
3A13A
330
3A134
100
AcDbProxyObject
 90
      499
 91
      571
 95
  5308447
 70
     0
162
                 0
161
               493
310
7340000000000000C400000000000000310200800030C02000000300012AFC521D4454FB21E93F00000000000002102800000000000008408020000C300C
340
3821B
340
3821A
 94
        0
  0
ACAD_PROXY_OBJECT
  5
3A13B
330
3A134
100
AcDbProxyObject
 90
      499
 91
      572
 95
  5308447
 70
     0
162
             24524
311
41124015001140134010450006F0073002E004CD1C01140138015001480104010C013C00B001100114015400B000C000B0014001BC01CC00B800B0011C011401380150014801040150016000B0009401CC00B000A0011C011401380134014C011C0080019C019401B8019001DC019C008000C800C800C800A4029035100540
311
0590040D0401B801E80132470045004E0054005200410043004F002C004400450055002C0030002C0041006E007A002C00470045004E00540052004100540058002C00250073002C002800470045004E004D00530047002000670065006E0064007700670020003200320033002900A4113801040134011401044E0061006D
311
0065004CD1C01140138015001480104010C013C00B001100114015400B000C000B00138018401B4019400B0011C011401380150014801040150016000B0009401CC00B000A0011C011401380134014C011C0080019C019401B8019001DC019C008000C800C800D800A4012C3D004900460028004900530042004C0041004E0
311
04B00280050004100520054003A004E0041004D00450029002C0042004C004F0043004B003A004E0041004D0045002C0050004100520054003A004E0041004D00450029009054400450053004300520043108019401CC018C01A001C8019401A4018801D401B8019C013B470045004E0054005200410043004F002C0044004
311
50055002C0030002C0042006500730063006800720065006900620075006E0067002C00470045004E00540052004100540058002C00250073002C002800470045004E004D00530047002000670065006E0064007700670020003200310037002900A4214C015001040138011001040148011001044E006F0072006D004CD1C
311
01140138015001480104010C013C00B001100114015400B000C000B0013801BC01C801B400B0011C011401380150014801040150016000B0009401CC00B000A0011C011401380134014C011C0080019C019401B8019001DC019C008000C800C400E000A4029084D004100540045005200490041004C004255C019401C801AC
311
01CC01D001BC019801980138470045004E0054005200410043004F002C004400450055002C0030002C005700650072006B00730074006F00660066002C00470045004E00540052004100540058002C00250073002C002800470045004E004D00530047002000670065006E0064007700670020003200320031002900A41138
311
013C015001140109420065006D00650072006B0075006E0067004E11C01140138015001480104010C013C00B001100114015400B000C000B00108019401B4019401C801AC01D401B8019C00B0011C011401380150014801040150016000B0009401CC00B000A0011C011401380134014C011C0080019C019401B8019001DC0
311
19C008000C800C800D400A402906560045004E0044004F0052004253001A401940198019401C8018401B801D00138470045004E0054005200410043004F002C004400450055002C0030002C004C006900650066006500720061006E0074002C00470045004E00540052004100540058002C00250073002C002800470045004
311
E004D00530047002000670065006E0064007700670020003200320034002900A419100114014C010C014800C8010E42006500730063006800720065006900620075006E006700200032004F11C01140138015001480104010C013C00B001100114015400B000C000B00108019401CC018C01A001C8019401A4018801D401B8
311
019C008000C800B0011C011401380150014801040150016000B0009401CC00B000A0011C011401380134014C011C0080019C019401B8019001DC019C008000CC00D800A4029095300540041004E00440041005200440032004193801BC01C801B4008000C80135470045004E0054005200410043004F002C00440045005500
311
2C0030002C004E006F0072006D00200032002C00470045004E00540052004100540058002C00250073002C002800470045004E004D00530047002000670065006E0064007700670020003200320030002900A42534010401500114014801240104013000C8010A4D006100740065007200690061006C00200032004E11C011
311
40138015001480104010C013C00B001100114015400B000C000B00134018401D0019401C801A4018401B0008000C800B0011C011401380150014801040150016000B0009401CC00B000A0011C011401380134014C011C0080019C019401B8019001DC019C008000D000C000A4029044D0041005300530041534018401CC01C
311
C01940133470045004E0054005200410043004F002C004400450055002C0030002C004D0061007300730065002C00470045004E00540052004100540058002C00250073002C002800470045004E004D00530047002000670065006E006400770067002000340032002900A4154001480124010C01140105500072006500690
311
073004CD1C01140138015001480104010C013C00B001100114015400B000C000B0014001C8019401A401CC00B0011C011401380150014801040150016000B0009401CC00B000A0011C011401380134014C011C0080019C019401B8019001DC019C008000D000CC00A402903440049004D0042D04018801B4019401CC01CC01
311
D401B8019C019401B80139470045004E0054005200410043004F002C004400450055002C0030002C00410062006D0065007300730075006E00670065006E002C00470045004E00540052004100540058002C00250073002C002800470045004E004D00530047002000670065006E006400770067002000340034002900A425
311
08013C0134017C0154013801240150014C0109450069006E00680065006900740065006E004E11C01140138015001480104010C013C00B001100114015400B000C000B0011401A401B801A0019401A401D0019401B800B0011C011401380150014801040150016000B0009401CC00B000A0011C011401380134014C011C008
311
0019C019401B8019001DC019C008000C800D000CC00A4029073D003C004900540045004D003E0041CF400F0012401500114013400F801073D003C004900540045004D003E0041CF400F0012401500114013400F801073D003C004900540045004D003E00418F400F001440150016400F801073D003C004900540045004D003
311
E0041CF400F0012401500114013400F8024294C01D003F0018C01AC01B001A401CC01D00194010541005200490041004C00415040148012401040130010541005200490041004C00A404C40242D9401840024019401840024012801940190019400280115730071006D000900730071006D000900510075006100640072006
311
10074006D0065007400650072000A00471CC01C4018C01B4002401CC01C4018C01B40024014401D40184019001C8018401D001E8019401B801D001A401B4019401D0019401C8002801157300710066007400090073007100660074000900510075006100640072006100740066007500DF000A00459CC01C401A401B800240
311
1CC01C401A401B80024014401D40184019001C8018401D001E801BC01B001B000280110670061006C000900670061006C000900470061006C006C006F006E0065000A00431C401D0002401C401D00024014401D4018401C801D0002801266C00710064005F006F007A0009006C00710064005F006F007A0009004F0075006E
311
00630065002000280046006C00FC0073007300690067006B0065006900740073006D006100DF0029000A00429B0002401B00024013001A401D0019401C8002801116D006C0009006D006C0009004D0069006C006C0069006C0069007400650072000A0042DE40190002401E4019000240164018401C801900028010A660074
311
00090066007400090046007500DF000A0042DA401B8002401A401B80024016801BC01B001B00028010A6D0009006D0009004D0065007400650072000A004458C01B40024018C01B400240168019401B801D001A401B4019401D0019401C8002801116D006D0009006D006D0009004D0069006C006C0069006D006500740065
311
0072000A00431B00188002401B0018800240140019801D401B801900028010C6F007A0009006F007A0009004F0075006E00630065000A004299C0024019C0024011C01C8018401B401B4002801116D00670009006D00670009004D0069006C006C0069006700720061006D006D000A004398801E00024018801E0002401440
311
1D40184019001C8018401D0002801012D00C
161
              6477
310
7340000000000000C400000000000000310200800030C02000000300012AFA1E80A0280A0280A0280D20200000000000012202032024050140501409014050140501901000000000000091010190120280A0280A3880C80C81500000000000009C8080C80901405014051D40640640E8000000000080514040640480A0280A
310
028EA03203209400000000000024A0203202405014050147501901905A1C4F42B5E8DC115010190120280A0280A3A80C80C83500000000000007C8080880901405014051D40640641E80000000000003E4040440480A0280A028EA03203211400000000004028A0202202405014050147501901909A0000000000001250101
310
10120280A0280A3A80C80C8550E27A15AF46E08A8080880901405014051D405024050242D034080000000000003E4040440480A0280A028EA028120281218812040000000000001F20202202405014050147501409014090D40D020000000000000F9010190120280A0280A3C80C80C87500000000000007C8080C80901405
310
0F4A9020000000000000510201C00030C00010180000000000003E400000000000000F901014060000000000000F9000000000000003E4040501800000000000034400000000000000D101014060000000000000D1000000000000003440405029010000000000000F9000000000000003E40405014060000000000000F900
310
0000000000003E4040501800000000000034400000000000000D10101404000000000000003E400000000000000F90290800000000000020810000001800169FFFE8220681A048120280A20852108820321480C8452028521485214814000000000000F0BF0000000000003C2FD018020000C3008070000C30026A66666666
310
67D4FC9A9999999999F53F26A6666666667D4FC333333333333F33F337333333333370FC333333333333F33F26A6666666667D4FC333333333333F33F337333333333370FC333333333333F33F0000000000000310080A028120B20281A0882A0340000000000000C408020000C3008020000C3008010000C300291440BF9F
310
FFE7FFF9FFFE4050140515405014050140501405014050140501405014050140501405014064068320481A0882A1A874
340
15
340
0
340
11
340
11
340
16
340
16
340
16
 94
        0
  0
ACAD_PROXY_OBJECT
  5
3A13C
330
3A134
100
AcDbProxyObject
 90
      499
 91
      573
 95
  5308447
 70
     0
162
                 0
161
               279
310
73400000000000014400000000000000510201C00030C0200C00030C012AE9FE3E0000
340
3A14A
 94
        0
  0
ACAD_PROXY_OBJECT
  5
3A149
330
3A134
100
AcDbProxyObject
 90
      499
 91
      586
 95
  5308447
 70
     0
162
                 0
161
               247
310
73400000000000014400000000000000510200000030002000000300012A04
340
31BF4
 94
        0
  0
ACAD_PROXY_OBJECT
  5
3A13D
330
3A134
100
AcDbProxyObject
 90
      499
 91
      574
 95
  5308447
 70
     0
162
                 0
161
               279
310
73400000000000014400000000000000510201C00030C0201C00030C0112C9FE060000
340
3A150
 94
        0
  0
ACAD_PROXY_OBJECT
  5
3A148
330
3A134
100
AcDbProxyObject
 90
      499
 91
      585
 95
  5308447
 70
     0
162
                 0
161
               247
310
73400000000000014400000000000000510200000030002000000300012A04
340
31BF2
 94
        0
  0
ACAD_PROXY_OBJECT
  5
3A13E
330
3A134
100
AcDbProxyObject
 90
      499
 91
      575
 95
  5308447
 70
     0
162
                 0
161
               388
310
7340000000000000C400000000000000310200800030C02000000300012AFD000000000000010814333333333333F33F2C
 94
        0
  0
ACAD_PROXY_OBJECT
  5
3A13F
330
3A134
100
AcDbProxyObject
 90
      499
 91
      576
 95
  5308447
 70
     0
162
                 0
161
               249
310
7340000000000000C400000000000000310200800030C02000000300012AFC4C
340
0
 94
        0
  0
ACAD_PROXY_OBJECT
  5
3A140
330
3A134
100
AcDbProxyObject
 90
      499
 91
      577
 95
  5308447
 70
     0
162
             18060
311
4255801BC01C801B00184019C0194008000C4000A013D002500250063003C0048006F006C0065003A00630074006400690061003E002000780020003C0048006F006C0065003A0063007400640065007000740068003E00200055005C0050003C0069006600280065007100750061006C00280048006F006C0065003A00740
311
0610070007000650064002C0022003000220029002C0022002500250063002200200048006F006C0065003A006400690061002C0048006F006C0065003A006E006F006D0069006E0061006C0029003E003C0069006600280065007100750061006C00280048006F006C0065003A007400610070007000650064002C0022003
311
100220029002C0022002000780020002200200048006F006C0065003A00540061007000440065007000740068002C002200220029003E003C0069006600280065007100750061006C00280048006F006C0065003A007400650072006D0069006E006100740069006F006E002C0022003000220029002C00690066002800650
311
07100750061006C00280048006F006C0065003A007400610070007000650064002C0022003000220029002C00220020007800200022002C00220020002F002000220029002C002200220029003E003C0069006600280065007100750061006C00280048006F006C0065003A007400650072006D0069006E006100740069006
311
F006E002C0022003000220029002C0048006F006C0065003A00640065007000740068002C002200220029003E004255801BC01C801B00184019C0194008000C4000B013D002500250063003C0048006F006C0065003A00630074006400690061003E002000780020003C0048006F006C0065003A006300740061006E006700
311
6C0065003E002500250064005C0050003C0069006600280065007100750061006C00280048006F006C0065003A007400610070007000650064002C0022003000220029002C0022002500250063002200200048006F006C0065003A006400690061002C0048006F006C0065003A006E006F006D0069006E0061006C0029003E
311
003C0069006600280065007100750061006C00280048006F006C0065003A007400610070007000650064002C0022003100220029002C0022002000780020002200200048006F006C0065003A00540061007000440065007000740068002C002200220029003E003C0069006600280065007100750061006C00280048006F00
311
6C0065003A007400650072006D0069006E006100740069006F006E002C0022003000220029002C0069006600280065007100750061006C00280048006F006C0065003A007400610070007000650064002C0022003000220029002C00220020007800200022002C00220020002F002000220029002C002200220029003E003C
311
0069006600280065007100750061006C00280048006F006C0065003A007400650072006D0069006E006100740069006F006E002C0022003000220029002C0048006F006C0065003A00640065007000740068002C002200220029003E004255801BC01C801B00184019C0194008000C401E63D003C006900660028006500710
311
0750061006C00280048006F006C0065003A007400610070007000650064002C0022003000220029002C0022002500250063002200200048006F006C0065003A006400690061002C0048006F006C0065003A006E006F006D0069006E0061006C0029003E003C0069006600280065007100750061006C00280048006F006C006
311
5003A007400610070007000650064002C0022003100220029002C0022002000780020002200200048006F006C0065003A00540061007000440065007000740068002C002200220029003E003C0069006600280065007100750061006C00280048006F006C0065003A007400650072006D0069006E006100740069006F006E0
311
02C0022003000220029002C0069006600280065007100750061006C00280048006F006C0065003A007400610070007000650064002C0022003000220029002C00220020007800200022002C00220020002F002000220029002C002200220029003E003C0069006600280065007100750061006C00280048006F006C0065003
311
A007400650072006D0069006E006100740069006F006E002C0022003000220029002C0048006F006C0065003A00640065007000740068002C002200220029003E004255801BC01C801B00184019C0194008000C401F73D002500250063003C0048006F006C0065003A00630074006400690061003E005C0050003C00690066
311
00280065007100750061006C00280048006F006C0065003A007400610070007000650064002C0022003000220029002C0022002500250063002200200048006F006C0065003A006400690061002C0048006F006C0065003A006E006F006D0069006E0061006C0029003E003C0069006600280065007100750061006C002800
311
48006F006C0065003A007400610070007000650064002C0022003100220029002C0022002000780020002200200048006F006C0065003A00540061007000440065007000740068002C002200220029003E003C0069006600280065007100750061006C00280048006F006C0065003A007400650072006D0069006E00610074
311
0069006F006E002C0022003000220029002C0069006600280065007100750061006C00280048006F006C0065003A007400610070007000650064002C0022003000220029002C00220020007800200022002C00220020002F002000220029002C002200220029003E003C0069006600280065007100750061006C0028004800
311
6F006C0065003A007400650072006D0069006E006100740069006F006E002C0022003000220029002C0048006F006C0065003A00640065007000740068002C002200220029003E004255801BC01C801B00184019C0194008000C801173D003C0053005400440050003A0044004500530043003E0020003C005300540044005
311
0003A005300540044003E004255801BC01C801B00184019C0194008000C4010C3D003C0053005400440050003A0044004500530043003E004255801BC01C801B00184019C0194008000CC010B3D003C0053005400440050003A005300540044003E00C
161
               732
310
7340000000000000C400000000000000310200800030C02000000300012AFA1280A17480A15480A0480A0280E9014050340501407480A0280A0280A03A4050141D0140501D20280A3C81A0280E901405480A02A40D01456AAB9B509C
360
3A15A
330
3A15A
360
3A15B
330
3A15B
360
3A159
330
3A159
360
3A15C
330
3A15C
360
3A157
360
3A156
360
3A158
330
3A157
330
3A156
330
3A158
 94
        0
  0
ACAD_PROXY_OBJECT
  5
3A141
330
3A134
100
AcDbProxyObject
 90
      499
 91
      578
 95
  5308447
 70
     0
162
                26
311
404E800C
161
               305
310
7340000000000000C400000000000000310200800030C02000000300012AFA175203480A03554C
 94
        0
  0
ACAD_PROXY_OBJECT
  5
3A142
330
3A134
100
AcDbProxyObject
 90
      499
 91
      579
 95
  5308447
 70
     0
162
              1066
311
508F400F0014C015001480154010C015000E8010C013C01340140017C013801040134011400F8008000F0014C015001480154010C015000E8015801240114015C017C013801040134011400F80080010401B801CC01A4018C01A001D0008000A000F0014C015001480154010C015000E8014C0158017C014C010C010401300
311
11400F800A400C
161
               332
310
73400000000000014400000000000000310201C00030C02000000300012AFA028100000000000006881C
340
11
 94
        0
  0
ACAD_PROXY_OBJECT
  5
3A143
330
3A134
100
AcDbProxyObject
 90
      499
 91
      580
 95
  5308447
 70
     0
162
                 0
161
               261
310
7340000000000000C400000000000000310200800030C02000000300012AFA0754
340
3A146
 94
        0
  0
ACAD_PROXY_OBJECT
  5
3A144
330
3A134
100
AcDbProxyObject
 90
      499
 91
      581
 95
  5308447
 70
     0
162
               126
311
408F000F801023C003E00409A000DC00
161
               408
310
7340000000000000C400000000000000310200800030C02000000300012AFA080000000000001420000000000000048807FFFC00
340
381FB
340
0
340
0
340
38209
340
3820A
340
3820B
340
3820C
340
3820D
340
38212
340
0
340
3820A
340
0
 94
        0
  0
ACAD_PROXY_OBJECT
  5
3A145
330
3A134
100
AcDbProxyObject
 90
      499
 91
      583
 95
  5308447
 70
     0
162
             22180
311
4412C01BC01BC01C8019001A401B8018401D0019401B801B001A401CC01D00194013F470045004E0054005200410043004F002C004400450055002C0030002C004B006F006F007200640069006E006100740065006E006C0069007300740065002C00470045004E00540052004100540058002C00250073002C00280047004
311
5004E004D00530047002000670065006E00640069006D007A00200033003000290043CF400F0011001940198018401D401B001D0015001A401D001B0019400F8011242006F006800720075006E006700730064006500660069006E006900740069006F006E005051C01140138015001480104010C013C00B00110011401540
311
0B000C000B0010801BC01A001C801D401B8019C01CC01900194019801A401B801A401D001A401BC01B800B0011C011401380150014801040150016000B0009401CC00B000A0011C011401380134014C011C0080019C019401B8019001A401B401E8008000CC00C400A4010F3D003C00440065006600610075006C007400540
311
0690074006C0065003E004215401C801CC01C001C801D401B8019C0136470045004E0054005200410043004F002C004400450055002C0030002C005500720073007000720075006E0067002C00470045004E00540052004100540058002C00250073002C002800470045004E004D00530047002000670065006E0064006900
311
6D007A002000310029004114001BC01CC00B80132470045004E0054005200410043004F002C004400450055002C0030002C0050006F0073002E002C00470045004E00540052004100540058002C00250073002C002800470045004E004D00530047002000670065006E00640069006D007A002000320029004FCF400F0013C
311
01C801A4019C01A401B800F800F00124011800A0013C014800A00124014C0108013001040138012C00A0013C01C801A4019C01A401B800A400B00124014C0108013001040138012C00A0012401B80190019401E000A400A400B00088008800B0008800B8008800A400F800F0012401B80190019401E000F8010158004BD1C0
311
1140138015001480104010C013C00B001100114015400B000C000B0016000B0011C011401380150014801040150016000B0009401CC00B000A0011C011401380134014C011C0080019C019401B8019001A401B401E8008000CC00A4010159004BD1C01140138015001480104010C013C00B001100114015400B000C000B001
311
6400B0011C011401380150014801040150016000B0009401CC00B000A0011C011401380134014C011C0080019C019401B8019001A401B401E8008000D000A4010172004BD1C01140138015001480104010C013C00B001100114015400B000C000B001C800B0011C011401380150014801040150016000B0009401CC00B000A
311
0011C011401380134014C011C0080019C019401B8019001A401B401E8008000D800A401187B005C006600530079006D0062006F006C007C00620030007C00690030007C00630032007C00700030003B006A007D005191C01140138015001480104010C013C00B001100114015400B000C000B001EC01700198014C01E401B4
311
018801BC01B001F0018800C001F001A400C001F0018C00C801F001C000C000EC01A801F400B0011C011401380150014801040150016000B0009401CC00B000A0011C011401380134014C011C0080019C019401B8019001A401B401E8008000DC00A401032500250063004C51C01140138015001480104010C013C00B001100
311
114015400B000C000B000940094018C00B0011C011401380150014801040150016000B0009401CC00B000A0011C011401380134014C011C0080019C019401B8019001A401B401E8008000E000A4010C42006500730063006800720065006900620075006E0067004ED1C01140138015001480104010C013C00B00110011401
311
5400B000C000B00108019401CC018C01A001C8019401A4018801D401B8019C00B0011C011401380150014801040150016000B0009401CC00B000A0011C011401380134014C011C0080019C019401B8019001A401B401E8008000C800C000A401044E006F0072006D004CD1C01140138015001480104010C013C00B00110011
311
4015400B000C000B0013801BC01C801B400B0011C011401380150014801040150016000B0009401CC00B000A0011C011401380134014C011C0080019C019401B8019001A401B401E8008000C800C400A401085500720073007000720075006E0067004D91C01140138015001480104010C013C00B001100114015400B000C0
311
00B0015401C801CC01C001C801D401B8019C00B0011C011401380150014801040150016000B0009401CC00B000A0011C011401380134014C011C0080019C019401B8019001A401B401E8008000C400A4010131004114001BC01CC00B80133470045004E0054005200410043004F002C004400450055002C0030002C0050006
311
F0073002E002C00470045004E00540052004100540058002C00250073002C002800470045004E004D00530047002000670065006E00640069006D007A0020003100340029004152401B80190019401E00134470045004E0054005200410043004F002C004400450055002C0030002C0049006E006400650078002C00470045
311
004E00540052004100540058002C00250073002C002800470045004E004D00530047002000670065006E00640069006D007A0020003100350029004390801BC01A001C801D401B8019C01CC01B801D401B401B4019401C8013D470045004E0054005200410043004F002C004400450055002C0030002C0042006F006800720
311
075006E00670073006E0075006D006D00650072002C00470045004E00540052004100540058002C00250073002C002800470045004E004D00530047002000670065006E00640069006D007A00200031003700290043D08019401B801D401D001E8019401C8019401B0019401B4019401B801D0013E470045004E0054005200
311
410043004F002C004400450055002C0030002C00420065006E00750074007A006500720065006C0065006D0065006E0074002C00470045004E00540052004100540058002C00250073002C002800470045004E004D00530047002000670065006E00640069006D007A00200032003200290041D0801BC01A001C801D401B80
311
19C0136470045004E0054005200410043004F002C004400450055002C0030002C0042006F006800720075006E0067002C00470045004E00540052004100540058002C00250073002C002800470045004E004D00530047002000670065006E00640069006D007A00200031003600290040D0401B801E80132470045004E0054
311
005200410043004F002C004400450055002C0030002C0041006E007A002C00470045004E00540052004100540058002C00250073002C002800470045004E004D00530047002000670065006E00640069006D007A0020003100390029004FCF400F0013C01C801A4019C01A401B800F800F00124011800A0013C014800A0012
311
4014C0108013001040138012C00A0013C01C801A4019C01A401B800A400B00124014C0108013001040138012C00A0012401B80190019401E000A400A400B00088008800B0008800B8008800A400F800F0012401B80190019401E000F801453D003C004F0072006900670069006E003E003C004900460028004F00520028004
311
900530042004C0041004E004B0028004F0072006900670069006E0029002C004900530042004C0041004E004B00280055007300650072004900740065006D00290029002C00220022002C0022002E00220029003E003C0055007300650072004900740065006D003E00C
161
              7153
310
7340000000000000C400000000000000310200800030C02000000300012AFA46307FFFFFFFA0606000600000000000006204010000618068181800180000000000001881004000186018080F02018000000000000000000000000000000020000000000000620401000061802000000000000062040100006180403F8080F0
310
2018000000000000000000000000000000020000000000000620401000061802000000000000062040100006180403FA1C88222812068220A83A1886A1E80A1C89A2A81A2483A28880000808000808200110A00010101010104002234000202000202000040A8000404000404000081D0000808000808000104A0001010001
310
01030020B4000202000202020041E80004040004001000865000080800080020010DA000101010101040021F40002020002020A01406800040400040414028750000808000808280113A000101000101050022B4000202000202080044A800040400040418008A5220000000000000001CA04FFFFFFFF030000000000000D1
310
027FFFFFFF80800000000000068813FFFFFFFC0400000000000034409FFFFFFFE040000000000001A204FFFFFFFF020000000000000D1027FFFFFFF81800000000000072813FFFFFFFC0C00000000000049409FFFFFFFE0600000000004028A04FFFFFFFF000000000000000D1027FFFFFFF80000000000000048813FFFFFF
310
FC0000000000000034409FFFFFFFE000000000000001A204FFFFFFFF000000000000000D1027FFFFFFF80000000000000068813FFFFFFFC0C00000000000028409FFFFFFFE8800000000000000072813FFFFFFFC0C00000000000034409FFFFFFFE060000000000001A204FFFFFFFF030000000000000D1027FFFFFFF81800
310
000000000068813FFFFFFFC0C00000000000034409FFFFFFFE060000000000001CA04FFFFFFFF03000000000000125027FFFFFFF818000000000100A2813FFFFFFFC0000000000000034409FFFFFFFE0000000000000012204FFFFFFFF000000000000000D1027FFFFFFF80000000000000068813FFFFFFFC0000000000000
310
034409FFFFFFFE060000000000001A204FFFFFFFF030000000000000A1027FFFFFFFA0E8800000021E000000810000002060000008200000020A00000083800000202890000001FFFFFFFE81202000283A2000000087800000204000000818000002080000008280000020E000000810000A068800000021E0000008A80000
310
01FFFFFFFF4C
340
0
340
0
340
0
340
0
340
11
340
11
 94
        0
  0
ACAD_PROXY_OBJECT
  5
3A147
330
3A134
100
AcDbProxyObject
 90
      499
 91
      584
 95
  5308447
 70
     0
162
              7496
311
40D10012401380106440049004E005F00410033004251001240138017C015001240150013001140113440049004E005F00420052005F005200650076006900730069006F006E006C006900730074004410400CC00C8008000A000C800E400DC01E000D400E400D0008001B401B400A40107440049004E005F0041003300320
311
04410400C0008000A000E000D000C401E000C400C400E000E4008001B401B400A40106440049004E005F00410030004450400CC00C0008000A000C800E400DC01E000C400C800CC00C0008001B401B400A40107440049004E005F004100330030004450400C800C0008000A000D000C800C001E000C400C400E000E4008001
311
B401B400A40107440049004E005F004100320030004410400C800C4008000A000D000C800C001E000E000D000C4008001B401B400A40107440049004E005F0041003200310043D0400CC008000A000C800E400DC01E000D000C800C0008001B401B400A40106440049004E005F00410033004410400CC00C4008000A000C80
311
0E400DC01E000E000D000C4008001B401B400A40107440049004E005F0041003300310043D0400C8008000A000D000C800C001E000D400E400D0008001B401B400A40106440049004E005F004100320043D0400C4008000A000D400E400D001E000E000D000C4008001B401B400A40106440049004E005F004100310043D04
311
00D0008000A000C800E400DC01E000C800C400C0008001B401B400A40106440049004E005F004100340045934019401D001C801A401CC018C01A0019401CC0080014C018C01A001C801A4019801D00198019401B001900109440049004E005F005400490054004C00450045148019401D801A401CC01A401BC01B801CC01D8
311
019401C801B4019401C801AC017C01500130017C0113440049004E005F0054004C005F005200650076006900730069006F006E006C0069007300740045148019401D801A401CC01A401BC01B801CC01D8019401C801B4019401C801AC017C01080130017C0113440049004E005F0042004C005F00520065007600690073006
311
9006F006E006C0069007300740045148019401D801A401CC01A401BC01B801CC01D8019401C801B4019401C801AC017C01500148017C0113440049004E005F00540052005F005200650076006900730069006F006E006C0069007300740045148019401D801A401CC01A401BC01B801CC01D8019401C801B4019401C801AC0
311
17C01080148017C0113440049004E005F00420052005F005200650076006900730069006F006E006C00690073007400A00
161
               498
310
7340000000000000C400000000000000310200800030C02000000300012AFB2E8520282205400000000002015900000000000000324000000000000007100C
 94
        0
  0
FIELD
  5
3A14D
102
{ACAD_REACTORS
330
3A14C
102
}
330
3A14C
100
AcDbField
  1
_text
  2
%<\_FldIdx 0>% %<\_FldIdx 1>%
 90
        2
360
3A14E
360
3A14F
 97
        0
 91
       63
 92
        0
 94
        9
 95
        2
 96
        0
300

 93
        0
  7
ACFD_FIELD_VALUE
 93
        3
 90
        0
 94
        0
300

302

304
ACVALUE_END
301

 98
        0
  0
FIELD
  5
3A153
102
{ACAD_REACTORS
330
3A152
102
}
330
3A152
100
AcDbField
  1
_text
  2
%<\_FldIdx 0>%-%<\_FldIdx 1>%
 90
        2
360
3A154
360
3A155
 97
        0
 91
       63
 92
        0
 94
        9
 95
        2
 96
        0
300

 93
        0
  7
ACFD_FIELD_VALUE
 93
        3
 90
        0
 94
        0
300

302

304
ACVALUE_END
301

 98
        0
  0
ACAD_PROXY_OBJECT
  5
3A15A
330
0
100
AcDbProxyObject
 90
      499
 91
      589
 95
  5308447
 70
     0
162
              4428
311
4255801BC01C801B00184019C0194008000C4000A013D002500250063003C0048006F006C0065003A00630074006400690061003E002000780020003C0048006F006C0065003A0063007400640065007000740068003E00200055005C0050003C0069006600280065007100750061006C00280048006F006C0065003A00740
311
0610070007000650064002C0022003000220029002C0022002500250063002200200048006F006C0065003A006400690061002C0048006F006C0065003A006E006F006D0069006E0061006C0029003E003C0069006600280065007100750061006C00280048006F006C0065003A007400610070007000650064002C0022003
311
100220029002C0022002000780020002200200048006F006C0065003A00540061007000440065007000740068002C002200220029003E003C0069006600280065007100750061006C00280048006F006C0065003A007400650072006D0069006E006100740069006F006E002C0022003000220029002C00690066002800650
311
07100750061006C00280048006F006C0065003A007400610070007000650064002C0022003000220029002C00220020007800200022002C00220020002F002000220029002C002200220029003E003C0069006600280065007100750061006C00280048006F006C0065003A007400650072006D0069006E006100740069006
311
F006E002C0022003000220029002C0048006F006C0065003A00640065007000740068002C002200220029003E00C
161
                29
310
7360101C
 94
        0
  0
ACAD_PROXY_OBJECT
  5
3A15B
330
0
100
AcDbProxyObject
 90
      499
 91
      589
 95
  5308447
 70
     0
162
              4444
311
4255801BC01C801B00184019C0194008000C4000B013D002500250063003C0048006F006C0065003A00630074006400690061003E002000780020003C0048006F006C0065003A006300740061006E0067006C0065003E002500250064005C0050003C0069006600280065007100750061006C00280048006F006C0065003A0
311
07400610070007000650064002C0022003000220029002C0022002500250063002200200048006F006C0065003A006400690061002C0048006F006C0065003A006E006F006D0069006E0061006C0029003E003C0069006600280065007100750061006C00280048006F006C0065003A007400610070007000650064002C002
311
2003100220029002C0022002000780020002200200048006F006C0065003A00540061007000440065007000740068002C002200220029003E003C0069006600280065007100750061006C00280048006F006C0065003A007400650072006D0069006E006100740069006F006E002C0022003000220029002C0069006600280
311
065007100750061006C00280048006F006C0065003A007400610070007000650064002C0022003000220029002C00220020007800200022002C00220020002F002000220029002C002200220029003E003C0069006600280065007100750061006C00280048006F006C0065003A007400650072006D0069006E00610074006
311
9006F006E002C0022003000220029002C0048006F006C0065003A00640065007000740068002C002200220029003E00C
161
                29
310
7360101C
 94
        0
  0
ACAD_PROXY_OBJECT
  5
3A159
330
0
100
AcDbProxyObject
 90
      499
 91
      589
 95
  5308447
 70
     0
162
              3844
311
4255801BC01C801B00184019C0194008000C401E63D003C0069006600280065007100750061006C00280048006F006C0065003A007400610070007000650064002C0022003000220029002C0022002500250063002200200048006F006C0065003A006400690061002C0048006F006C0065003A006E006F006D0069006E006
311
1006C0029003E003C0069006600280065007100750061006C00280048006F006C0065003A007400610070007000650064002C0022003100220029002C0022002000780020002200200048006F006C0065003A00540061007000440065007000740068002C002200220029003E003C0069006600280065007100750061006C0
311
0280048006F006C0065003A007400650072006D0069006E006100740069006F006E002C0022003000220029002C0069006600280065007100750061006C00280048006F006C0065003A007400610070007000650064002C0022003000220029002C00220020007800200022002C00220020002F002000220029002C0022002
311
20029003E003C0069006600280065007100750061006C00280048006F006C0065003A007400650072006D0069006E006100740069006F006E002C0022003000220029002C0048006F006C0065003A00640065007000740068002C002200220029003E00C
161
                29
310
7360101C
 94
        0
  0
ACAD_PROXY_OBJECT
  5
3A15C
330
0
100
AcDbProxyObject
 90
      499
 91
      589
 95
  5308447
 70
     0
162
              4116
311
4255801BC01C801B00184019C0194008000C401F73D002500250063003C0048006F006C0065003A00630074006400690061003E005C0050003C0069006600280065007100750061006C00280048006F006C0065003A007400610070007000650064002C0022003000220029002C0022002500250063002200200048006F006
311
C0065003A006400690061002C0048006F006C0065003A006E006F006D0069006E0061006C0029003E003C0069006600280065007100750061006C00280048006F006C0065003A007400610070007000650064002C0022003100220029002C0022002000780020002200200048006F006C0065003A005400610070004400650
311
07000740068002C002200220029003E003C0069006600280065007100750061006C00280048006F006C0065003A007400650072006D0069006E006100740069006F006E002C0022003000220029002C0069006600280065007100750061006C00280048006F006C0065003A007400610070007000650064002C00220030002
311
20029002C00220020007800200022002C00220020002F002000220029002C002200220029003E003C0069006600280065007100750061006C00280048006F006C0065003A007400650072006D0069006E006100740069006F006E002C0022003000220029002C0048006F006C0065003A00640065007000740068002C00220
311
0220029003E00C
161
                29
310
7360101C
 94
        0
  0
ACAD_PROXY_OBJECT
  5
3A157
330
0
100
AcDbProxyObject
 90
      499
 91
      589
 95
  5308447
 70
     0
162
               532
311
4255801BC01C801B00184019C0194008000C801173D003C0053005400440050003A0044004500530043003E0020003C0053005400440050003A005300540044003E00C
161
                29
310
73601014
 94
        0
  0
ACAD_PROXY_OBJECT
  5
3A156
330
0
100
AcDbProxyObject
 90
      499
 91
      589
 95
  5308447
 70
     0
162
               356
311
4255801BC01C801B00184019C0194008000C4010C3D003C0053005400440050003A0044004500530043003E00C
161
                29
310
7360101C
 94
        0
  0
ACAD_PROXY_OBJECT
  5
3A158
330
0
100
AcDbProxyObject
 90
      499
 91
      589
 95
  5308447
 70
     0
162
               340
311
4255801BC01C801B00184019C0194008000CC010B3D003C0053005400440050003A005300540044003E00C
161
                29
310
73601014
 94
        0
  0
FIELD
  5
3A14E
330
3A14D
100
AcDbField
  1
AcVar
  2
\AcVar ViewDetailId
 90
        0
 97
        0
 91
       63
 92
        0
 94
       43
 95
        2
 96
        0
300

 93
        1
  6
Variable
 93
        2
 90
        4
  1
ViewDetailId
 94
        0
300

302

304
ACVALUE_END
  7
ACFD_FIELD_VALUE
 93
        1
 90
        0
 94
        0
300

302

304
ACVALUE_END
301
----
 98
        4
  0
FIELD
  5
3A14F
330
3A14D
100
AcDbField
  1
AcVar
  2
\AcVar ViewScale \f "%sn"
 90
        0
 97
        0
 91
       63
 92
        0
 94
       43
 95
        2
 96
        0
300

 93
        1
  6
Variable
 93
        2
 90
        4
  1
ViewScale
 94
        0
300

302

304
ACVALUE_END
  7
ACFD_FIELD_VALUE
 93
        1
 90
        0
 94
        0
300
%sn
302

304
ACVALUE_END
301
----
 98
        4
  0
FIELD
  5
3A154
330
3A153
100
AcDbField
  1
AcVar
  2
\AcVar ViewSectionStartId
 90
        0
 97
        0
 91
       63
 92
        0
 94
       43
 95
        2
 96
        0
300

 93
        1
  6
Variable
 93
        2
 90
        4
  1
ViewSectionStartId
 94
        0
300

302

304
ACVALUE_END
  7
ACFD_FIELD_VALUE
 93
        1
 90
        0
 94
        0
300

302

304
ACVALUE_END
301
----
 98
        4
  0
FIELD
  5
3A155
330
3A153
100
AcDbField
  1
AcVar
  2
\AcVar ViewSectionEndId
 90
        0
 97
        0
 91
       63
 92
        0
 94
       43
 95
        2
 96
        0
300

 93
        1
  6
Variable
 93
        2
 90
        4
  1
ViewSectionEndId
 94
        0
300

302

304
ACVALUE_END
  7
ACFD_FIELD_VALUE
 93
        1
 90
        0
 94
        0
300

302

304
ACVALUE_END
301
----
 98
        4
  0
ENDSEC
  0
EOF
