  0
SECTION
  2
HEADER
  9
$ACADVER
  1
AC1027
  9
$ACADMAINTVER
 70
    83
  9
$DWGCODEPAGE
  3
ANSI_1252
  9
$LASTSAVEDBY
  1
mschnieder
  9
$REQUIREDVERSIONS
160
                 0
  9
$INSBASE
 10
0.0
 20
0.0
 30
0.0
  9
$EXTMIN
 10
16010.44940876622
 20
-886.9600068753793
 30
-0.0015258207003583
  9
$EXTMAX
 10
16036.14127621078
 20
-881.0888037069984
 30
0.0000000349246037
  9
$LIMMIN
 10
0.0
 20
0.0
  9
$LIMMAX
 10
210.0
 20
297.0
  9
$ORTHOMODE
 70
     0
  9
$REGENMODE
 70
     1
  9
$FILLMODE
 70
     1
  9
$QTEXTMODE
 70
     0
  9
$MIRRTEXT
 70
     0
  9
$LTSCALE
 40
1.0
  9
$ATTMODE
 70
     1
  9
$TEXTSIZE
 40
150.0
  9
$TRACEWID
 40
1.0
  9
$TEXTSTYLE
  7
100
  9
$CLAYER
  8
ESF_Spielgeraet
  9
$CELTYPE
  6
ByLayer
  9
$CECOLOR
 62
     7
  9
$CELTSCALE
 40
1.0
  9
$DISPSILH
 70
     0
  9
$DIMSCALE
 40
1.0
  9
$DIMASZ
 40
1.0
  9
$DIMEXO
 40
1.0
  9
$DIMDLI
 40
1.0
  9
$DIMRND
 40
0.0
  9
$DIMDLE
 40
3.0
  9
$DIMEXE
 40
1.0
  9
$DIMTP
 40
0.0
  9
$DIMTM
 40
0.0
  9
$DIMTXT
 40
1.0
  9
$DIMCEN
 40
1.0
  9
$DIMTSZ
 40
0.0
  9
$DIMTOL
 70
     0
  9
$DIMLIM
 70
     0
  9
$DIMTIH
 70
     0
  9
$DIMTOH
 70
     0
  9
$DIMSE1
 70
     0
  9
$DIMSE2
 70
     0
  9
$DIMTAD
 70
     1
  9
$DIMZIN
 70
     8
  9
$DIMBLK
  1

  9
$DIMASO
 70
     1
  9
$DIMSHO
 70
     1
  9
$DIMPOST
  1

  9
$DIMAPOST
  1

  9
$DIMALT
 70
     0
  9
$DIMALTD
 70
     3
  9
$DIMALTF
 40
0.03937007874016
  9
$DIMLFAC
 40
1.0
  9
$DIMTOFL
 70
     1
  9
$DIMTVP
 40
0.0
  9
$DIMTIX
 70
     0
  9
$DIMSOXD
 70
     0
  9
$DIMSAH
 70
     0
  9
$DIMBLK1
  1

  9
$DIMBLK2
  1

  9
$DIMSTYLE
  2
1
  9
$DIMCLRD
 70
     0
  9
$DIMCLRE
 70
     0
  9
$DIMCLRT
 70
     0
  9
$DIMTFAC
 40
1.0
  9
$DIMGAP
 40
1.0
  9
$DIMJUST
 70
     0
  9
$DIMSD1
 70
     0
  9
$DIMSD2
 70
     0
  9
$DIMTOLJ
 70
     0
  9
$DIMTZIN
 70
     8
  9
$DIMALTZ
 70
     0
  9
$DIMALTTZ
 70
     0
  9
$DIMUPT
 70
     0
  9
$DIMDEC
 70
     2
  9
$DIMTDEC
 70
     2
  9
$DIMALTU
 70
     2
  9
$DIMALTTD
 70
     3
  9
$DIMTXSTY
  7
Standard
  9
$DIMAUNIT
 70
     0
  9
$DIMADEC
 70
     2
  9
$DIMALTRND
 40
0.0
  9
$DIMAZIN
 70
     0
  9
$DIMDSEP
 70
    44
  9
$DIMATFIT
 70
     3
  9
$DIMFRAC
 70
     0
  9
$DIMLDRBLK
  1

  9
$DIMLUNIT
 70
     2
  9
$DIMLWD
 70
    -2
  9
$DIMLWE
 70
    -2
  9
$DIMTMOVE
 70
     0
  9
$DIMFXL
 40
1.0
  9
$DIMFXLON
 70
     0
  9
$DIMJOGANG
 40
0.7853981633974483
  9
$DIMTFILL
 70
     0
  9
$DIMTFILLCLR
 70
     0
  9
$DIMARCSYM
 70
     0
  9
$DIMLTYPE
  6

  9
$DIMLTEX1
  6

  9
$DIMLTEX2
  6

  9
$DIMTXTDIRECTION
 70
     0
  9
$LUNITS
 70
     2
  9
$LUPREC
 70
     4
  9
$SKETCHINC
 40
1.0
  9
$FILLETRAD
 40
0.0
  9
$AUNITS
 70
     0
  9
$AUPREC
 70
     0
  9
$MENU
  1
.
  9
$ELEVATION
 40
0.0
  9
$PELEVATION
 40
0.0
  9
$THICKNESS
 40
0.0
  9
$LIMCHECK
 70
     0
  9
$CHAMFERA
 40
0.0
  9
$CHAMFERB
 40
0.0
  9
$CHAMFERC
 40
0.0
  9
$CHAMFERD
 40
0.0
  9
$SKPOLY
 70
     0
  9
$TDCREATE
 40
2453325.398830648
  9
$TDUCREATE
 40
2453325.315497315
  9
$TDUPDATE
 40
2457863.406623588
  9
$TDUUPDATE
 40
2457863.323290255
  9
$TDINDWG
 40
4.5924963079
  9
$TDUSRTIMER
 40
4.5924945023
  9
$USRTIMER
 70
     1
  9
$ANGBASE
 50
0.0
  9
$ANGDIR
 70
     0
  9
$PDMODE
 70
     0
  9
$PDSIZE
 40
0.0
  9
$PLINEWID
 40
0.0
  9
$SPLFRAME
 70
     0
  9
$SPLINETYPE
 70
     6
  9
$SPLINESEGS
 70
     8
  9
$HANDSEED
  5
549BD
  9
$SURFTAB1
 70
     6
  9
$SURFTAB2
 70
     6
  9
$SURFTYPE
 70
     6
  9
$SURFU
 70
     6
  9
$SURFV
 70
     6
  9
$UCSBASE
  2

  9
$UCSNAME
  2

  9
$UCSORG
 10
0.0
 20
0.0
 30
0.0
  9
$UCSXDIR
 10
1.0
 20
0.0
 30
0.0
  9
$UCSYDIR
 10
0.0
 20
1.0
 30
0.0
  9
$UCSORTHOREF
  2

  9
$UCSORTHOVIEW
 70
     0
  9
$UCSORGTOP
 10
0.0
 20
0.0
 30
0.0
  9
$UCSORGBOTTOM
 10
0.0
 20
0.0
 30
0.0
  9
$UCSORGLEFT
 10
0.0
 20
0.0
 30
0.0
  9
$UCSORGRIGHT
 10
0.0
 20
0.0
 30
0.0
  9
$UCSORGFRONT
 10
0.0
 20
0.0
 30
0.0
  9
$UCSORGBACK
 10
0.0
 20
0.0
 30
0.0
  9
$PUCSBASE
  2

  9
$PUCSNAME
  2

  9
$PUCSORG
 10
0.0
 20
0.0
 30
0.0
  9
$PUCSXDIR
 10
1.0
 20
0.0
 30
0.0
  9
$PUCSYDIR
 10
0.0
 20
1.0
 30
0.0
  9
$PUCSORTHOREF
  2

  9
$PUCSORTHOVIEW
 70
     0
  9
$PUCSORGTOP
 10
0.0
 20
0.0
 30
0.0
  9
$PUCSORGBOTTOM
 10
0.0
 20
0.0
 30
0.0
  9
$PUCSORGLEFT
 10
0.0
 20
0.0
 30
0.0
  9
$PUCSORGRIGHT
 10
0.0
 20
0.0
 30
0.0
  9
$PUCSORGFRONT
 10
0.0
 20
0.0
 30
0.0
  9
$PUCSORGBACK
 10
0.0
 20
0.0
 30
0.0
  9
$USERI1
 70
     0
  9
$USERI2
 70
     0
  9
$USERI3
 70
     0
  9
$USERI4
 70
     0
  9
$USERI5
 70
     0
  9
$USERR1
 40
0.0
  9
$USERR2
 40
0.0
  9
$USERR3
 40
0.0
  9
$USERR4
 40
0.0
  9
$USERR5
 40
0.0
  9
$WORLDVIEW
 70
     1
  9
$SHADEDGE
 70
     3
  9
$SHADEDIF
 70
    70
  9
$TILEMODE
 70
     1
  9
$MAXACTVP
 70
    64
  9
$PINSBASE
 10
0.0
 20
0.0
 30
0.0
  9
$PLIMCHECK
 70
     0
  9
$PEXTMIN
 10
0.7612936004385347
 20
0.7559578922353012
 30
0.0
  9
$PEXTMAX
 10
832.7911693029754
 20
585.9562928245313
 30
0.0
  9
$PLIMMIN
 10
-3.757080078125
 20
-3.757083415985107
  9
$PLIMMAX
 10
837.2369384765624
 20
590.2219204902649
  9
$UNITMODE
 70
     0
  9
$VISRETAIN
 70
     1
  9
$PLINEGEN
 70
     0
  9
$PSLTSCALE
 70
     1
  9
$TREEDEPTH
 70
  3020
  9
$CMLSTYLE
  2
Standard
  9
$CMLJUST
 70
     0
  9
$CMLSCALE
 40
20.0
  9
$PROXYGRAPHICS
 70
     1
  9
$MEASUREMENT
 70
     1
  9
$CELWEIGHT
370
    -1
  9
$ENDCAPS
280
     0
  9
$JOINSTYLE
280
     0
  9
$LWDISPLAY
290
     0
  9
$INSUNITS
 70
     4
  9
$HYPERLINKBASE
  1

  9
$STYLESHEET
  1
monochrome.ctb
  9
$XEDIT
290
     1
  9
$CEPSNTYPE
380
     0
  9
$PSTYLEMODE
290
     1
  9
$FINGERPRINTGUID
  2
{84C6DA88-BD7E-44D7-AD8D-086D7E86F6BE}
  9
$VERSIONGUID
  2
{2201D68E-BB35-4DCA-8667-AF5842364E3B}
  9
$EXTNAMES
290
     1
  9
$PSVPSCALE
 40
0.0
  9
$OLESTARTUP
290
     0
  9
$SORTENTS
280
   127
  9
$INDEXCTL
280
     0
  9
$HIDETEXT
280
     1
  9
$XCLIPFRAME
280
     2
  9
$HALOGAP
280
     0
  9
$OBSCOLOR
 70
   257
  9
$OBSLTYPE
280
     0
  9
$INTERSECTIONDISPLAY
280
     0
  9
$INTERSECTIONCOLOR
 70
   257
  9
$DIMASSOC
280
     2
  9
$PROJECTNAME
  1

  9
$CAMERADISPLAY
290
     0
  9
$LENSLENGTH
 40
50.0
  9
$CAMERAHEIGHT
 40
0.0
  9
$STEPSPERSEC
 40
2.0
  9
$STEPSIZE
 40
6.0
  9
$3DDWFPREC
 40
2.0
  9
$PSOLWIDTH
 40
0.25
  9
$PSOLHEIGHT
 40
4.0
  9
$LOFTANG1
 40
1.570796326794896
  9
$LOFTANG2
 40
1.570796326794896
  9
$LOFTMAG1
 40
0.0
  9
$LOFTMAG2
 40
0.0
  9
$LOFTPARAM
 70
     7
  9
$LOFTNORMALS
280
     1
  9
$LATITUDE
 40
37.795
  9
$LONGITUDE
 40
-122.394
  9
$NORTHDIRECTION
 40
0.0
  9
$TIMEZONE
 70
 -8000
  9
$LIGHTGLYPHDISPLAY
280
     1
  9
$TILEMODELIGHTSYNCH
280
     1
  9
$CMATERIAL
347
1D8F
  9
$SOLIDHIST
280
     1
  9
$SHOWHIST
280
     1
  9
$DWFFRAME
280
     2
  9
$DGNFRAME
280
     0
  9
$REALWORLDSCALE
290
     1
  9
$INTERFERECOLOR
 62
     1
  9
$INTERFEREOBJVS
345
1D9C
  9
$INTERFEREVPVS
346
1D99
  9
$CSHADOW
280
     0
  9
$SHADOWPLANELOCATION
 40
0.0
  0
ENDSEC
  0
SECTION
  2
CLASSES
  0
CLASS
  1
ACDBDICTIONARYWDFLT
  2
AcDbDictionaryWithDefault
  3
ObjectDBX Classes
 90
        0
 91
        1
280
     0
281
     0
  0
CLASS
  1
TABLESTYLE
  2
AcDbTableStyle
  3
ObjectDBX Classes
 90
     4095
 91
        1
280
     0
281
     0
  0
CLASS
  1
DICTIONARYVAR
  2
AcDbDictionaryVar
  3
ObjectDBX Classes
 90
        0
 91
       17
280
     0
281
     0
  0
CLASS
  1
DIMASSOC
  2
AcDbDimAssoc
  3
"AcDbDimAssoc|Product Desc:     AcDim ARX App For Dimension|Company:          Autodesk, Inc.|WEB Address:      www.autodesk.com"
 90
        0
 91
       27
280
     0
281
     0
  0
CLASS
  1
SORTENTSTABLE
  2
AcDbSortentsTable
  3
ObjectDBX Classes
 90
        0
 91
        3
280
     0
281
     0
  0
CLASS
  1
MATERIAL
  2
AcDbMaterial
  3
ObjectDBX Classes
 90
     1153
 91
        3
280
     0
281
     0
  0
CLASS
  1
VISUALSTYLE
  2
AcDbVisualStyle
  3
ObjectDBX Classes
 90
     4095
 91
       26
280
     0
281
     0
  0
CLASS
  1
ACAD_EVALUATION_GRAPH
  2
AcDbEvalGraph
  3
ObjectDBX Classes
 90
     1153
 91
        0
280
     0
281
     0
  0
CLASS
  1
ACAECUSTOBJ
  2
AcAeEditorObj
  3
AcAeEditorObj
 90
     1024
 91
        0
280
     0
281
     0
  0
CLASS
  1
ACDB_DYNAMICBLOCKPURGEPREVENTER_VERSION
  2
AcDbDynamicBlockPurgePreventer
  3
ObjectDBX Classes
 90
     1153
 91
        0
280
     0
281
     0
  0
CLASS
  1
SCALE
  2
AcDbScale
  3
ObjectDBX Classes
 90
     1153
 91
        1
280
     0
281
     0
  0
CLASS
  1
MLEADERSTYLE
  2
AcDbMLeaderStyle
  3
ACDB_MLEADERSTYLE_CLASS
 90
     4095
 91
        1
280
     0
281
     0
  0
CLASS
  1
CELLSTYLEMAP
  2
AcDbCellStyleMap
  3
ObjectDBX Classes
 90
     1152
 91
        4
280
     0
281
     0
  0
CLASS
  1
MULTILEADER
  2
AcDbMLeader
  3
ACDB_MLEADER_CLASS
 90
     1025
 91
        0
280
     0
281
     1
  0
CLASS
  1
AEC_REFEDIT_STATUS_TRACKER
  2
AecDbRefEditStatusTracker
  3
AecArchBase70|Product Desc: Autodesk Architectural Desktop 2007 |Company: Autodesk,Inc. |WEB Address: www.autodesk.com
 90
      129
 91
        0
280
     0
281
     0
  0
CLASS
  1
NPOCOLLECTION
  2
AcDbImpNonPersistentObjectsCollection
  3
ObjectDBX Classes
 90
     1153
 91
        0
280
     0
281
     0
  0
CLASS
  1
IMAGEDEF
  2
AcDbRasterImageDef
  3
ISM
 90
        0
 91
        0
280
     0
281
     0
  0
CLASS
  1
RASTERVARIABLES
  2
AcDbRasterVariables
  3
ISM
 90
        0
 91
        1
280
     0
281
     0
  0
CLASS
  1
IMAGEDEF_REACTOR
  2
AcDbRasterImageDefReactor
  3
ISM
 90
        1
 91
        0
280
     0
281
     0
  0
CLASS
  1
IMAGE
  2
AcDbRasterImage
  3
ISM
 90
     2175
 91
        0
280
     0
281
     1
  0
CLASS
  1
ACDB_BLOCKREPRESENTATION_DATA
  2
AcDbBlockRepresentationData
  3
ObjectDBX Classes
 90
     1153
 91
        0
280
     0
281
     0
  0
CLASS
  1
SOLID_BACKGROUND
  2
AcDbSolidBackground
  3
SCENEOE
 90
     4095
 91
        0
280
     0
281
     0
  0
CLASS
  1
EXACXREFPANELOBJECT
  2
ExAcXREFPanelObject
  3
EXAC_ESW
 90
     1025
 91
        0
280
     0
281
     0
  0
CLASS
  1
WIPEOUT
  2
AcDbWipeout
  3
WipeOut|Product Desc: Object Enabler for WipeOut entity | Company: Autodesk, Inc. | WEB Address: www.autodesk.com
 90
     2175
 91
        0
280
     0
281
     1
  0
CLASS
  1
WIPEOUTVARIABLES
  2
AcDbWipeoutVariables
  3
"WipeOut|Product Desc:     WipeOut Dbx Application|Company:          Autodesk, Inc.|WEB Address:      www.autodesk.com"
 90
        0
 91
        1
280
     0
281
     0
  0
CLASS
  1
ARC_DIMENSION
  2
AcDbArcDimension
  3
ObjectDBX Classes
 90
     1025
 91
        0
280
     0
281
     1
  0
CLASS
  1
PDFDEFINITION
  2
AcDbPdfDefinition
  3
ObjectDBX Classes
 90
     1153
 91
        0
280
     0
281
     0
  0
CLASS
  1
PDFUNDERLAY
  2
AcDbPdfReference
  3
ObjectDBX Classes
 90
     4095
 91
        0
280
     0
281
     1
  0
CLASS
  1
ACDBSECTIONVIEWSTYLE
  2
AcDbSectionViewStyle
  3
ObjectDBX Classes
 90
     1025
 91
        1
280
     0
281
     0
  0
CLASS
  1
ACDBDETAILVIEWSTYLE
  2
AcDbDetailViewStyle
  3
ObjectDBX Classes
 90
     1025
 91
        1
280
     0
281
     0
  0
CLASS
  1
BREAKDATA
  2
AcDbBreakData
  3
ObjectDBX Classes
 90
     1024
 91
        0
280
     0
281
     0
  0
CLASS
  1
ACME_DOCUMENT
  2
AcMeDbDoc
  3
AcMeServices
 90
     1024
 91
        0
280
     0
281
     0
  0
CLASS
  1
AMGSETTINGSOBJ
  2
AmgSettingsObj
  3
"AcadM|Product Description: AutoCAD Mechanical|Company: Autodesk, Inc."
 90
     1024
 91
        0
280
     0
281
     0
  0
CLASS
  1
ACMESCOPE
  2
AcMeScope
  3
AcMeServices
 90
     1024
 91
        0
280
     0
281
     0
  0
CLASS
  1
ACMECOMMANDHISTORY
  2
AcMeCommandHistory
  3
AcMeServices
 90
     1024
 91
        0
280
     0
281
     0
  0
CLASS
  1
ACIMSYSVARMAN
  2
AcImSysVarManager
  3
AcMeServices
 90
     1024
 91
        0
280
     0
281
     0
  0
CLASS
  1
ACIMINTSYSVAR
  2
AcImIntSysVar
  3
AcMeServices
 90
     1024
 91
        0
280
     0
281
     0
  0
CLASS
  1
ACMESTATEMGR
  2
AcMeStateMgr
  3
AcMeServices
 90
     1024
 91
        0
280
     0
281
     0
  0
CLASS
  1
ACDBENTITYCACHE
  2
AcMeEntityCache
  3
AcMeServices
 90
     1024
 91
        0
280
     0
281
     0
  0
CLASS
  1
ACGREFMASTER
  2
AcGrefMaster
  3
AcAttribServices
 90
     1024
 91
        0
280
     0
281
     0
  0
CLASS
  1
ACME_DATABASE
  2
AcMeDbDatabase
  3
AcMeServices
 90
     1024
 91
        0
280
     0
281
     0
  0
CLASS
  1
ACRFINSADJUSTERMGR
  2
AcRfInsAdjusterMgr
  3
AcMeServices
 90
     1024
 91
        0
280
     0
281
     0
  0
CLASS
  1
ACGREFACADMASTER
  2
AcGrefacadMaster
  3
AcGrefServices
 90
     1024
 91
        0
280
     0
281
     0
  0
CLASS
  1
AMDTMENUSTATEMGR
  2
AmdtMenuStateMgr
  3
McadcomServices
 90
     1024
 91
        0
280
     0
281
     0
  0
CLASS
  1
AMDTMCOMMENUSTATE
  2
AmdtMcomMenuState
  3
McadcomServices
 90
     1024
 91
        0
280
     0
281
     0
  0
CLASS
  1
AMIMASTER
  2
AmiMaster
  3
AmiServices
 90
     1024
 91
        0
280
     0
281
     0
  0
CLASS
  1
MAPIAMMOUDLE
  2
MApiAmModule
  3
MApiAmServices
 90
     1024
 91
        0
280
     0
281
     0
  0
CLASS
  1
ACIMSTRSYSVAR
  2
AcImStrSysVar
  3
AcMeServices
 90
     1024
 91
        0
280
     0
281
     0
  0
CLASS
  1
AMDTAMMENUSTATE
  2
AmdtAmMenuState
  3
DesignerAssemblies
 90
     1024
 91
        0
280
     0
281
     0
  0
CLASS
  1
ACAMPROJECT
  2
AcAmProject
  3
DesignerAssemblies
 90
     1024
 91
        0
280
     0
281
     0
  0
CLASS
  1
ACAMGRCOMPDEF
  2
AcAmGrCompDef
  3
DesignerAssemblies
 90
     1024
 91
        0
280
     0
281
     0
  0
CLASS
  1
ACAMCOMPDEF
  2
AcAmCompDef
  3
DesignerAssemblies
 90
     1024
 91
        0
280
     0
281
     0
  0
CLASS
  1
ACAMCOMPDEFMGR
  2
AcAmCompDefMgr
  3
DesignerAssemblies
 90
     1024
 91
        0
280
     0
281
     0
  0
CLASS
  1
AMCONTEXTMGR
  2
AcAmContextMgr
  3
DesignerAssemblies
 90
     1024
 91
        0
280
     0
281
     0
  0
CLASS
  1
ACAMCONTEXTMODELER
  2
AcAmContextModeler
  3
DesignerAssemblies
 90
     1024
 91
        0
280
     0
281
     0
  0
CLASS
  1
ACMDATADICTIONARY
  2
AcmDataDictionary
  3
"AcmSymBB|Product Description: AutoCAD Mechanical|Company: Autodesk, Inc."
 90
     1024
 91
        0
280
     0
281
     0
  0
CLASS
  1
ACAMGRCOMPDEFSET
  2
AcAmGrCompDefSet
  3
DesignerAssemblies
 90
     1024
 91
        0
280
     0
281
     0
  0
CLASS
  1
AMDTBROWSERDBTAB
  2
AmdtBrowserDbTab
  3
McadcomServices
 90
     1024
 91
        0
280
     0
281
     0
  0
CLASS
  1
CBROWSERAPPOBJECT
  2
CBrowserAppObject
  3
McadcomServices
 90
     1024
 91
        0
280
     0
281
     0
  0
CLASS
  1
DM_PLACEHOLDER
  2
AcDmSelsetPlaceholder
  3
McadcomServices
 90
     1024
 91
        0
280
     0
281
     0
  0
CLASS
  1
ACMSTANDARDDIN
  2
AcmStandardDIN
  3
"Amdt_StdImp|Product Description: AutoCAD Mechanical|Company: Autodesk, Inc."
 90
     1024
 91
        0
280
     0
281
     0
  0
CLASS
  1
AMDTEDGESTANDARDDIN13715
  2
AmdtEdgeStdDIN13715
  3
"Amdt_StdImp|Product Description: AutoCAD Mechanical|Company: Autodesk, Inc."
 90
     1024
 91
        0
280
     0
281
     0
  0
CLASS
  1
ACMSURFSTANDARDDIN2002
  2
AcmSurfTextStdDIN2002
  3
"Amdt_StdImp|Product Description: AutoCAD Mechanical|Company: Autodesk, Inc."
 90
     1024
 91
        0
280
     0
281
     0
  0
CLASS
  1
ACMFCFSTANDARDDIN2008
  2
AcmFCFStdDIN2008
  3
"Amdt_StdImp|Product Description: AutoCAD Mechanical|Company: Autodesk, Inc."
 90
     1024
 91
        0
280
     0
281
     0
  0
CLASS
  1
ACMWELDSTANDARDDIN
  2
AcmWeldingStdDIN
  3
"Amdt_StdImp|Product Description: AutoCAD Mechanical|Company: Autodesk, Inc."
 90
     1024
 91
        0
280
     0
281
     0
  0
CLASS
  1
ACMIDSTANDARDDIN2012
  2
AcmIdStdDIN2012
  3
"Amdt_StdImp|Product Description: AutoCAD Mechanical|Company: Autodesk, Inc."
 90
     1024
 91
        0
280
     0
281
     0
  0
CLASS
  1
ACMDATUMSTANDARDDIN2008
  2
AcmDatumStdDIN2008
  3
"Amdt_StdImp|Product Description: AutoCAD Mechanical|Company: Autodesk, Inc."
 90
     1024
 91
        0
280
     0
281
     0
  0
CLASS
  1
ACMBOMSTANDARDDIN
  2
AcmBOMStdDIN
  3
"Amdt_StdImp|Product Description: AutoCAD Mechanical|Company: Autodesk, Inc."
 90
     1024
 91
        0
280
     0
281
     0
  0
CLASS
  1
ACMDETAILSTANDARDDIN
  2
AmdtDetailSymStdDIN
  3
"Amdt_StdImp|Product Description: AutoCAD Mechanical|Company: Autodesk, Inc."
 90
     1024
 91
        0
280
     0
281
     0
  0
CLASS
  1
ACMSECTIONSTANDARDDIN
  2
AmdtSectionSymStdDIN
  3
"Amdt_StdImp|Product Description: AutoCAD Mechanical|Company: Autodesk, Inc."
 90
     1024
 91
        0
280
     0
281
     0
  0
CLASS
  1
ACMCENTERLINESTANDARDDIN
  2
AmdtCenterLineStdDIN
  3
"Amdt_StdImp|Product Description: AutoCAD Mechanical|Company: Autodesk, Inc."
 90
     1024
 91
        0
280
     0
281
     0
  0
CLASS
  1
ACMTHREADLINESTANDARDDIN
  2
AmdtThreadLineStdDIN
  3
"Amdt_StdImp|Product Description: AutoCAD Mechanical|Company: Autodesk, Inc."
 90
     1024
 91
        0
280
     0
281
     0
  0
CLASS
  1
ACMNOTESTANDARDDIN
  2
AmdtNoteStdDIN
  3
"Amdt_StdImp|Product Description: AutoCAD Mechanical|Company: Autodesk, Inc."
 90
     1024
 91
        0
280
     0
281
     0
  0
CLASS
  1
ACMTAPERSTANDARDDIN
  2
AcmTaperStdDIN
  3
"Amdt_StdImp|Product Description: AutoCAD Mechanical|Company: Autodesk, Inc."
 90
     1024
 91
        0
280
     0
281
     0
  0
CLASS
  1
ACMANOOTATIONVIEWSTANDARDDIN
  2
AmdtAnViewStdDIN
  3
"Amdt_StdImp|Product Description: AutoCAD Mechanical|Company: Autodesk, Inc."
 90
     1024
 91
        0
280
     0
281
     0
  0
CLASS
  1
ACAMGLAYSTD
  2
AcAmgLayStd
  3
"AmgLay|Product Description: AutoCAD Mechanical|Company: Autodesk, Inc."
 90
     1024
 91
        0
280
     0
281
     0
  0
CLASS
  1
ACAMGDIMSTD
  2
AcAmgDimStd
  3
"AmgDim|Product Description: AutoCAD Mechanical|Company: Autodesk, Inc."
 90
     1024
 91
        0
280
     0
281
     0
  0
CLASS
  1
AMGOBJPROPCFG
  2
AmgObjPropCfg
  3
"AmgLay|Product Description: AutoCAD Mechanical|Company: Autodesk, Inc."
 90
     1024
 91
        0
280
     0
281
     0
  0
CLASS
  1
ACAMGHOLECHARTSTDDIN
  2
AcAmgHoleChartStdDIN
  3
AmgDim|Product Description: AutoCAD Mechanical|Company: Autodesk, Inc.
 90
     1024
 91
        0
280
     0
281
     0
  0
CLASS
  1
ACAMGTITLESTD
  2
AcAmgTitleStd
  3
"AmgTitle|Product Description: AutoCAD Mechanical|Company: Autodesk, Inc."
 90
     1024
 91
        0
280
     0
281
     0
  0
CLASS
  1
ACMSECTIONSTANDARDCUSTOM
  2
AmdtSectionSymStdCustom
  3
"Amdt_StdImp|Product Description: AutoCAD Mechanical|Company: Autodesk, Inc."
 90
     1024
 91
        0
280
     0
281
     0
  0
CLASS
  1
ACMDETAILTANDARDCUSTOM
  2
AmdtDetailSymStdCustom
  3
"Amdt_StdImp|Product Description: AutoCAD Mechanical|Company: Autodesk, Inc."
 90
     1024
 91
        0
280
     0
281
     0
  0
CLASS
  1
FIELD
  2
AcDbField
  3
ObjectDBX Classes
 90
     1152
 91
        0
280
     0
281
     0
  0
CLASS
  1
FIELDLIST
  2
AcDbFieldList
  3
ObjectDBX Classes
 90
     1152
 91
        1
280
     0
281
     0
  0
CLASS
  1
AMDTNOTETEMPLATEDB
  2
AmdtNoteTemplateDB
  3
AcmSymBB|Product Description: AutoCAD Mechanical|Company: Autodesk, Inc.
 90
     1024
 91
        0
280
     0
281
     0
  0
CLASS
  1
ACAMGFILTERDAT
  2
AcAmgFilterDat
  3
"AcadM|Product Description: AutoCAD Mechanical|Company: Autodesk, Inc."
 90
     1024
 91
        0
280
     0
281
     0
  0
ENDSEC
  0
SECTION
  2
TABLES
  0
TABLE
  2
VPORT
  5
8
102
{ACAD_XDICTIONARY
360
592E
102
}
330
0
100
AcDbSymbolTable
 70
     1
  0
VPORT
  5
1D8D
330
8
100
AcDbSymbolTableRecord
100
AcDbViewportTableRecord
  2
*Active
 70
     0
 10
0.0
 20
0.0
 11
1.0
 21
1.0
 12
16023.2953424885
 22
-884.024405291189
 13
0.0
 23
0.0
 14
10.0
 24
10.0
 15
10.0
 25
10.0
 16
0.0
 26
0.0
 36
1.0
 17
0.0
 27
0.0
 37
0.0
 40
11.25977245879883
 41
2.289024390243902
 42
50.0
 43
0.0
 44
0.0
 50
0.0
 51
0.0
 71
     0
 72
  1000
 73
     1
 74
     3
 75
     0
 76
     0
 77
     0
 78
     0
281
     0
 65
     1
110
0.0
120
0.0
130
0.0
111
1.0
121
0.0
131
0.0
112
0.0
122
1.0
132
0.0
 79
     0
146
0.0
348
1D98
 60
     3
 61
     5
292
     1
282
     1
141
0.0
142
0.0
 63
   250
421
  3355443
1001
ACAD_NAV_VCDISPLAY
1070
     3
  0
ENDTAB
  0
TABLE
  2
LTYPE
  5
5
330
0
100
AcDbSymbolTable
 70
     5
  0
LTYPE
  5
14
330
5
100
AcDbSymbolTableRecord
100
AcDbLinetypeTableRecord
  2
ByBlock
 70
     0
  3

 72
    65
 73
     0
 40
0.0
  0
LTYPE
  5
15
330
5
100
AcDbSymbolTableRecord
100
AcDbLinetypeTableRecord
  2
ByLayer
 70
     0
  3

 72
    65
 73
     0
 40
0.0
  0
LTYPE
  5
16
330
5
100
AcDbSymbolTableRecord
100
AcDbLinetypeTableRecord
  2
Continuous
 70
     0
  3
Solid line
 72
    65
 73
     0
 40
0.0
  0
LTYPE
  5
537F8
330
5
100
AcDbSymbolTableRecord
100
AcDbLinetypeTableRecord
  2
HIDDEN2
 70
     0
  3
Hidden (.5x) _ _ _ _ _ _ _ _ _ _ _ _ _ _ _ _ _
 72
    65
 73
     2
 40
4.762499999999999
 49
3.174999999999999
 74
     0
 49
-1.587499999999999
 74
     0
  0
ENDTAB
  0
TABLE
  2
LAYER
  5
2
102
{ACAD_XDICTIONARY
360
48
102
}
330
0
100
AcDbSymbolTable
 70
    14
  0
LAYER
  5
10
102
{ACAD_XDICTIONARY
360
253B
102
}
330
2
100
AcDbSymbolTableRecord
100
AcDbLayerTableRecord
  2
0
 70
     0
 62
     7
  6
Continuous
370
    -3
390
F
347
1D91
348
0
  0
LAYER
  5
3F
102
{ACAD_XDICTIONARY
360
2549
102
}
330
2
100
AcDbSymbolTableRecord
100
AcDbLayerTableRecord
  2
Kontur 18
 70
     0
 62
     1
  6
Continuous
370
    18
390
F
347
1D91
348
0
1001
AcAecLayerStandard
1000

1000

  0
LAYER
  5
32AF3
102
{ACAD_XDICTIONARY
360
32AF4
102
}
330
2
100
AcDbSymbolTableRecord
100
AcDbLayerTableRecord
  2
Bemaßung
 70
     0
 62
     9
  6
Continuous
370
     5
390
F
347
1D91
348
0
1001
AcAecLayerStandard
1000

1000

  0
LAYER
  5
517C8
102
{ACAD_XDICTIONARY
360
517C9
102
}
330
2
100
AcDbSymbolTableRecord
100
AcDbLayerTableRecord
  2
Text
 70
     0
 62
     3
  6
Continuous
370
    25
390
F
347
1D91
348
0
1001
AcAecLayerStandard
1000

1000

  0
LAYER
  5
517CE
330
2
100
AcDbSymbolTableRecord
100
AcDbLayerTableRecord
  2
Defpoints
 70
     0
 62
     7
  6
Continuous
290
     0
370
    -3
390
F
347
1D91
348
0
  0
LAYER
  5
53613
330
2
100
AcDbSymbolTableRecord
100
AcDbLayerTableRecord
  2
ESF_Spielgeraet
 70
     0
 62
     7
  6
Continuous
370
    15
390
F
347
1D91
348
0
1001
AcAecLayerStandard
1000

1000

1001
ACCMTRANSPARENCY
1071
        0
  0
LAYER
  5
537F9
102
{ACAD_XDICTIONARY
360
537FA
102
}
330
2
100
AcDbSymbolTableRecord
100
AcDbLayerTableRecord
  2
Kontur 25
 70
     0
 62
     7
  6
Continuous
370
    25
390
F
347
1D91
348
0
1001
AcAecLayerStandard
1000

1000

  0
LAYER
  5
537FD
102
{ACAD_XDICTIONARY
360
537FE
102
}
330
2
100
AcDbSymbolTableRecord
100
AcDbLayerTableRecord
  2
Kontur 09
 70
     0
 62
     5
  6
Continuous
370
     9
390
F
347
1D91
348
0
  0
LAYER
  5
53802
330
2
100
AcDbSymbolTableRecord
100
AcDbLayerTableRecord
  2
Sicherheitsbereich
 70
     0
 62
    31
  6
HIDDEN2
370
    13
390
F
347
1D91
348
0
1001
AcAecLayerStandard
1000

1000

1001
ACCMTRANSPARENCY
1071
        0
  0
ENDTAB
  0
TABLE
  2
STYLE
  5
3
330
0
100
AcDbSymbolTable
 70
     6
  0
STYLE
  5
11
330
3
100
AcDbSymbolTableRecord
100
AcDbTextStyleTableRecord
  2
Standard
 70
     0
 40
0.0
 41
1.0
 50
0.0
 71
     0
 42
150.0
  3
tahoma.ttf
  4

1001
ACAD
1000
Tahoma
1071
       34
  0
STYLE
  5
BA8
330
3
100
AcDbSymbolTableRecord
100
AcDbTextStyleTableRecord
  2
100
 70
     0
 40
100.0
 41
1.0
 50
0.0
 71
     0
 42
150.0
  3
tahoma.ttf
  4

1001
ACAD
1000
Tahoma
1071
       34
  0
STYLE
  5
51980
330
3
100
AcDbSymbolTableRecord
100
AcDbTextStyleTableRecord
  2
2.5
 70
     0
 40
2.5
 41
1.0
 50
0.0
 71
     0
 42
2.5
  3
arial.ttf
  4

1001
ACAD
1000
Arial
1071
       34
  0
ENDTAB
  0
TABLE
  2
VIEW
  5
6
330
0
100
AcDbSymbolTable
 70
     5
  0
ENDTAB
  0
TABLE
  2
UCS
  5
7
330
0
100
AcDbSymbolTable
 70
     0
  0
ENDTAB
  0
TABLE
  2
APPID
  5
9
330
0
100
AcDbSymbolTable
 70
    31
  0
APPID
  5
12
330
9
100
AcDbSymbolTableRecord
100
AcDbRegAppTableRecord
  2
ACAD
 70
     0
  0
APPID
  5
2F
330
9
100
AcDbSymbolTableRecord
100
AcDbRegAppTableRecord
  2
ACAD_PSEXT
 70
     0
  0
APPID
  5
39
330
9
100
AcDbSymbolTableRecord
100
AcDbRegAppTableRecord
  2
AcAecLayerStandard
 70
     0
  0
APPID
  5
1DB7
330
9
100
AcDbSymbolTableRecord
100
AcDbRegAppTableRecord
  2
ACAD_EXEMPT_FROM_CAD_STANDARDS
 70
     0
  0
APPID
  5
2091
330
9
100
AcDbSymbolTableRecord
100
AcDbRegAppTableRecord
  2
ACAUTHENVIRON
 70
     0
  0
APPID
  5
2096
330
9
100
AcDbSymbolTableRecord
100
AcDbRegAppTableRecord
  2
AcDbDynamicBlockTrueName
 70
     0
  0
APPID
  5
2097
330
9
100
AcDbSymbolTableRecord
100
AcDbRegAppTableRecord
  2
AcDbDynamicBlockGUID
 70
     0
  0
APPID
  5
2099
330
9
100
AcDbSymbolTableRecord
100
AcDbRegAppTableRecord
  2
AcDbBlockRepETag
 70
     0
  0
APPID
  5
2115
330
9
100
AcDbSymbolTableRecord
100
AcDbRegAppTableRecord
  2
ACAD_DSTYLE_DIMTEXT_FILL
 70
     0
  0
APPID
  5
2116
330
9
100
AcDbSymbolTableRecord
100
AcDbRegAppTableRecord
  2
AcDbBlockRepBTag
 70
     0
  0
APPID
  5
252F
330
9
100
AcDbSymbolTableRecord
100
AcDbRegAppTableRecord
  2
ACAD_MLEADERVER
 70
     0
  0
APPID
  5
257F
330
9
100
AcDbSymbolTableRecord
100
AcDbRegAppTableRecord
  2
ACAD_DSTYLE_DIMJAG
 70
     0
  0
APPID
  5
2580
330
9
100
AcDbSymbolTableRecord
100
AcDbRegAppTableRecord
  2
ACAD_DSTYLE_DIMTALN
 70
     0
  0
APPID
  5
26EC
330
9
100
AcDbSymbolTableRecord
100
AcDbRegAppTableRecord
  2
ACADANNOAV
 70
     0
  0
APPID
  5
2738
330
9
100
AcDbSymbolTableRecord
100
AcDbRegAppTableRecord
  2
ACAD_DSTYLE_DIMBREAK
 70
     0
  0
APPID
  5
273B
330
9
100
AcDbSymbolTableRecord
100
AcDbRegAppTableRecord
  2
AcadAnnoPO
 70
     0
  0
APPID
  5
828C
330
9
100
AcDbSymbolTableRecord
100
AcDbRegAppTableRecord
  2
AcadAnnotative
 70
     0
  0
APPID
  5
C44A
330
9
100
AcDbSymbolTableRecord
100
AcDbRegAppTableRecord
  2
ACAD_DSTYLE_DIMRADIAL_EXTENSION
 70
     0
  0
APPID
  5
CB35
330
9
100
AcDbSymbolTableRecord
100
AcDbRegAppTableRecord
  2
GradientColor1ACI
 70
     0
  0
APPID
  5
CB36
330
9
100
AcDbSymbolTableRecord
100
AcDbRegAppTableRecord
  2
GradientColor2ACI
 70
     0
  0
APPID
  5
12C71
330
9
100
AcDbSymbolTableRecord
100
AcDbRegAppTableRecord
  2
ACCMTRANSPARENCY
 70
     0
  0
APPID
  5
2268C
330
9
100
AcDbSymbolTableRecord
100
AcDbRegAppTableRecord
  2
ADESKUNDERLAYLAYEROVERRIDEDATA
 70
     0
  0
APPID
  5
31C07
330
9
100
AcDbSymbolTableRecord
100
AcDbRegAppTableRecord
  2
ACAD_NAV_VCDISPLAY
 70
     0
  0
APPID
  5
389C3
330
9
100
AcDbSymbolTableRecord
100
AcDbRegAppTableRecord
  2
MCAD_NO_VIS
 70
     0
  0
APPID
  5
389C4
330
9
100
AcDbSymbolTableRecord
100
AcDbRegAppTableRecord
  2
ACAD_TEMP_GRAPHIC
 70
     0
  0
APPID
  5
389C5
330
9
100
AcDbSymbolTableRecord
100
AcDbRegAppTableRecord
  2
ACATTRIBSERVICES
 70
     0
  0
APPID
  5
389C6
330
9
100
AcDbSymbolTableRecord
100
AcDbRegAppTableRecord
  2
DESIGNERASSEMBLIES
 70
     0
  0
APPID
  5
389C7
330
9
100
AcDbSymbolTableRecord
100
AcDbRegAppTableRecord
  2
GENIUS_GENSCREG_15
 70
     0
  0
APPID
  5
389C8
330
9
100
AcDbSymbolTableRecord
100
AcDbRegAppTableRecord
  2
GENIUS_GENOBJ-N-SDF_13
 70
     0
  0
APPID
  5
389C9
330
9
100
AcDbSymbolTableRecord
100
AcDbRegAppTableRecord
  2
GENIUS_GENODEF_13
 70
     0
  0
APPID
  5
53806
330
9
100
AcDbSymbolTableRecord
100
AcDbRegAppTableRecord
  2
ACAD_DSTYLE_DIMINSPECT
 70
     0
  0
ENDTAB
  0
TABLE
  2
DIMSTYLE
  5
A
330
0
100
AcDbSymbolTable
 70
    15
100
AcDbDimStyleTable
 71
     2
340
37FBB
340
538B8
  0
DIMSTYLE
105
37FBB
330
A
100
AcDbSymbolTableRecord
100
AcDbDimStyleTableRecord
  2
1
 70
     0
 41
1.0
 42
1.0
 43
1.0
 44
1.0
 46
3.0
 73
     0
 74
     0
 77
     1
 78
     8
140
1.0
141
1.0
143
0.03937007874016
147
1.0
171
     3
172
     1
179
     2
271
     2
272
     2
274
     3
278
    44
283
     0
284
     8
340
11
1001
ACAD_DSTYLE_DIMJAG
1070
   388
1040
1.0
1001
ACAD_DSTYLE_DIMBREAK
1070
   391
1040
1.0
1001
ACAD_DSTYLE_DIMTALN
1070
   392
1070
     0
  0
DIMSTYLE
105
51987
330
A
100
AcDbSymbolTableRecord
100
AcDbDimStyleTableRecord
  2
STANDARD
 70
     0
 40
0.0
 41
0.0
 42
2.0
 43
7.0
 44
2.0
 46
2.0
 73
     0
 74
     0
 77
     1
 78
     8
140
3.5
141
2.5
142
1.25
143
0.0394
144
-1.0
146
0.7142857142857145
147
0.625
172
     1
178
     1
279
     2
284
     8
285
     8
286
     8
340
11
  0
DIMSTYLE
105
538B8
102
{ACAD_REACTORS
330
54934
330
54979
330
5497A
330
54984
330
54987
102
}
330
A
100
AcDbSymbolTableRecord
100
AcDbDimStyleTableRecord
  2
100
 70
     0
 41
100.0
 42
30.0
 43
100.0
 44
20.0
 73
     0
 74
     0
 77
     1
 78
     8
140
100.0
141
100.0
143
0.03937007874016
147
20.0
171
     3
172
     1
179
     2
271
     2
272
     2
274
     3
278
    44
283
     0
284
     8
340
11
1001
ACAD_DSTYLE_DIMJAG
1070
   388
1040
1.5
1001
ACAD_DSTYLE_DIMTALN
1070
   392
1070
     0
  0
DIMSTYLE
105
542E5
102
{ACAD_REACTORS
330
54355
330
5434B
330
5434F
330
54352
330
5434E
330
5435B
330
54358
330
54345
330
542FA
330
54348
330
54935
330
5497D
330
54980
102
}
330
A
100
AcDbSymbolTableRecord
100
AcDbDimStyleTableRecord
  2
125
 70
     0
 41
125.0
 42
35.0
 43
125.0
 44
20.0
 73
     0
 74
     0
 77
     1
 78
     8
140
125.0
141
125.0
143
0.03937007874016
147
20.0
171
     3
172
     1
179
     2
271
     2
272
     2
274
     3
278
    44
283
     0
284
     8
340
11
1001
ACAD_DSTYLE_DIMJAG
1070
   388
1040
1.5
1001
ACAD_DSTYLE_DIMTALN
1070
   392
1070
     0
  0
ENDTAB
  0
TABLE
  2
BLOCK_RECORD
  5
1
330
0
100
AcDbSymbolTable
 70
    34
  0
BLOCK_RECORD
  5
23
102
{ACAD_XDICTIONARY
360
1FDD
102
}
330
1
100
AcDbSymbolTableRecord
100
AcDbBlockTableRecord
  2
*Model_Space
340
26
 70
     0
280
     1
281
     0
  0
BLOCK_RECORD
  5
31D04
330
1
100
AcDbSymbolTableRecord
100
AcDbBlockTableRecord
  2
*Paper_Space
340
31D05
 70
     0
280
     1
281
     0
  0
BLOCK_RECORD
  5
5198F
102
{ACAD_XDICTIONARY
360
51991
102
}
330
1
100
AcDbSymbolTableRecord
100
AcDbBlockTableRecord
  2
Eigentum
340
0
102
{BLKREFS
331
5421D
102
}
 70
     4
280
     1
281
     0
  0
BLOCK_RECORD
  5
543E1
330
1
100
AcDbSymbolTableRecord
100
AcDbBlockTableRecord
  2
*D16
340
0
 70
     0
280
     1
281
     0
  0
BLOCK_RECORD
  5
543ED
330
1
100
AcDbSymbolTableRecord
100
AcDbBlockTableRecord
  2
*D17
340
0
 70
     0
280
     1
281
     0
  0
BLOCK_RECORD
  5
543F9
330
1
100
AcDbSymbolTableRecord
100
AcDbBlockTableRecord
  2
*D18
340
0
 70
     0
280
     1
281
     0
  0
BLOCK_RECORD
  5
54438
330
1
100
AcDbSymbolTableRecord
100
AcDbBlockTableRecord
  2
*D21
340
0
 70
     0
280
     1
281
     0
  0
BLOCK_RECORD
  5
54450
330
1
100
AcDbSymbolTableRecord
100
AcDbBlockTableRecord
  2
*D23
340
0
 70
     0
280
     1
281
     0
  0
BLOCK_RECORD
  5
5447D
330
1
100
AcDbSymbolTableRecord
100
AcDbBlockTableRecord
  2
*D26
340
0
 70
     0
280
     1
281
     0
  0
BLOCK_RECORD
  5
544D5
330
1
100
AcDbSymbolTableRecord
100
AcDbBlockTableRecord
  2
*D30
340
0
 70
     0
280
     1
281
     0
  0
BLOCK_RECORD
  5
544FF
330
1
100
AcDbSymbolTableRecord
100
AcDbBlockTableRecord
  2
*D31
340
0
 70
     0
280
     1
281
     0
  0
BLOCK_RECORD
  5
5491F
330
1
100
AcDbSymbolTableRecord
100
AcDbBlockTableRecord
  2
PR0168-XXX-0-000 BalancierstreckeHessenweg
340
0
310
28000000200000002000000001002000000000000010000001000000010000000000000000000000000000FF000000FF000000FF000000FF000000FF000000FF000000FF000000FF000000FF000000FF000000FF000000FF000000FF000000FF000000FF000000FF000000FF000000FF000000FF000000FF000000FF000000
310
FF000000FF000000FF000000FF000000FF000000FF000000FF000000FF000000FF000000FF000000FF000000FF000000FF000000FF000000FF000000FF000000FF000000FF000000FF000000FF000000FF000000FF000000FF000000FF000000FF000000FF000000FF000000FF000000FF000000FF000000FF000000FF0000
310
00FF000000FF000000FF000000FF000000FF000000FF000000FF000000FF000000FF000000FF000000FF000000FF000000FF000000FF000000FF000000FF000000FF000000FF000000FF000000FF000000FF000000FF000000FF000000FF000000FF000000FF000000FF000000FF000000FF000000FF000000FF000000FF00
310
0000FF000000FF000000FF000000FF000000FF000000FF000000FF000000FF000000FF000000FF000000FF000000FF000000FF000000FF000000FF000000FF000000FF000000FF000000FF000000FF000000FF000000FF000000FF000000FF000000FF000000FF000000FF000000FF000000FF000000FF000000FF000000FF
310
000000FF000000FF000000FF000000FF000000FF000000FF000000FF000000FF000000FF000000FF000000FF000000FF000000FF000000FF000000FF000000FF000000FF000000FF000000FF000000FF000000FF000000FF000000FF000000FF000000FF000000FF000000FF000000FF000000FF000000FF000000FF000000
310
FF000000FF000000FF000000FF000000FF000000FF000000FF000000FF000000FF000000FF000000FF000000FF000000FF000000FF000000FF000000FF000000FF000000FF000000FF000000FF000000FF000000FF000000FF000000FF000000FF000000FF000000FF000000FF000000FF000000FF000000FF000000FF0000
310
00FF000000FF000000FF000000FF000000FF000000FF000000FF000000FF000000FF000000FF000000FF000000FF000000FF000000FF000000FF000000FF000000FF000000FF000000FF000000FF000000FF000000FF000000FF000000FF000000FF000000FF000000FF000000FF000000FF000000FF000000FF000000FF00
310
0000FF000000FF000000FF000000FF000000FF000000FF000000FF000000FF000000FF000000FF000000FF000000FF000000FF000000FF000000FF000000FF000000FF000000FF000000FF000000FF000000FF000000FF000000FF000000FF000000FF000000FF000000FF000000FF000000FF000000FF000000FF000000FF
310
000000FF000000FF000000FF000000FF000000FF000000FF000000FF000000FF000000FF000000FF000000FF000000FF000000FF000000FF000000FF000000FF000000FF000000FF000000FF000000FF000000FF000000FF000000FF000000FF000000FF000000FF000000FF000000FF000000FF000000FF000000FF000000
310
FF000000FF000000FF000000FF000000FF000000FF000000FF000000FF000000FF000000FF000000FF000000FF000000FF000000FF000000FF000000FF000000FF000000FF000000FF000000FF000000FF000000FF000000FF000000FF000000FF000000FF000000FF000000FF000000FF000000FF000000FF000000FF0000
310
00FF000000FF000000FF000000FF000000FF000000FF000000FF000000FF000000FF000000FF000000FF000000FF000000FF000000FF000000FF000000FF000000FF000000FF000000FF000000FF000000FF000000FF000000FF000000FF000000FF000000FF000000FF000000FF000000FF000000FF000000FF000000FF00
310
0000FF000000FF000000FF000000FF000000FF000000FF000000FF000000FF000000FF000000FF000000FF000000FF000000FF000000FF000000FF000000FF000000FF000000FF000000FF000000FF000000FF000000FF000000FF000000FF000000FF000000FF000000FF000000FF000000FF000000FF000000FF000000FF
310
FFFFFFFFFFFFFFFFFFFFFFFFFFFFFFFFFFFFFFFFFFFFFFFFFFFFFFFFFFFFFFFFFFFFFFFFFFFFFFFF000000FF000000FF000000FF000000FF000000FF000000FFFFFFFFFFFFFFFFFFFFFFFFFFFFFFFFFF000000FF000000FF000000FF000000FF000000FF000000FF000000FF000000FF000000FF000000FF000000FFFFFFFF
310
FFFFFFFFFFFFFFFFFFFFFFFFFFFFFFFFFF000000FF000000FF000000FF000000FF000000FFFFFFFFFFFFFFFFFF000000FF000000FF000000FF000000FFFFFFFFFF000000FF000000FF000000FF000000FFFFFFFFFFFFFFFFFF000000FF000000FF000000FF000000FF000000FF000000FF000000FF000000FFFFFFFFFF0000
310
00FF000000FF000000FFFFFFFFFFFFFFFFFFFFFFFFFFFFFFFFFFFFFFFFFFFFFFFFFF000000FF000000FFFFFFFFFF000000FF000000FF000000FFFFFFFFFFFFFFFFFFFFFFFFFFFFFFFFFFFFFFFFFFFFFFFFFFFFFFFFFF000000FFFFFFFFFFFFFFFFFFFFFFFFFFFFFFFFFFFFFFFFFFFFFFFFFFFFFFFFFFFFFFFFFF000000FF00
310
0000FF000000FF000000FFFFFFFFFFFFFFFFFFFFFFFFFFFFFFFFFFFFFFFFFFFFFFFFFF000000FF000000FF000000FFFFFFFFFF000000FF000000FFFFFFFFFF000000FFFFFFFFFFFFFFFFFFFFFFFFFFFFFFFFFFFFFFFFFFFFFFFFFFFFFFFFFF000000FF000000FF000000FF000000FF000000FFFFFFFFFFFFFFFFFFFFFFFFFF
310
FFFFFFFFFFFFFFFFFFFFFFFFFFFFFFFFFFFFFFFFFFFFFFFFFFFFFFFFFFFFFFFF000000FF000000FF000000FFFFFFFFFFFFFFFFFF000000FF000000FF000000FFFFFFFFFF000000FFFFFFFFFFFFFFFFFFFFFFFFFFFFFFFFFFFFFFFFFFFFFFFFFFFFFFFFFFFFFFFFFFFFFFFFFFFFFFFFFFFFFFFFFFFFFFFFFFFFFFFFFFFFFFFF
310
FFFFFFFFFFFFFFFFFFFFFFFFFF000000FFFFFFFFFF000000FF000000FF000000FF000000FF000000FF000000FFFFFFFFFF000000FF000000FF000000FF000000FFFFFFFFFFFFFFFFFF000000FF000000FFFFFFFFFFFFFFFFFFFFFFFFFFFFFFFFFFFFFFFFFFFFFFFFFFFFFFFFFFFFFFFFFFFFFFFFFFFFFFFFFFFFFFFFFFFFFF
310
FFFFFFFFFFFFFFFFFFFF000000FF000000FFFFFFFFFF000000FF000000FF000000FF000000FF000000FFFFFFFFFFFFFFFFFF000000FF000000FF000000FF000000FF000000FF000000FFFFFFFFFFFFFFFFFF000000FF000000FFFFFFFFFFFFFFFFFFFFFFFFFFFFFFFFFFFFFFFFFFFFFFFFFFFFFFFFFFFFFFFFFFFFFFFFFF00
310
0000FF000000FF000000FFFFFFFFFFFFFFFFFFFFFFFFFFFFFFFFFFFFFFFFFFFFFFFFFFFFFFFFFFFFFFFFFFFFFFFFFF000000FF000000FF000000FF000000FF000000FF000000FF000000FF000000FF000000FFFFFFFFFFFFFFFFFF000000FF000000FF000000FF000000FFFFFFFFFFFFFFFFFF000000FF000000FF000000FF
310
000000FFFFFFFFFFFFFFFFFF000000FF000000FF000000FF000000FF000000FF000000FF000000FF000000FF000000FF000000FF000000FF000000FF000000FF000000FF000000FF000000FF000000FF000000FF000000FF000000FFFFFFFFFFFFFFFFFFFFFFFFFFFFFFFFFFFFFFFFFFFFFFFFFFFFFFFFFFFFFFFFFFFFFFFF
310
FFFFFFFFFF000000FF000000FF000000FF000000FF000000FF000000FF000000FF000000FF000000FF000000FF000000FF000000FF000000FF000000FF000000FF000000FF000000FF000000FF000000FF000000FF000000FF000000FF000000FF000000FF000000FF000000FF000000FF000000FF000000FF000000FF0000
310
00FF000000FF000000FF000000FF000000FF000000FF000000FF000000FF000000FF000000FF000000FF000000FF000000FF000000FF000000FF000000FF000000FF000000FF000000FF000000FF000000FF000000FF000000FF000000FF000000FF000000FF000000FF000000FF000000FF000000FF000000FF000000FF00
310
0000FF000000FF000000FF000000FF000000FF000000FF000000FF000000FF000000FF000000FF000000FF000000FF000000FF000000FF000000FF000000FF000000FF000000FF000000FF000000FF000000FF000000FF000000FF000000FF000000FF000000FF000000FF000000FF000000FF000000FF000000FF000000FF
310
000000FF000000FF000000FF000000FF000000FF000000FF000000FF000000FF000000FF000000FF000000FF000000FF000000FF000000FF000000FF000000FF000000FF000000FF000000FF000000FF000000FF000000FF000000FF000000FF000000FF000000FF000000FF000000FF000000FF000000FF000000FF000000
310
FF000000FF000000FF000000FF000000FF000000FF000000FF000000FF000000FF000000FF000000FF000000FF000000FF000000FF000000FF000000FF000000FF000000FF000000FF000000FF000000FF000000FF000000FF000000FF000000FF000000FF000000FF000000FF000000FF000000FF000000FF000000FF0000
310
00FF000000FF000000FF000000FF000000FF000000FF000000FF000000FF000000FF000000FF000000FF000000FF000000FF000000FF000000FF000000FF000000FF000000FF000000FF000000FF000000FF000000FF000000FF000000FF000000FF000000FF000000FF000000FF000000FF000000FF000000FF000000FF00
310
0000FF000000FF000000FF000000FF000000FF000000FF000000FF000000FF000000FF000000FF000000FF000000FF000000FF000000FF000000FF000000FF000000FF000000FF000000FF000000FF000000FF000000FF000000FF000000FF000000FF000000FF000000FF000000FF000000FF000000FF000000FF000000FF
310
000000FF000000FF000000FF000000FF000000FF000000FF000000FF000000FF000000FF000000FF000000FF000000FF000000FF000000FF000000FF000000FF000000FF000000FF000000FF000000FF000000FF000000FF000000FF000000FF000000FF000000FF000000FF000000FF000000FF000000FF000000FF000000
310
FF000000FF000000FF000000FF000000FF000000FF000000FF000000FF000000FF000000FF000000FF000000FF000000FF000000FF000000FF000000FF000000FF000000FF000000FF000000FF000000FF000000FF000000FF000000FF000000FF000000FF000000FF000000FF000000FF000000FF000000FF000000FF0000
310
00FF000000FF000000FF000000FF000000FF000000FF000000FF000000FF000000FF000000FF000000FF000000FF000000FF000000FF000000FF000000FF000000FF000000FF000000FF000000FF000000FF000000FF000000FF000000FF000000FF000000FF000000FF000000FF000000FF000000FF000000FF000000FF00
310
0000FF000000FF000000FF000000FF000000FF000000FF000000FF000000FF000000FF000000FF000000FF000000FF000000FF000000FF000000FF000000FF000000FF000000FF000000FF000000FF000000FF000000FF000000FF000000FF000000FF000000FF000000FF000000FF000000FF000000FF000000FF000000FF
310
000000FF000000FF000000FF000000FF000000FF000000FF000000FF000000FF000000FF000000FF000000FF000000FF000000FF000000FF000000FF000000FF000000FF000000FF
102
{BLKREFS
331
5498A
102
}
 70
     4
280
     1
281
     0
  0
ENDTAB
  0
ENDSEC
  0
SECTION
  2
BLOCKS
  0
BLOCK
  5
24
330
23
100
AcDbEntity
  8
0
100
AcDbBlockBegin
  2
*Model_Space
 70
     0
 10
0.0
 20
0.0
 30
0.0
  3
*Model_Space
  1

  0
ENDBLK
  5
25
330
23
100
AcDbEntity
  8
0
100
AcDbBlockEnd
  0
BLOCK
  5
31D06
330
31D04
100
AcDbEntity
 67
     1
  8
0
100
AcDbBlockBegin
  2
*Paper_Space
 70
     0
 10
0.0
 20
0.0
 30
0.0
  3
*Paper_Space
  1

  0
ENDBLK
  5
31D07
330
31D04
100
AcDbEntity
 67
     1
  8
0
100
AcDbBlockEnd
  0
BLOCK
  5
51993
330
5198F
100
AcDbEntity
  8
0
100
AcDbBlockBegin
  2
Eigentum
 70
     0
 10
0.0
 20
0.0
 30
0.0
  3
Eigentum
  1

  0
MTEXT
  5
51990
330
5198F
100
AcDbEntity
  8
Text
100
AcDbMText
 10
0.1881376586563874
 20
0.0
 30
0.0
 40
1.9
 41
62.72914090897023
 46
0.0
 71
     4
 72
     5
  3
{\fTahoma|b0|i0|c0|p34;\LDiese Zeichnung ist Eigentum der Firma:\P\lESF Emsland Spiel- und Freizeitgeräte GmbH & Co. KG\PThyssenstraße 7, 49744 Geeste\PTel: 05937/ 97189-0 ; Fax: 05937/ 97189-90\PAlle Rechte sind bei den Autoren.\PDiese Unterlage dar
  1
f nicht ohne Zustimmung der o. g. Firma in den Ausschreibungen verwendet werden.\PDer nicht autorisierte Nachbau ist kostenpflichtig.}
  7
2.5
 73
     1
 44
1.0
  0
ENDBLK
  5
51994
330
5198F
100
AcDbEntity
  8
0
100
AcDbBlockEnd
  0
BLOCK
  5
543E2
330
543E1
100
AcDbEntity
  8
0
 62
     7
100
AcDbBlockBegin
  2
*D16
 70
     1
 10
0.0
 20
0.0
 30
0.0
  3
*D16
  1

  0
LINE
  5
54916
330
543E1
100
AcDbEntity
  8
Bemaßung
 62
     0
440
 16777216
370
    -2
100
AcDbLine
 10
16027.4660797043
 20
-882.9791786811147
 30
0.0
 11
16027.79150231602
 21
-882.4155301838846
 31
0.0
  0
LINE
  5
54917
330
543E1
100
AcDbEntity
  8
Bemaßung
 62
     0
440
 16777216
370
    -2
100
AcDbLine
 10
16030.49716861837
 20
-884.7291786822243
 30
0.0
 11
16030.82259123009
 21
-884.1655301849923
 31
0.0
  0
LINE
  5
54918
330
543E1
100
AcDbEntity
  8
Bemaßung
 62
     0
440
 16777216
370
    -2
100
AcDbLine
 10
16027.86810485638
 20
-882.4828506919729
 30
0.0
 11
16030.72598868972
 21
-884.1328506930532
 31
0.0
  0
SOLID
  5
54919
330
543E1
100
AcDbEntity
  8
Bemaßung
 62
     0
440
 16777216
100
AcDbTrace
 10
16027.87643818972
 20
-882.4684169352449
 30
0.0
 11
16027.85977152305
 21
-882.497284448701
 31
0.0
 12
16027.78150231601
 22
-882.4328506919592
 32
0.0
 13
16027.78150231601
 23
-882.4328506919592
 33
0.0
  0
SOLID
  5
5491A
330
543E1
100
AcDbEntity
  8
Bemaßung
 62
     0
440
 16777216
100
AcDbTrace
 10
16030.73432202306
 20
-884.118416936325
 30
0.0
 11
16030.71765535639
 21
-884.1472844497811
 31
0.0
 12
16030.81259123009
 22
-884.1828506930669
 32
0.0
 13
16030.81259123009
 23
-884.1828506930669
 33
0.0
  0
MTEXT
  5
5491B
330
543E1
100
AcDbEntity
  8
Bemaßung
 62
     0
440
 16777216
100
AcDbMText
 10
16029.33877947958
 20
-883.235567524499
 30
0.0
 40
0.1
 41
0.0
 46
0.0
 71
     5
 72
     1
  1
3,50
 11
0.8660254037069222
 21
-0.5000000001342625
 31
0.0
 73
     1
 44
1.0
  0
POINT
  5
5491C
330
543E1
100
AcDbEntity
  8
Defpoints
 62
     0
440
 16777216
100
AcDbPoint
 10
16027.45107970429
 20
-883.005159443226
 30
0.0
  0
POINT
  5
5491D
330
543E1
100
AcDbEntity
  8
Defpoints
 62
     0
440
 16777216
100
AcDbPoint
 10
16030.48216861837
 20
-884.7551594443366
 30
0.0
  0
POINT
  5
5491E
330
543E1
100
AcDbEntity
  8
Defpoints
 62
     0
440
 16777216
100
AcDbPoint
 10
16030.81259123009
 20
-884.1828506930678
 30
0.0
  0
ENDBLK
  5
543E3
330
543E1
100
AcDbEntity
  8
0
 62
     7
100
AcDbBlockEnd
  0
BLOCK
  5
543EE
330
543ED
100
AcDbEntity
  8
0
 62
     7
100
AcDbBlockBegin
  2
*D17
 70
     1
 10
0.0
 20
0.0
 30
0.0
  3
*D17
  1

  0
ARC
  5
5490D
330
543ED
100
AcDbEntity
  8
Bemaßung
 62
     0
440
 16777216
370
    -2
100
AcDbCircle
 10
16027.45107970429
 20
-883.0051594432283
 30
0.0
 40
0.5731798907146581
100
AcDbArc
 50
192.5200509550945
 51
317.4799490360493
  0
SOLID
  5
5490E
330
543ED
100
AcDbEntity
  8
Bemaßung
 62
     0
440
 16777216
100
AcDbTrace
 10
16026.87082080505
 20
-883.1316857860043
 30
0.0
 11
16026.91223902479
 21
-883.127142418888
 31
0.0
 12
16026.87789981358
 22
-883.0051594432289
 32
0.0
 13
16026.87789981358
 23
-883.0051594432289
 33
0.0
  0
SOLID
  5
5490F
330
543ED
100
AcDbEntity
  8
Bemaßung
 62
     0
440
 16777216
100
AcDbTrace
 10
16027.85673793344
 20
-883.3802201387916
 30
0.0
 11
16027.89033548035
 21
-883.4048639200073
 31
0.0
 12
16027.94746805054
 22
-883.2917493886629
 32
0.0
 13
16027.94746805054
 23
-883.2917493886629
 33
0.0
  0
MTEXT
  5
54910
330
543ED
100
AcDbEntity
  8
Bemaßung
 62
     0
440
 16777216
100
AcDbMText
 10
16027.32474509496
 20
-883.4766466238388
 30
0.0
 40
0.125
 41
0.0
 46
0.0
 71
     5
 72
     1
  1
150°
 11
0.9659258262690169
 21
-0.2588190451773529
 31
0.0
 73
     1
 44
1.0
  0
POINT
  5
54911
330
543ED
100
AcDbEntity
  8
Defpoints
 62
     0
440
 16777216
100
AcDbPoint
 10
16027.08264677239
 20
-883.4442407133993
 30
0.0
  0
POINT
  5
54912
330
543ED
100
AcDbEntity
  8
Defpoints
 62
     0
440
 16777216
100
AcDbPoint
 10
16027.45107970429
 20
-883.0051594432271
 30
0.0
  0
POINT
  5
54913
330
543ED
100
AcDbEntity
  8
Defpoints
 62
     0
440
 16777216
100
AcDbPoint
 10
16023.45107970283
 20
-883.0051594432298
 30
0.0
  0
POINT
  5
54914
330
543ED
100
AcDbEntity
  8
Defpoints
 62
     0
440
 16777216
100
AcDbPoint
 10
16027.45107970429
 20
-883.0051594432271
 30
0.0
  0
POINT
  5
54915
330
543ED
100
AcDbEntity
  8
Defpoints
 62
     0
440
 16777216
100
AcDbPoint
 10
16030.48216861837
 20
-884.7551594443366
 30
0.0
  0
ENDBLK
  5
543EF
330
543ED
100
AcDbEntity
  8
0
 62
     7
100
AcDbBlockEnd
  0
BLOCK
  5
543FA
330
543F9
100
AcDbEntity
  8
0
 62
     7
100
AcDbBlockBegin
  2
*D18
 70
     1
 10
0.0
 20
0.0
 30
0.0
  3
*D18
  1

  0
LINE
  5
54904
330
543F9
100
AcDbEntity
  8
Bemaßung
 62
     0
440
 16777216
370
    -2
100
AcDbLine
 10
16023.45107970283
 20
-882.9751594432263
 30
0.0
 11
16023.45107970283
 21
-882.2983985654003
 31
0.0
  0
LINE
  5
54905
330
543F9
100
AcDbEntity
  8
Bemaßung
 62
     0
440
 16777216
370
    -2
100
AcDbLine
 10
16027.45107970429
 20
-882.9751594432263
 30
0.0
 11
16027.45107970429
 21
-882.2983985654003
 31
0.0
  0
LINE
  5
54906
330
543F9
100
AcDbEntity
  8
Bemaßung
 62
     0
440
 16777216
370
    -2
100
AcDbLine
 10
16023.55107970283
 20
-882.3183985654003
 30
0.0
 11
16027.35107970429
 21
-882.3183985654003
 31
0.0
  0
SOLID
  5
54907
330
543F9
100
AcDbEntity
  8
Bemaßung
 62
     0
440
 16777216
100
AcDbTrace
 10
16023.55107970283
 20
-882.3017318987336
 30
0.0
 11
16023.55107970283
 21
-882.3350652320668
 31
0.0
 12
16023.45107970283
 22
-882.3183985654003
 32
0.0
 13
16023.45107970283
 23
-882.3183985654003
 33
0.0
  0
SOLID
  5
54908
330
543F9
100
AcDbEntity
  8
Bemaßung
 62
     0
440
 16777216
100
AcDbTrace
 10
16027.35107970429
 20
-882.3017318987336
 30
0.0
 11
16027.35107970429
 21
-882.3350652320668
 31
0.0
 12
16027.45107970429
 22
-882.3183985654003
 32
0.0
 13
16027.45107970429
 23
-882.3183985654003
 33
0.0
  0
MTEXT
  5
54909
330
543F9
100
AcDbEntity
  8
Bemaßung
 62
     0
440
 16777216
100
AcDbMText
 10
16025.45107970356
 20
-882.2349667319549
 30
0.0
 40
0.1
 41
0.0
 46
0.0
 71
     5
 72
     1
  1
4,00
 73
     1
 44
1.0
  0
POINT
  5
5490A
330
543F9
100
AcDbEntity
  8
Defpoints
 62
     0
440
 16777216
100
AcDbPoint
 10
16023.45107970283
 20
-883.0051594432262
 30
0.0
  0
POINT
  5
5490B
330
543F9
100
AcDbEntity
  8
Defpoints
 62
     0
440
 16777216
100
AcDbPoint
 10
16027.45107970429
 20
-883.0051594432262
 30
0.0
  0
POINT
  5
5490C
330
543F9
100
AcDbEntity
  8
Defpoints
 62
     0
440
 16777216
100
AcDbPoint
 10
16027.45107970429
 20
-882.3183985654003
 30
0.0
  0
ENDBLK
  5
543FB
330
543F9
100
AcDbEntity
  8
0
 62
     7
100
AcDbBlockEnd
  0
BLOCK
  5
54439
330
54438
100
AcDbEntity
  8
0
 62
     7
100
AcDbBlockBegin
  2
*D21
 70
     1
 10
0.0
 20
0.0
 30
0.0
  3
*D21
  1

  0
LINE
  5
548FB
330
54438
100
AcDbEntity
  8
Bemaßung
 62
     0
440
 16777216
370
    -2
100
AcDbLine
 10
16030.48217003728
 20
-884.7851594443017
 30
0.0
 11
16030.4821978879
 21
-885.3740069887507
 31
0.0
  0
LINE
  5
548FC
330
54438
100
AcDbEntity
  8
Bemaßung
 62
     0
440
 16777216
370
    -2
100
AcDbLine
 10
16033.48217003393
 20
-884.7850175537937
 30
0.0
 11
16033.48219788455
 21
-885.3738650982428
 31
0.0
  0
LINE
  5
548FD
330
54438
100
AcDbEntity
  8
Bemaßung
 62
     0
440
 16777216
370
    -2
100
AcDbLine
 10
16030.58219694185
 20
-885.3540022590896
 30
0.0
 11
16033.38219693872
 21
-885.3538698279489
 31
0.0
  0
SOLID
  5
548FE
330
54438
100
AcDbEntity
  8
Bemaßung
 62
     0
440
 16777216
100
AcDbTrace
 10
16030.58219615357
 20
-885.3373355924416
 30
0.0
 11
16030.58219773013
 21
-885.3706689257377
 31
0.0
 12
16030.48219694196
 22
-885.3540069887731
 32
0.0
 13
16030.48219694196
 23
-885.3540069887731
 33
0.0
  0
SOLID
  5
548FF
330
54438
100
AcDbEntity
  8
Bemaßung
 62
     0
440
 16777216
100
AcDbTrace
 10
16033.38219615045
 20
-885.3372031613009
 30
0.0
 11
16033.38219772701
 21
-885.3705364945968
 31
0.0
 12
16033.48219693861
 22
-885.3538650982653
 32
0.0
 13
16033.48219693861
 23
-885.3538650982653
 33
0.0
  0
MTEXT
  5
54900
330
54438
100
AcDbEntity
  8
Bemaßung
 62
     0
440
 16777216
100
AcDbMText
 10
16031.98219299264
 20
-885.2704706305836
 30
0.0
 40
0.1
 41
0.0
 46
0.0
 71
     5
 72
     1
  1
3,00
 11
0.9999999988815046
 21
0.0000472968359872
 31
0.0
 73
     1
 44
1.0
  0
POINT
  5
54901
330
54438
100
AcDbEntity
  8
Defpoints
 62
     0
440
 16777216
100
AcDbPoint
 10
16030.48216861837
 20
-884.7551594443352
 30
0.0
  0
POINT
  5
54902
330
54438
100
AcDbEntity
  8
Defpoints
 62
     0
440
 16777216
100
AcDbPoint
 10
16033.48216861502
 20
-884.7550175538271
 30
0.0
  0
POINT
  5
54903
330
54438
100
AcDbEntity
  8
Defpoints
 62
     0
440
 16777216
100
AcDbPoint
 10
16033.48219693861
 20
-885.3538650982653
 30
0.0
  0
ENDBLK
  5
5443A
330
54438
100
AcDbEntity
  8
0
 62
     7
100
AcDbBlockEnd
  0
BLOCK
  5
54451
330
54450
100
AcDbEntity
  8
0
 62
     7
100
AcDbBlockBegin
  2
*D23
 70
     1
 10
0.0
 20
0.0
 30
0.0
  3
*D23
  1

  0
ARC
  5
548F2
330
54450
100
AcDbEntity
  8
Bemaßung
 62
     0
440
 16777216
370
    -2
100
AcDbCircle
 10
16023.50189695134
 20
-883.0716603432605
 30
0.0
 40
0.6540270474418319
100
AcDbArc
 50
220.9672449454113
 51
349.0353988512535
  0
SOLID
  5
548F3
330
54450
100
AcDbEntity
  8
Bemaßung
 62
     0
440
 16777216
100
AcDbTrace
 10
16022.99108705105
 20
-883.5125515594391
 30
0.0
 11
16023.02501545977
 21
-883.4883653196902
 31
0.0
 12
16022.93549253616
 22
-883.3986732134203
 32
0.0
 13
16022.93549253616
 23
-883.3986732134203
 33
0.0
  0
SOLID
  5
548F4
330
54450
100
AcDbEntity
  8
Bemaßung
 62
     0
440
 16777216
100
AcDbTrace
 10
16024.12324657477
 20
-883.1940680221656
 30
0.0
 11
16024.16472274218
 21
-883.1980478020236
 31
0.0
 12
16024.15592399805
 22
-883.0716294098511
 32
0.0
 13
16024.15592399805
 23
-883.0716294098511
 33
0.0
  0
MTEXT
  5
548F5
330
54450
100
AcDbEntity
  8
Bemaßung
 62
     0
440
 16777216
100
AcDbMText
 10
16023.64916902411
 20
-883.6212364829066
 30
0.0
 40
0.125
 41
0.0
 46
0.0
 71
     5
 72
     1
  1
150°
 11
0.9659198546940228
 21
0.2588413303703215
 31
0.0
 73
     1
 44
1.0
  0
POINT
  5
548F6
330
54450
100
AcDbEntity
  8
Defpoints
 62
     0
440
 16777216
100
AcDbPoint
 10
16023.38833600544
 20
-883.7157529533346
 30
0.0
  0
POINT
  5
548F7
330
54450
100
AcDbEntity
  8
Defpoints
 62
     0
440
 16777216
100
AcDbPoint
 10
16023.52092655767
 20
-883.0716594432205
 30
0.0
  0
POINT
  5
548F8
330
54450
100
AcDbEntity
  8
Defpoints
 62
     0
440
 16777216
100
AcDbPoint
 10
16020.95498769034
 20
-884.5421151722716
 30
0.0
  0
POINT
  5
548F9
330
54450
100
AcDbEntity
  8
Defpoints
 62
     0
440
 16777216
100
AcDbPoint
 10
16023.43209864516
 20
-883.1119583067371
 30
0.0
  0
POINT
  5
548FA
330
54450
100
AcDbEntity
  8
Defpoints
 62
     0
440
 16777216
100
AcDbPoint
 10
16027.38122966423
 20
-883.0714768631024
 30
0.0
  0
ENDBLK
  5
54452
330
54450
100
AcDbEntity
  8
0
 62
     7
100
AcDbBlockEnd
  0
BLOCK
  5
5447E
330
5447D
100
AcDbEntity
  8
0
 62
     7
100
AcDbBlockBegin
  2
*D26
 70
     1
 10
0.0
 20
0.0
 30
0.0
  3
*D26
  1

  0
LINE
  5
548E9
330
5447D
100
AcDbEntity
  8
Bemaßung
 62
     0
440
 16777216
370
    -2
100
AcDbLine
 10
16020.71974113481
 20
-884.7044787158957
 30
0.0
 11
16020.71502516992
 21
-884.6902393452975
 31
0.0
  0
LINE
  5
548EA
330
5447D
100
AcDbEntity
  8
Bemaßung
 62
     0
440
 16777216
370
    -2
100
AcDbLine
 10
16019.27002252689
 20
-885.18461384679
 30
0.0
 11
16019.26530656199
 21
-885.1703744761916
 31
0.0
  0
LINE
  5
548EB
330
5447D
100
AcDbEntity
  8
Bemaßung
 62
     0
440
 16777216
370
    -2
100
AcDbLine
 10
16020.59007579505
 20
-884.7105532253126
 30
0.0
 11
16019.37768003046
 21
-885.1120889412413
 31
0.0
  0
SOLID
  5
548EC
330
5447D
100
AcDbEntity
  8
Bemaßung
 62
     0
440
 16777216
100
AcDbTrace
 10
16020.5835258438
 20
-884.6907763217023
 30
0.0
 11
16020.5966257463
 21
-884.7303301289239
 31
0.0
 12
16020.70873721672
 22
-884.6712535178303
 32
0.0
 13
16020.70873721672
 23
-884.6712535178303
 33
0.0
  0
SOLID
  5
548ED
330
5447D
100
AcDbEntity
  8
Bemaßung
 62
     0
440
 16777216
100
AcDbTrace
 10
16019.37113007921
 20
-885.0923120376309
 30
0.0
 11
16019.38422998171
 21
-885.1318658448526
 31
0.0
 12
16019.25901860879
 22
-885.1513886487246
 32
0.0
 13
16019.25901860879
 23
-885.1513886487246
 33
0.0
  0
MTEXT
  5
548EE
330
5447D
100
AcDbEntity
  8
Bemaßung
 62
     0
440
 16777216
100
AcDbMText
 10
16019.95266143456
 20
-884.8170661404564
 30
0.0
 40
0.125
 41
0.0
 46
0.0
 71
     5
 72
     1
  1
SB min. 1,50
 11
0.9492913733272875
 21
0.3143976598615079
 31
0.0
 73
     1
 44
1.0
  0
POINT
  5
548EF
330
5447D
100
AcDbEntity
  8
Defpoints
 62
     0
440
 16777216
100
AcDbPoint
 10
16020.70873721672
 20
-884.6712535178294
 30
0.0
  0
POINT
  5
548F0
330
5447D
100
AcDbEntity
  8
Defpoints
 62
     0
440
 16777216
100
AcDbPoint
 10
16019.25901860879
 20
-885.1513886487238
 30
0.0
  0
POINT
  5
548F1
330
5447D
100
AcDbEntity
  8
Defpoints
 62
     0
440
 16777216
100
AcDbPoint
 10
16019.25901860879
 20
-885.1513886487246
 30
0.0
  0
ENDBLK
  5
5447F
330
5447D
100
AcDbEntity
  8
0
 62
     7
100
AcDbBlockEnd
  0
BLOCK
  5
544D6
330
544D5
100
AcDbEntity
  8
0
 62
     7
100
AcDbBlockBegin
  2
*D30
 70
     1
 10
0.0
 20
0.0
 30
0.0
  3
*D30
  1

  0
LINE
  5
548E0
330
544D5
100
AcDbEntity
  8
Bemaßung
 62
     0
440
 16777216
370
    -2
100
AcDbLine
 10
16031.49452635899
 20
-884.6886101441889
 30
0.0
 11
16031.46705762307
 21
-884.6886101441889
 31
0.0
  0
LINE
  5
548E1
330
544D5
100
AcDbEntity
  8
Bemaßung
 62
     0
440
 16777216
370
    -2
100
AcDbLine
 10
16031.49442703566
 20
-882.588610146516
 30
0.0
 11
16031.46705762307
 21
-882.588610146516
 31
0.0
  0
LINE
  5
548E2
330
544D5
100
AcDbEntity
  8
Bemaßung
 62
     0
440
 16777216
370
    -2
100
AcDbLine
 10
16031.48705762307
 20
-884.5886101441889
 30
0.0
 11
16031.48705762307
 21
-882.6886101465159
 31
0.0
  0
SOLID
  5
548E3
330
544D5
100
AcDbEntity
  8
Bemaßung
 62
     0
440
 16777216
100
AcDbTrace
 10
16031.47039095641
 20
-884.5886101441889
 30
0.0
 11
16031.50372428974
 21
-884.5886101441889
 31
0.0
 12
16031.48705762307
 22
-884.6886101441889
 32
0.0
 13
16031.48705762307
 23
-884.6886101441889
 33
0.0
  0
SOLID
  5
548E4
330
544D5
100
AcDbEntity
  8
Bemaßung
 62
     0
440
 16777216
100
AcDbTrace
 10
16031.47039095641
 20
-882.6886101465159
 30
0.0
 11
16031.50372428974
 21
-882.6886101465159
 31
0.0
 12
16031.48705762307
 22
-882.588610146516
 32
0.0
 13
16031.48705762307
 23
-882.588610146516
 33
0.0
  0
MTEXT
  5
548E5
330
544D5
100
AcDbEntity
  8
Bemaßung
 62
     0
440
 16777216
100
AcDbMText
 10
16031.40359221004
 20
-883.6386101453499
 30
0.0
 40
0.1
 41
0.0
 46
0.0
 71
     5
 72
     1
  1
min. 2,10
 11
0.0000000000000001
 21
1.0
 31
0.0
 73
     1
 44
1.0
  0
POINT
  5
548E6
330
544D5
100
AcDbEntity
  8
Defpoints
 62
     0
440
 16777216
100
AcDbPoint
 10
16031.52452635899
 20
-884.6886101441889
 30
0.0
  0
POINT
  5
548E7
330
544D5
100
AcDbEntity
  8
Defpoints
 62
     0
440
 16777216
100
AcDbPoint
 10
16031.52442703566
 20
-882.588610146516
 30
0.0
  0
POINT
  5
548E8
330
544D5
100
AcDbEntity
  8
Defpoints
 62
     0
440
 16777216
100
AcDbPoint
 10
16031.48705762307
 20
-882.588610146516
 30
0.0
  0
ENDBLK
  5
544D7
330
544D5
100
AcDbEntity
  8
0
 62
     7
100
AcDbBlockEnd
  0
BLOCK
  5
54500
330
544FF
100
AcDbEntity
  8
0
 62
     7
100
AcDbBlockBegin
  2
*D31
 70
     1
 10
0.0
 20
0.0
 30
0.0
  3
*D31
  1

  0
LINE
  5
548D7
330
544FF
100
AcDbEntity
  8
Bemaßung
 62
     0
440
 16777216
370
    -2
100
AcDbLine
 10
16023.4360797028
 20
-882.9791786811274
 30
0.0
 11
16023.12469364187
 21
-882.439842204063
 31
0.0
  0
LINE
  5
548D8
330
544FF
100
AcDbEntity
  8
Bemaßung
 62
     0
440
 16777216
370
    -2
100
AcDbLine
 10
16020.83800349454
 20
-884.479178682759
 30
0.0
 11
16020.52661743361
 21
-883.9398422056946
 31
0.0
  0
LINE
  5
548D9
330
544FF
100
AcDbEntity
  8
Bemaßung
 62
     0
440
 16777216
370
    -2
100
AcDbLine
 10
16023.04809110156
 20
-882.5071627122142
 30
0.0
 11
16020.62321997396
 21
-883.9071627136755
 31
0.0
  0
SOLID
  5
548DA
330
544FF
100
AcDbEntity
  8
Bemaßung
 62
     0
440
 16777216
100
AcDbTrace
 10
16023.03975776821
 20
-882.4927289554935
 30
0.0
 11
16023.05642443491
 21
-882.5215964689359
 31
0.0
 12
16023.13469364189
 22
-882.4571627121285
 32
0.0
 13
16023.13469364189
 23
-882.4571627121285
 33
0.0
  0
SOLID
  5
548DB
330
544FF
100
AcDbEntity
  8
Bemaßung
 62
     0
440
 16777216
100
AcDbTrace
 10
16020.61488664061
 20
-883.8927289569546
 30
0.0
 11
16020.6315533073
 21
-883.9215964703971
 31
0.0
 12
16020.53661743363
 22
-883.9571627137601
 32
0.0
 13
16020.53661743363
 23
-883.9571627137601
 33
0.0
  0
MTEXT
  5
548DC
330
544FF
100
AcDbEntity
  8
Bemaßung
 62
     0
440
 16777216
100
AcDbMText
 10
16021.79392283117
 20
-883.1348795449667
 30
0.0
 40
0.1
 41
0.0
 46
0.0
 71
     5
 72
     1
  1
3,00
 11
0.8660254032913204
 21
0.5000000008541057
 31
0.0
 73
     1
 44
1.0
 90
        3
 63
     9
421
 13158600
 45
1.1
441
        0
  0
POINT
  5
548DD
330
544FF
100
AcDbEntity
  8
Defpoints
 62
     0
440
 16777216
100
AcDbPoint
 10
16023.45107970283
 20
-883.0051594432271
 30
0.0
  0
POINT
  5
548DE
330
544FF
100
AcDbEntity
  8
Defpoints
 62
     0
440
 16777216
100
AcDbPoint
 10
16020.85300349456
 20
-884.5051594448587
 30
0.0
  0
POINT
  5
548DF
330
544FF
100
AcDbEntity
  8
Defpoints
 62
     0
440
 16777216
100
AcDbPoint
 10
16020.53661743363
 20
-883.9571627137601
 30
0.0
  0
ENDBLK
  5
54501
330
544FF
100
AcDbEntity
  8
0
 62
     7
100
AcDbBlockEnd
  0
BLOCK
  5
54920
330
5491F
100
AcDbEntity
  8
0
 62
     7
100
AcDbBlockBegin
  2
PR0168-XXX-0-000 BalancierstreckeHessenweg
 70
     0
 10
0.0
 20
0.0
 30
0.0
  3
PR0168-XXX-0-000 BalancierstreckeHessenweg
  1

  0
CIRCLE
  5
54922
102
{ACAD_REACTORS
330
54989
102
}
330
5491F
100
AcDbEntity
  8
Kontur 25
 62
     7
100
AcDbCircle
 10
0.0
 20
0.0
 30
0.0
 40
0.06985
  0
CIRCLE
  5
54923
330
5491F
100
AcDbEntity
  8
Kontur 25
 62
     7
100
AcDbCircle
 10
2.598076208261772
 20
1.500000001631519
 30
0.0
 40
0.06985
  0
CIRCLE
  5
54924
330
5491F
100
AcDbEntity
  8
Kontur 25
 62
     7
100
AcDbCircle
 10
6.598076209727878
 20
1.500000001631519
 30
0.0
 40
0.06985
  0
CIRCLE
  5
54925
330
5491F
100
AcDbEntity
  8
Kontur 25
 62
     7
100
AcDbCircle
 10
9.629165123813436
 20
-0.2499999994774953
 30
0.0
 40
0.06985
  0
LINE
  5
54926
330
5491F
100
AcDbEntity
  8
Kontur 09
 62
     7
100
AcDbLine
 10
0.0229841956497694
 20
0.0998762863093816
 30
0.0
 11
2.50009515046986
 21
1.53003315183264
 31
0.0
  0
LINE
  5
54927
330
5491F
100
AcDbEntity
  8
Sicherheitsbereich
 62
     7
 48
0.001
100
AcDbLine
 10
-0.8569223373742715
 20
1.491310235352557
 30
0.0
 11
2.014363613121531
 21
3.149043534296879
 31
0.0
  0
ARC
  5
54928
330
5491F
100
AcDbEntity
  8
Sicherheitsbereich
 62
     7
 48
0.001
100
AcDbCircle
 10
2.764362114183313
 20
1.850004563215748
 30
0.0
 40
1.499999999999999
100
AcDbArc
 50
90.00270993925269
 51
119.9999339291144
  0
LINE
  5
54929
330
5491F
100
AcDbEntity
  8
Kontur 18
 62
     7
100
AcDbLine
 10
0.0564858473480854
 20
0.0418497235558562
 30
0.0
 11
2.533982391010795
 21
1.47223302321629
 31
0.0
  0
LINE
  5
5492A
330
5491F
100
AcDbEntity
  8
Kontur 18
 62
     7
100
AcDbLine
 10
0.0640925039188005
 20
0.0277700097672096
 30
0.0
 11
2.541982344417192
 21
1.458376679581647
 31
0.0
  0
LINE
  5
5492B
102
{ACAD_REACTORS
330
5497F
102
}
330
5491F
100
AcDbEntity
  8
Kontur 09
 62
     7
100
AcDbLine
 10
0.1019841957786411
 20
-0.036955727413897
 30
0.0
 11
2.579095150598732
 21
1.393201138120616
 31
0.0
  0
LINE
  5
5492C
330
5491F
100
AcDbEntity
  8
Sicherheitsbereich
 62
     7
 48
0.001
100
AcDbLine
 10
0.9248194112260534
 20
-1.450210004309155
 30
0.0
 11
2.482426160433533
 21
-0.550927724753592
 31
0.0
  0
ARC
  5
5492D
330
5491F
100
AcDbEntity
  8
Sicherheitsbereich
 62
     7
 48
0.001
100
AcDbCircle
 10
3.232424661502591
 20
-1.849966695831085
 30
0.0
 40
1.499999999999999
100
AcDbArc
 50
90.00270993925269
 51
119.9999339291144
  0
LINE
  5
5492E
330
5491F
100
AcDbEntity
  8
Kontur 18
 62
     7
100
AcDbLine
 10
2.667923063097987
 20
1.566500001483859
 30
0.0
 11
6.528226169659319
 21
1.566682581606073
 31
0.0
  0
LINE
  5
5492F
102
{ACAD_REACTORS
330
5497F
102
}
330
5491F
100
AcDbEntity
  8
Kontur 18
 62
     7
100
AcDbLine
 10
2.667923063101625
 20
1.433500001636616
 30
0.0
 11
6.528226169662957
 21
1.433682581755078
 31
0.0
  0
LINE
  5
54930
330
5491F
100
AcDbEntity
  8
Kontur 18
 62
     7
100
AcDbLine
 10
6.662170027004322
 20
1.472233023273133
 30
0.0
 11
9.57307130654226
 21
-0.2083766146558901
 31
0.0
  0
LINE
  5
54931
330
5491F
100
AcDbEntity
  8
Sicherheitsbereich
 62
     7
 48
0.001
100
AcDbLine
 10
7.154295840362465
 20
3.149214826121578
 30
0.0
 11
9.321627759691182
 21
1.897905158621711
 31
0.0
  0
LINE
  5
54932
330
5491F
100
AcDbEntity
  8
Kontur 18
 62
     7
100
AcDbLine
 10
6.654170026995416
 20
1.458376616806276
 30
0.0
 11
9.56507130654063
 21
-0.2222330211191092
 31
0.0
  0
LINE
  5
54933
330
5491F
100
AcDbEntity
  8
Sicherheitsbereich
 62
     7
 48
0.001
100
AcDbLine
 10
6.559594990518235
 20
-0.5508066982721403
 30
0.0
 11
7.676503481263353
 21
-1.195654116298783
 31
0.0
  0
DIMENSION
  5
54934
330
5491F
100
AcDbEntity
  8
Bemaßung
 62
     7
100
AcDbDimension
280
     0
  2
*D16
 10
9.959587735525929
 20
0.322308751789933
 30
0.0
 11
8.485775985012878
 21
1.269591920357015
 31
0.0
 12
-16020.85300349456
 22
884.5051594448577
 32
0.0
 70
     1
  1
3,50
 71
     5
 42
3.500000001275111
 73
     0
 74
     0
 75
     0
 51
49.56558154002946
  3
100
100
AcDbAlignedDimension
 13
6.598076209727878
 23
1.500000001631519
 33
0.0
 14
9.62916512380616
 24
-0.2499999994773816
 34
0.0
1001
ACAD
1000
DSTYLE
1002
{
1070
    40
1040
0.001
1002
}
  0
DIMENSION
  5
54935
330
5491F
100
AcDbEntity
  8
Bemaßung
 62
     7
100
AcDbDimension
280
     0
  2
*D17
 10
9.62916512380616
 20
-0.2499999994773816
 30
0.0
 11
6.471741600398672
 21
1.028512821021649
 31
0.0
 12
-16020.85300349456
 22
884.5051594448577
 32
0.0
 70
     2
  1
150°
 71
     5
 42
2.617993877836281
 73
     0
 74
     0
 75
     0
 51
49.56558153766705
  3
125
100
AcDb2LineAngularDimension
 13
2.598076208261772
 23
1.500000001631519
 33
0.0
 14
6.598076209727878
 24
1.500000001631519
 34
0.0
 15
6.598076209727878
 25
1.500000001631519
 35
0.0
 16
6.2296432778312
 26
1.060918731458514
 36
0.0
1001
ACAD
1000
DSTYLE
1002
{
1070
    40
1040
0.001
1002
}
  0
ARC
  5
54936
102
{ACAD_REACTORS
330
54982
102
}
330
5491F
100
AcDbEntity
  8
Kontur 09
 62
     7
100
AcDbCircle
 10
0.0
 20
0.0
 30
0.0
 40
0.2199999999999999
100
AcDbArc
 50
49.9331418503239
 51
7.836034458823175
  0
ARC
  5
54937
102
{ACAD_REACTORS
330
54982
102
}
330
5491F
100
AcDbEntity
  8
Sicherheitsbereich
 62
     7
 48
0.001
100
AcDbCircle
 10
0.0
 20
0.0
 30
0.0
 40
1.719999999999999
100
AcDbArc
 50
119.6832149526055
 51
302.5262332314274
  0
ARC
  5
54938
330
5491F
100
AcDbEntity
  8
Kontur 09
 62
     7
100
AcDbCircle
 10
0.0
 20
0.0
 30
0.0
 40
0.1716999999999999
100
AcDbArc
 50
55.90160955455499
 51
1.093442071774038
  0
LINE
  5
54939
330
5491F
100
AcDbEntity
  8
Kontur 09
 62
     7
100
AcDbLine
 10
0.0099966963061888
 20
0.0698504728950411
 30
0.0
 11
0.0099918791238451
 21
0.1717004727787525
 31
0.0
  0
LINE
  5
5493A
330
5491F
100
AcDbEntity
  8
Kontur 09
 62
     7
100
AcDbLine
 10
-0.0100033036760579
 20
0.0698495269565456
 30
0.0
 11
-0.0100081208547636
 21
0.1716995268401433
 31
0.0
  0
LINE
  5
5493B
330
5491F
100
AcDbEntity
  8
Kontur 09
 62
     7
100
AcDbLine
 10
-0.0099966963025508
 20
-0.0698504728915168
 30
0.0
 11
-0.0099918791202072
 21
-0.1717004727751146
 31
0.0
  0
LINE
  5
5493C
330
5491F
100
AcDbEntity
  8
Kontur 09
 62
     7
100
AcDbLine
 10
0.0100033036724199
 20
-0.0698495269491559
 30
0.0
 11
0.0100081208511256
 21
-0.17169952683264
 31
0.0
  0
LINE
  5
5493D
330
5491F
100
AcDbEntity
  8
Kontur 09
 62
     7
100
AcDbLine
 10
0.0698504728898115
 20
-0.0099966963007319
 30
0.0
 11
0.0864189394415007
 21
-0.0099959126730482
 31
0.0
  0
LINE
  5
5493E
330
5491F
100
AcDbEntity
  8
Kontur 09
 62
     7
100
AcDbLine
 10
0.1486851900153852
 20
-0.0099929676689499
 30
0.0
 11
0.1717004727724998
 21
-0.0099918791200935
 31
0.0
  0
LINE
  5
5493F
330
5491F
100
AcDbEntity
  8
Kontur 09
 62
     7
100
AcDbLine
 10
0.069849526953476
 20
0.010003303673102
 30
0.0
 11
0.0748722493190144
 21
0.0100035412277748
 31
0.0
  0
LINE
  5
54940
330
5491F
100
AcDbEntity
  8
Kontur 09
 62
     7
100
AcDbLine
 10
0.1714080738893244
 20
0.0100081070750093
 30
0.0
 11
0.1716995268398023
 21
0.0100081208537404
 31
0.0
  0
LINE
  5
54941
330
5491F
100
AcDbEntity
  8
Kontur 09
 62
     7
100
AcDbLine
 10
-0.0698504728898115
 20
0.0099966963080078
 30
0.0
 11
-0.1717004727724998
 21
0.0099918791237315
 31
0.0
  0
LINE
  5
54942
330
5491F
100
AcDbEntity
  8
Kontur 09
 62
     7
100
AcDbLine
 10
-0.069849526949838
 20
-0.010003303665826
 30
0.0
 11
-0.1716995268325263
 21
-0.0100081208538541
 31
0.0
  0
ARC
  5
54943
330
5491F
100
AcDbEntity
  8
Kontur 09
 62
     7
100
AcDbCircle
 10
2.598076208261772
 20
1.500000001631519
 30
0.0
 40
0.2199999999999999
100
AcDbArc
 50
232.1648511880403
 51
342.407647776933
  0
ARC
  5
54944
330
5491F
100
AcDbEntity
  8
Kontur 09
 62
     7
100
AcDbCircle
 10
2.598076208261772
 20
1.500000001631519
 30
0.0
 40
0.2199999999999999
100
AcDbArc
 50
17.59596697490447
 51
190.0677294203275
  0
ARC
  5
54945
330
5491F
100
AcDbEntity
  8
Kontur 09
 62
     7
100
AcDbCircle
 10
2.598076208261772
 20
1.500000001631519
 30
0.0
 40
0.1716999999999999
100
AcDbArc
 50
238.9077817034721
 51
337.2146992984607
  0
ARC
  5
54946
330
5491F
100
AcDbEntity
  8
Kontur 09
 62
     7
100
AcDbCircle
 10
2.598076208261772
 20
1.500000001631519
 30
0.0
 40
0.1716999999999999
100
AcDbArc
 50
22.78832916714403
 51
184.0995799740305
  0
LINE
  5
54947
330
5491F
100
AcDbEntity
  8
Kontur 09
 62
     7
100
AcDbLine
 10
2.608072904571599
 20
1.569850474530312
 30
0.0
 11
2.60806808738198
 21
1.67170047440652
 31
0.0
  0
LINE
  5
54948
330
5491F
100
AcDbEntity
  8
Kontur 09
 62
     7
100
AcDbLine
 10
2.588072904589353
 20
1.569849528591703
 30
0.0
 11
2.588068087410647
 21
1.671699528471549
 31
0.0
  0
LINE
  5
54949
330
5491F
100
AcDbEntity
  8
Kontur 09
 62
     7
100
AcDbLine
 10
2.588079511955584
 20
1.430149528743868
 30
0.0
 11
2.588084329137927
 21
1.328299528856518
 31
0.0
  0
LINE
  5
5494A
330
5491F
100
AcDbEntity
  8
Kontur 09
 62
     7
100
AcDbLine
 10
2.608079511934192
 20
1.430150474678725
 30
0.0
 11
2.608084329116536
 21
1.328300474791376
 31
0.0
  0
LINE
  5
5494B
330
5491F
100
AcDbEntity
  8
Kontur 09
 62
     7
100
AcDbLine
 10
2.528225735371961
 20
1.509996697939641
 30
0.0
 11
2.511663654804578
 21
1.509995914602995
 31
0.0
  0
LINE
  5
5494C
330
5491F
100
AcDbEntity
  8
Kontur 09
 62
     7
100
AcDbLine
 10
2.465385846524441
 20
1.509993725808271
 30
0.0
 11
2.426375735485635
 21
1.509991880759002
 31
0.0
  0
LINE
  5
5494D
330
5491F
100
AcDbEntity
  8
Kontur 09
 62
     7
100
AcDbLine
 10
2.528226681304658
 20
1.489996697958304
 30
0.0
 11
2.523210344916151
 21
1.489996460709676
 31
0.0
  0
LINE
  5
5494E
330
5491F
100
AcDbEntity
  8
Kontur 09
 62
     7
100
AcDbLine
 10
2.430741992378898
 20
1.489992087247287
 30
0.0
 11
2.42637668142197
 21
1.489991880777779
 31
0.0
  0
ARC
  5
5494F
330
5491F
100
AcDbEntity
  8
Kontur 09
 62
     7
100
AcDbCircle
 10
6.598076209727878
 20
1.500000001631519
 30
0.0
 40
0.2199999999999999
100
AcDbArc
 50
197.546090404749
 51
162.3577567941112
  0
ARC
  5
54950
330
5491F
100
AcDbEntity
  8
Kontur 09
 62
     7
100
AcDbCircle
 10
6.598076209727878
 20
1.500000001631519
 30
0.0
 40
0.1716999999999999
100
AcDbArc
 50
202.7222615210273
 51
157.1485984360533
  0
LINE
  5
54951
330
5491F
100
AcDbEntity
  8
Kontur 09
 62
     7
100
AcDbLine
 10
6.608072906034067
 20
1.569850474526674
 30
0.0
 11
6.608068088851723
 21
1.67170047441391
 31
0.0
  0
LINE
  5
54952
330
5491F
100
AcDbEntity
  8
Kontur 09
 62
     7
100
AcDbLine
 10
6.588072906059096
 20
1.569849528587951
 30
0.0
 11
6.588068088876752
 21
1.671699528471549
 31
0.0
  0
LINE
  5
54953
330
5491F
100
AcDbEntity
  8
Kontur 09
 62
     7
100
AcDbLine
 10
6.588079513425327
 20
1.430149528740116
 30
0.0
 11
6.588084330604033
 21
1.328299528856518
 31
0.0
  0
LINE
  5
54954
330
5491F
100
AcDbEntity
  8
Kontur 09
 62
     7
100
AcDbLine
 10
6.608079513400298
 20
1.430150474674974
 30
0.0
 11
6.608084330582641
 21
1.328300474791376
 31
0.0
  0
LINE
  5
54955
330
5491F
100
AcDbEntity
  8
Kontur 09
 62
     7
100
AcDbLine
 10
6.667926682614051
 20
1.490003305323398
 30
0.0
 11
6.769776682504016
 21
1.490008122511426
 31
0.0
  0
LINE
  5
54956
330
5491F
100
AcDbEntity
  8
Kontur 09
 62
     7
100
AcDbLine
 10
6.667925736677716
 20
1.510003305304735
 30
0.0
 11
6.769775736564042
 21
1.51000812248526
 31
0.0
  0
LINE
  5
54957
330
5491F
100
AcDbEntity
  8
Kontur 09
 62
     7
100
AcDbLine
 10
2.579095150598732
 20
1.393201138120616
 30
0.0
 11
2.500095150462584
 21
1.530033151836505
 31
0.0
  0
LINE
  5
54958
330
5491F
100
AcDbEntity
  8
Kontur 09
 62
     7
100
AcDbLine
 10
0.1019858474210196
 20
-0.036958588141033
 30
0.0
 11
0.0229858472885098
 21
0.0998734255784939
 31
0.0
  0
LINE
  5
54959
330
5491F
100
AcDbEntity
  8
Kontur 18
 62
     7
100
AcDbLine
 10
2.667923063101625
 20
1.433500001636616
 30
0.0
 11
2.667923063097987
 21
1.566500001483859
 31
0.0
  0
LINE
  5
5495A
330
5491F
100
AcDbEntity
  8
Kontur 18
 62
     7
100
AcDbLine
 10
6.528226169662957
 20
1.433682581755078
 30
0.0
 11
6.528226169659319
 21
1.566682581606073
 31
0.0
  0
ARC
  5
5495B
330
5491F
100
AcDbEntity
  8
Kontur 09
 62
     7
100
AcDbCircle
 10
3.21892620771905
 20
1.500026062266897
 30
0.0
 40
0.1499999999999999
100
AcDbArc
 50
206.3194648877183
 51
333.6859548039506
  0
ARC
  5
5495C
330
5491F
100
AcDbEntity
  8
Kontur 09
 62
     7
100
AcDbCircle
 10
3.21892620771905
 20
1.500026062266897
 30
0.0
 40
0.1499999999999999
100
AcDbArc
 50
26.31946488771835
 51
153.6859548039506
  0
LINE
  5
5495D
102
{ACAD_REACTORS
330
54986
102
}
330
5491F
100
AcDbEntity
  8
Kontur 18
 62
     7
100
AcDbLine
 10
9.699303009096183
 20
-0.183496682254372
 30
0.0
 11
12.55931512053939
 21
-0.183361412730278
 31
0.0
  0
LINE
  5
5495E
102
{ACAD_REACTORS
330
54986
102
}
330
5491F
100
AcDbEntity
  8
Sicherheitsbereich
 62
     7
 48
0.001
100
AcDbLine
 10
9.749871313284529
 20
1.916505711847548
 30
0.0
 11
12.55921579718051
 21
1.916638584921429
 31
0.0
  0
LINE
  5
5495F
330
5491F
100
AcDbEntity
  8
Kontur 18
 62
     7
100
AcDbLine
 10
9.699303009092545
 20
-0.3164966821052531
 30
0.0
 11
12.55931512054303
 21
-0.3163614125775211
 31
0.0
  0
LINE
  5
54960
330
5491F
100
AcDbEntity
  8
Sicherheitsbereich
 62
     7
 48
0.001
100
AcDbLine
 10
9.699474113116593
 20
-2.418719697541177
 30
0.0
 11
12.55934287351192
 21
-2.418584434795661
 31
0.0
  0
LINE
  5
54961
330
5491F
100
AcDbEntity
  8
Kontur 18
 62
     7
100
AcDbLine
 10
9.699303009092545
 20
-0.3164966821052531
 30
0.0
 11
9.699303009096183
 21
-0.183496682254372
 31
0.0
  0
CIRCLE
  5
54962
102
{ACAD_REACTORS
330
5497C
102
}
330
5491F
100
AcDbEntity
  8
Kontur 25
 62
     7
100
AcDbCircle
 10
12.62916512045558
 20
-0.2498581089694198
 30
0.0
 40
0.06985
  0
ARC
  5
54963
330
5491F
100
AcDbEntity
  8
Sicherheitsbereich
 62
     7
 48
0.001
100
AcDbCircle
 10
12.62916512045558
 20
-0.2498581089694198
 30
0.0
 40
2.169850000000001
100
AcDbArc
 50
268.1559966761049
 51
93.18691534851911
  0
LINE
  5
54964
330
5491F
100
AcDbEntity
  8
Kontur 18
 62
     7
100
AcDbLine
 10
12.55931512054303
 20
-0.3163614125775211
 30
0.0
 11
12.55931512053939
 21
-0.1833614127265264
 31
0.0
  0
MTEXT
  5
54965
330
5491F
100
AcDbEntity
  8
Text
 62
     7
100
AcDbMText
 10
0.6872334685031092
 20
0.1627128899905301
 30
0.0
 40
0.12
 41
2.965601480888813
 46
0.1737623576223049
 71
     1
 72
     5
  1
Balanciertampen mit Hangelseil \P+0,40/ +1,80
 11
0.9999999988815046
 21
0.0000472968362809
 31
0.0
 73
     1
 44
1.0
1001
ACAD
1000
ACAD_MTEXT_DEFINED_HEIGHT_BEGIN
1070
    46
1040
173.7623576223049
1000
ACAD_MTEXT_DEFINED_HEIGHT_END
  0
MTEXT
  5
54966
330
5491F
100
AcDbEntity
  8
Text
 62
     7
100
AcDbMText
 10
3.517660021632764
 20
0.9777099219299998
 30
0.0
 40
0.12
 41
2.965601480888813
 46
0.1737623576223049
 71
     1
 72
     5
  1
6 Trittteller an VA- Ketten
 11
0.9999999988815046
 21
0.0000472968362809
 31
0.0
 73
     1
 44
1.0
1001
ACAD
1000
ACAD_MTEXT_DEFINED_HEIGHT_BEGIN
1070
    46
1040
173.7623576223049
1000
ACAD_MTEXT_DEFINED_HEIGHT_END
  0
ARC
  5
54967
330
5491F
100
AcDbEntity
  8
Kontur 09
 62
     7
100
AcDbCircle
 10
3.769926207103708
 20
1.500052122824172
 30
0.0
 40
0.1499999999999999
100
AcDbArc
 50
206.3194648877183
 51
333.6859548039506
  0
ARC
  5
54968
330
5491F
100
AcDbEntity
  8
Kontur 09
 62
     7
100
AcDbCircle
 10
3.769926207103708
 20
1.500052122824172
 30
0.0
 40
0.1499999999999999
100
AcDbArc
 50
26.31946488771835
 51
153.6859548039506
  0
ARC
  5
54969
330
5491F
100
AcDbEntity
  8
Kontur 09
 62
     7
100
AcDbCircle
 10
4.320926206488366
 20
1.500078183377922
 30
0.0
 40
0.1499999999999999
100
AcDbArc
 50
206.3194648877183
 51
333.6859548039506
  0
ARC
  5
5496A
330
5491F
100
AcDbEntity
  8
Kontur 09
 62
     7
100
AcDbCircle
 10
4.320926206488366
 20
1.500078183377922
 30
0.0
 40
0.1499999999999999
100
AcDbArc
 50
26.31946488771835
 51
153.6859548039506
  0
ARC
  5
5496B
330
5491F
100
AcDbEntity
  8
Kontur 09
 62
     7
100
AcDbCircle
 10
4.871926205869385
 20
1.500104243931673
 30
0.0
 40
0.1499999999999999
100
AcDbArc
 50
206.3194648877183
 51
333.6859548039506
  0
ARC
  5
5496C
330
5491F
100
AcDbEntity
  8
Kontur 09
 62
     7
100
AcDbCircle
 10
4.871926205869385
 20
1.500104243931673
 30
0.0
 40
0.1499999999999999
100
AcDbArc
 50
26.31946488771835
 51
153.6859548039506
  0
ARC
  5
5496D
330
5491F
100
AcDbEntity
  8
Kontur 09
 62
     7
100
AcDbCircle
 10
5.422926205257681
 20
1.500130304488948
 30
0.0
 40
0.1499999999999999
100
AcDbArc
 50
206.3194648877183
 51
333.6859548039506
  0
ARC
  5
5496E
330
5491F
100
AcDbEntity
  8
Kontur 09
 62
     7
100
AcDbCircle
 10
5.422926205257681
 20
1.500130304488948
 30
0.0
 40
0.1499999999999999
100
AcDbArc
 50
26.31946488771835
 51
153.6859548039506
  0
ARC
  5
5496F
330
5491F
100
AcDbEntity
  8
Kontur 09
 62
     7
100
AcDbCircle
 10
5.973926204638701
 20
1.500156365050202
 30
0.0
 40
0.1499999999999999
100
AcDbArc
 50
206.3194648877183
 51
333.6859548039506
  0
ARC
  5
54970
330
5491F
100
AcDbEntity
  8
Kontur 09
 62
     7
100
AcDbCircle
 10
5.973926204638701
 20
1.500156365050202
 30
0.0
 40
0.1499999999999999
100
AcDbArc
 50
26.31946488771835
 51
153.6859548039506
  0
MTEXT
  5
54971
330
5491F
100
AcDbEntity
  8
Text
 62
     7
100
AcDbMText
 10
6.414343140520941
 20
0.2376714524834824
 30
0.0
 40
0.12
 41
2.965601480888813
 46
0.1737623576223049
 71
     1
 72
     5
  1
Balancierseil mit Hangelseil\P+0,40/ +1,80
 11
0.9999999988815046
 21
0.0000472968362809
 31
0.0
 73
     1
 44
1.0
1001
ACAD
1000
ACAD_MTEXT_DEFINED_HEIGHT_BEGIN
1070
    46
1040
173.7623576223049
1000
ACAD_MTEXT_DEFINED_HEIGHT_END
  0
MTEXT
  5
54972
330
5491F
100
AcDbEntity
  8
Text
 62
     7
100
AcDbMText
 10
10.78393784700529
 20
0.2545448299051713
 30
0.0
 40
0.12
 41
2.965601480888813
 46
0.1737623576223049
 71
     1
 72
     5
  1
Kletternetz +2,30
 11
0.9999999988815046
 21
0.0000472968362809
 31
0.0
 73
     1
 44
1.0
1001
ACAD
1000
ACAD_MTEXT_DEFINED_HEIGHT_BEGIN
1070
    46
1040
173.7623576223049
1000
ACAD_MTEXT_DEFINED_HEIGHT_END
  0
LINE
  5
54973
330
5491F
100
AcDbEntity
  8
Sicherheitsbereich
 62
     7
 48
0.001
100
AcDbLine
 10
2.764291168929048
 20
3.350004561533069
 30
0.0
 11
6.404224894908111
 21
3.350176718886928
 31
0.0
  0
ARC
  5
54974
330
5491F
100
AcDbEntity
  8
Sicherheitsbereich
 62
     7
 48
0.001
100
AcDbCircle
 10
6.404295840166014
 20
1.850176720565855
 30
0.0
 40
1.499999999999999
100
AcDbArc
 50
60.00000009734675
 51
90.00270993925269
  0
LINE
  5
54975
330
5491F
100
AcDbEntity
  8
Sicherheitsbereich
 62
     7
 48
0.001
100
AcDbLine
 10
3.232353716248326
 20
-0.3499666975100126
 30
0.0
 11
5.809524045067519
 21
-0.3498448055067911
 31
0.0
  0
ARC
  5
54976
330
5491F
100
AcDbEntity
  8
Sicherheitsbereich
 62
     7
 48
0.001
100
AcDbCircle
 10
5.809594990318146
 20
-1.84984480382775
 30
0.0
 40
1.499999999999999
100
AcDbArc
 50
60.00000009734675
 51
90.00270993925269
  0
ARC
  5
54977
330
5491F
100
AcDbEntity
  8
Sicherheitsbereich
 62
     7
 48
0.001
100
AcDbCircle
 10
9.629446718692634
 20
-0.2499999861606739
 30
0.0
 40
2.169849999999998
100
AcDbArc
 50
86.81850455996727
 51
98.15559838114303
  0
ARC
  5
54978
330
5491F
100
AcDbEntity
  8
Sicherheitsbereich
 62
     7
 48
0.001
100
AcDbCircle
 10
9.629446718692634
 20
-0.2499999861606739
 30
0.0
 40
2.169850000000005
100
AcDbArc
 50
205.8371929786964
 51
271.8494233073937
  0
DIMENSION
  5
54979
330
5491F
100
AcDbEntity
  8
Bemaßung
 62
     7
100
AcDbDimension
280
     0
  2
*D18
 10
6.598076209727878
 20
2.186760879457551
 30
0.0
 11
4.598076208994825
 21
2.270192712902826
 31
0.0
 12
-16020.85300349456
 22
884.5051594448577
 32
0.0
 70
     1
  1
4,00
 71
     5
 42
4.000000001466105
 73
     0
 74
     0
 75
     0
  3
100
100
AcDbAlignedDimension
 13
2.598076208261772
 23
1.500000001631519
 33
0.0
 14
6.598076209727878
 24
1.500000001631519
 34
0.0
1001
ACAD
1000
DSTYLE
1002
{
1070
    40
1040
0.001
1002
}
  0
DIMENSION
  5
5497A
102
{ACAD_XDICTIONARY
360
5497B
102
}
102
{ACAD_REACTORS
330
5497C
102
}
330
5491F
100
AcDbEntity
  8
Bemaßung
 62
     7
100
AcDbDimension
280
     0
  2
*D21
 10
12.62919344405054
 20
-0.8487056534074781
 30
0.0
 11
11.12918949807499
 21
-0.7653111857258637
 31
0.0
 12
-16020.85300349456
 22
884.5051594448577
 32
0.0
 70
     1
  1
3,00
 71
     5
 42
3.000000000005456
 73
     0
 74
     0
 75
     0
  3
100
100
AcDbAlignedDimension
 13
9.62916512380616
 23
-0.2499999994773816
 33
0.0
 14
12.62916512045558
 24
-0.2498581089694198
 34
0.0
1001
ACAD
1000
DSTYLE
1002
{
1070
    40
1040
0.001
1002
}
  0
DIMENSION
  5
5497D
102
{ACAD_XDICTIONARY
360
5497E
102
}
102
{ACAD_REACTORS
330
5497F
102
}
330
5491F
100
AcDbEntity
  8
Bemaßung
 62
     7
100
AcDbDimension
280
     0
  2
*D23
 10
6.528226169662957
 20
1.433682581755078
 30
0.0
 11
2.796165529540303
 21
0.8839229619516117
 31
0.0
 12
-16020.85300349456
 22
884.5051594448577
 32
0.0
 70
     2
  1
150°
 71
     5
 42
2.618042328704532
 73
     0
 74
     0
 75
     0
  3
125
100
AcDb2LineAngularDimension
 13
0.1019841957786411
 23
-0.036955727413897
 33
0.0
 14
2.579095150598732
 24
1.393201138120616
 34
0.0
 15
2.667923063101625
 25
1.433500001636616
 35
0.0
 16
2.535332510875377
 26
0.7894064915230956
 36
0.0
1001
ACAD
1000
DSTYLE
1002
{
1070
    40
1040
0.001
1002
}
  0
DIMENSION
  5
54980
102
{ACAD_XDICTIONARY
360
54981
102
}
102
{ACAD_REACTORS
330
54982
102
}
330
5491F
100
AcDbEntity
  8
Bemaßung
 62
     7
100
AcDbDimension
280
     0
  2
*D26
 10
-1.593984885770623
 20
-0.6462292038668238
 30
0.0
 11
-0.9003420600020035
 21
-0.3119066955987364
 31
0.0
 12
-16020.85300349456
 22
884.5051594448577
 32
0.0
 70
     1
  1
SB min. 1,50
 71
     5
 42
1.527158729824805
 73
     0
 74
     0
 75
     0
  3
125
100
AcDbAlignedDimension
 13
-0.1442662778481463
 23
-0.1660940729709637
 33
0.0
 14
-1.593984885772442
 24
-0.6462292038650049
 34
0.0
1001
ACAD
1000
DSTYLE
1002
{
1070
    40
1040
0.001
1002
}
  0
MTEXT
  5
54983
330
5491F
100
AcDbEntity
  8
Text
 62
     7
100
AcDbMText
 10
8.743543379780021
 20
-1.647813155292965
 30
0.0
 40
0.12
 41
2.965601480888813
 46
0.1737623576223049
 71
     1
 72
     5
  1
max. Fallhöhe= 2,30m
 11
0.9999999988815046
 21
0.0000472968362809
 31
0.0
 73
     1
 44
1.0
1001
ACAD
1000
ACAD_MTEXT_DEFINED_HEIGHT_BEGIN
1070
    46
1040
173.7623576223049
1000
ACAD_MTEXT_DEFINED_HEIGHT_END
  0
DIMENSION
  5
54984
102
{ACAD_XDICTIONARY
360
54985
102
}
102
{ACAD_REACTORS
330
54986
102
}
330
5491F
100
AcDbEntity
  8
Bemaßung
 62
     7
100
AcDbDimension
280
     0
  2
*D30
 10
10.63405412850807
 20
1.916549298341806
 30
0.0
 11
10.55058871547953
 21
0.8665492995078238
 31
0.0
 12
-16020.85300349456
 22
884.5051594448577
 32
0.0
  1
min. 2,10
 71
     5
 42
2.099999997672966
 73
     0
 74
     0
 75
     0
  3
100
100
AcDbAlignedDimension
 13
10.67152286442615
 23
-0.1834506993311606
 33
0.0
 14
10.67142354109637
 24
1.916549298341806
 34
0.0
 50
90.0
100
AcDbRotatedDimension
1001
ACAD
1000
DSTYLE
1002
{
1070
    40
1040
0.001
1002
}
  0
DIMENSION
  5
54987
102
{ACAD_XDICTIONARY
360
54988
102
}
102
{ACAD_REACTORS
330
54989
102
}
330
5491F
100
AcDbEntity
  8
Bemaßung
 62
     7
100
AcDbDimension
280
     0
  2
*D31
 10
-0.3163860609347466
 20
0.5479967310975554
 30
0.0
 11
0.9409193366100225
 21
1.370279899891102
 31
0.0
 12
-16020.85300349456
 22
884.5051594448577
 32
0.0
 70
     1
  1
3,00
 71
     5
 42
2.999999998139173
 73
     0
 74
     0
 75
     0
  3
100
100
AcDbAlignedDimension
 13
2.598076208261772
 23
1.500000001631519
 33
0.0
 14
0.0
 24
0.0
 34
0.0
1001
ACAD
1000
DSTYLE
1002
{
1070
    40
1040
0.001
1070
    69
1070
     1
1002
}
  0
ENDBLK
  5
54921
330
5491F
100
AcDbEntity
  8
0
 62
     7
100
AcDbBlockEnd
  0
ENDSEC
  0
SECTION
  2
ENTITIES
  0
INSERT
  5
5421D
330
23
100
AcDbEntity
  8
Kontur 18
100
AcDbBlockReference
  2
Eigentum
 10
16011.61576072524
 20
-884.9532552918837
 30
0.0
 41
0.06
 42
0.06
 43
0.06
  0
INSERT
  5
5498A
330
23
100
AcDbEntity
  8
ESF_Spielgeraet
 62
     7
100
AcDbBlockReference
  2
PR0168-XXX-0-000 BalancierstreckeHessenweg
 10
16020.85300349456
 20
-884.5051594448577
 30
0.0
  0
VIEWPORT
  5
31D0B
102
{ACAD_XDICTIONARY
360
31D0C
102
}
330
31D04
100
AcDbEntity
 67
     1
  8
0
100
AcDbViewport
 10
483.2824524011709
 20
302.1642940576071
 30
0.0
 40
1593.145427720032
 41
638.5955439549341
 68
     1
 69
     1
 12
483.2824524011709
 22
302.1642940576071
 13
0.0
 23
0.0
 14
10.0
 24
10.0
 15
10.0
 25
10.0
 16
0.0
 26
0.0
 36
1.0
 17
0.0
 27
0.0
 37
0.0
 42
50.0
 43
0.0
 44
0.0
 45
638.5955439549341
 50
0.0
 51
0.0
 72
  1000
 90
   557088
  1

281
     0
 71
     1
 74
     0
110
0.0
120
0.0
130
0.0
111
1.0
121
0.0
131
0.0
112
0.0
122
1.0
132
0.0
 79
     0
146
0.0
170
     0
 61
     5
348
1D98
292
     1
282
     1
141
0.0
142
0.0
 63
   250
421
  3355443
1001
GENIUS_GENSCREG_15
1000
PF
1040
1.0
1000
DF
1040
1.0
1000
MIN
1011
-313.2902614588452
1021
-17.13347791985995
1031
0.0
1000
MAX
1011
1279.855166261187
1021
621.4620660350743
1031
0.0
1000
FLAGS
1070
     4
1001
GENIUS_GENOBJ-N-SDF_13
1002
{
1000
OWNER
1000
GEN
1002
}
1001
GENIUS_GENODEF_13
1002
{
1000
HIER
1070
     0
1002
}
1002
{
1000
MANEDIT
1070
     0
1002
}
1002
{
1000
NOSEL
1070
     0
1002
}
1002
{
1000
BEHIND
1070
     0
1002
}
1002
{
1000
OTHER
1070
     0
1002
}
1002
{
1000
REACTOR
1002
}
  0
VIEWPORT
  5
31D0F
102
{ACAD_XDICTIONARY
360
31D10
102
}
330
31D04
100
AcDbEntity
 67
     1
  8
Bemaßung
100
AcDbViewport
 10
416.7762314517069
 20
293.3561253583834
 30
0.0
 40
832.0298757025367
 41
585.200334932296
 68
     2
 69
     2
 12
0.6081051326059708
 22
11.61366432708467
 13
0.0
 23
0.0
 14
10.0
 24
10.0
 15
10.0
 25
10.0
 16
0.0
 26
0.0
 36
121.097421126282
 17
-394.7731158432434
 27
-119.1469778502139
 37
0.0
 42
50.0
 43
0.0
 44
0.0
 45
58.52003427387774
 50
0.0
 51
0.0
 72
  1000
 90
   819296
  1

281
     0
 71
     1
 74
     0
110
0.0
120
0.0
130
0.0
111
1.0
121
0.0
131
0.0
112
0.0
122
1.0
132
0.0
 79
     0
146
0.0
170
     0
 61
     5
348
1D98
292
     1
282
     1
141
0.0
142
0.0
 63
   250
421
  3355443
1001
GENIUS_GENSCREG_15
1000
PF
1040
0.0
1000
DF
1040
0.0
1000
MIN
1011
0.7612936004385347
1021
0.7559578922353012
1031
0.0
1000
MAX
1011
832.7911693029754
1021
585.9562928245313
1031
0.0
1000
FLAGS
1070
     4
1001
GENIUS_GENOBJ-N-SDF_13
1002
{
1000
OWNER
1000
GEN
1002
}
1001
GENIUS_GENODEF_13
1002
{
1000
HIER
1070
     0
1002
}
1002
{
1000
MANEDIT
1070
     0
1002
}
1002
{
1000
NOSEL
1070
     0
1002
}
1002
{
1000
BEHIND
1070
     0
1002
}
1002
{
1000
OTHER
1070
     0
1002
}
1002
{
1000
REACTOR
1002
}
  0
ENDSEC
  0
SECTION
  2
OBJECTS
  0
DICTIONARY
  5
C
330
0
100
AcDbDictionary
281
     1
  3
ACAD_BACKGROUND
350
A3CD
  3
ACAD_CIP_PREVIOUS_PRODUCT_INFO
350
31BFC
  3
ACAD_COLOR
350
1C
  3
ACAD_DETAILVIEWSTYLE
350
31BF3
  3
ACAD_FIELDLIST
350
535E2
  3
ACAD_GROUP
350
D
  3
ACAD_IMAGE_DICT
350
6518
  3
ACAD_IMAGE_VARS
350
651A
  3
ACAD_LAYOUT
350
1A
  3
ACAD_MATERIAL
350
1B
  3
ACAD_MLEADERSTYLE
350
252D
  3
ACAD_MLINESTYLE
350
17
  3
ACAD_PDFDEFINITIONS
350
22688
  3
ACAD_PLOTSETTINGS
350
19
  3
ACAD_PLOTSTYLENAME
350
E
  3
ACAD_SCALELIST
350
250B
  3
ACAD_SECTIONVIEWSTYLE
350
31BF1
  3
ACAD_TABLESTYLE
350
1D
  3
ACAD_VISUALSTYLE
350
1D92
  3
ACAD_WIPEOUT_VARS
350
10CEB
  3
AcadDim
350
1AFF
  3
ACDB_RECOMPOSE_DATA
350
549BC
  3
AcDbVariableDictionary
350
4C
  3
AcmDictionary
350
535AD
  3
AEC_PROPERTY_SET_DEFS
350
5E76
  3
AMG
350
53586
  3
AMGSNAPSETTINGS
350
535F5
  0
DICTIONARY
  5
592E
330
8
100
AcDbDictionary
280
     1
281
     1
  0
DICTIONARY
  5
48
330
2
100
AcDbDictionary
280
     1
281
     1
  3
ACAD_LAYERFILTERS
360
5B6B
  3
ACAD_LAYERSTATES
360
67
  3
ACLYDICTIONARY
360
5B6A
  0
DICTIONARY
  5
253B
330
10
100
AcDbDictionary
280
     1
281
     1
  3
ADSK_XREC_LAYER_RECONCILED
360
253C
  0
DICTIONARY
  5
2549
330
3F
100
AcDbDictionary
280
     1
281
     1
  3
ADSK_XREC_LAYER_RECONCILED
360
254A
  0
DICTIONARY
  5
32AF4
330
32AF3
100
AcDbDictionary
280
     1
281
     1
  0
DICTIONARY
  5
517C9
330
517C8
100
AcDbDictionary
280
     1
281
     1
  0
DICTIONARY
  5
537FA
330
537F9
100
AcDbDictionary
280
     1
281
     1
  0
DICTIONARY
  5
537FE
330
537FD
100
AcDbDictionary
280
     1
281
     1
  0
DICTIONARY
  5
1FDD
330
23
100
AcDbDictionary
280
     1
281
     1
  3
ACAD_SORTENTS
360
1FDE
  0
DICTIONARY
  5
51991
330
5198F
100
AcDbDictionary
280
     1
281
     1
  3
ACAD_SORTENTS
360
51992
  0
DICTIONARY
  5
5497B
330
5497A
100
AcDbDictionary
280
     1
281
     1
  3
ACAD_DIMASSOC
360
5497C
  0
DICTIONARY
  5
5497E
330
5497D
100
AcDbDictionary
280
     1
281
     1
  3
ACAD_DIMASSOC
360
5497F
  0
DICTIONARY
  5
54981
330
54980
100
AcDbDictionary
280
     1
281
     1
  3
ACAD_DIMASSOC
360
54982
  0
DICTIONARY
  5
54985
330
54984
100
AcDbDictionary
280
     1
281
     1
  3
ACAD_DIMASSOC
360
54986
  0
DICTIONARY
  5
54988
330
54987
100
AcDbDictionary
280
     1
281
     1
  3
ACAD_DIMASSOC
360
54989
  0
DICTIONARY
  5
31D0C
330
31D0B
100
AcDbDictionary
280
     1
281
     1
  3
ASDK_XREC_ANNOTATION_SCALE_INFO
360
31D0D
  0
DICTIONARY
  5
31D10
330
31D0F
100
AcDbDictionary
280
     1
281
     1
  3
ASDK_XREC_ANNOTATION_SCALE_INFO
360
31D11
  0
DICTIONARY
  5
A3CD
102
{ACAD_REACTORS
330
C
102
}
330
C
100
AcDbDictionary
281
     1
  0
XRECORD
  5
31BFC
102
{ACAD_REACTORS
330
C
102
}
330
C
100
AcDbXrecord
280
     1
300
ACDLT
300
2015
300
ACDLT_F_S
  0
DICTIONARY
  5
1C
102
{ACAD_REACTORS
330
C
102
}
330
C
100
AcDbDictionary
281
     1
  0
DICTIONARY
  5
31BF3
102
{ACAD_REACTORS
330
C
102
}
330
C
100
AcDbDictionary
281
     1
  3
Metric50
350
31BF4
  0
FIELDLIST
  5
535E2
102
{ACAD_REACTORS
330
C
102
}
330
C
100
AcDbIdSet
 90
        0
100
AcDbFieldList
  0
DICTIONARY
  5
D
102
{ACAD_REACTORS
330
C
102
}
330
C
100
AcDbDictionary
281
     1
  0
DICTIONARY
  5
6518
102
{ACAD_REACTORS
330
C
102
}
330
C
100
AcDbDictionary
281
     1
  0
RASTERVARIABLES
  5
651A
102
{ACAD_REACTORS
330
C
102
}
330
C
100
AcDbRasterVariables
 90
        0
 70
     3
 71
     1
 72
     1
  0
DICTIONARY
  5
1A
102
{ACAD_REACTORS
330
C
102
}
330
C
100
AcDbDictionary
281
     1
  3
Layout1
350
31D05
  3
Model
350
26
  0
DICTIONARY
  5
1B
102
{ACAD_REACTORS
330
C
102
}
330
C
100
AcDbDictionary
281
     1
  3
ByBlock
350
1D90
  3
ByLayer
350
1D8F
  3
Global
350
1D91
  0
DICTIONARY
  5
252D
102
{ACAD_REACTORS
330
C
102
}
330
C
100
AcDbDictionary
281
     1
  3
Standard
350
252E
  0
DICTIONARY
  5
17
102
{ACAD_REACTORS
330
C
102
}
330
C
100
AcDbDictionary
281
     1
  3
Standard
350
18
  0
DICTIONARY
  5
22688
102
{ACAD_REACTORS
330
C
102
}
330
C
100
AcDbDictionary
281
     1
  0
DICTIONARY
  5
19
102
{ACAD_REACTORS
330
C
102
}
330
C
100
AcDbDictionary
281
     1
  0
ACDBDICTIONARYWDFLT
  5
E
102
{ACAD_REACTORS
330
C
102
}
330
C
100
AcDbDictionary
281
     1
  3
Normal
350
F
100
AcDbDictionaryWithDefault
340
F
  0
DICTIONARY
  5
250B
102
{ACAD_REACTORS
330
C
102
}
330
C
100
AcDbDictionary
281
     1
  3
A0
350
250C
  0
DICTIONARY
  5
31BF1
102
{ACAD_REACTORS
330
C
102
}
330
C
100
AcDbDictionary
281
     1
  3
Metric50
350
31BF2
  0
DICTIONARY
  5
1D
102
{ACAD_REACTORS
330
C
102
}
330
C
100
AcDbDictionary
281
     1
  3
Standard
350
1E
  0
DICTIONARY
  5
1D92
102
{ACAD_REACTORS
330
C
102
}
330
C
100
AcDbDictionary
281
     1
  3
2dWireframe
350
1D98
  3
3D Hidden
350
1D9A
  3
3dWireframe
350
1D99
  3
Basic
350
1D97
  3
Brighten
350
1D9E
  3
ColorChange
350
1DA2
  3
Conceptual
350
1D9B
  3
Dim
350
1D9D
  3
EdgeColorOff
350
58CB
  3
Facepattern
350
1DA1
  3
Flat
350
1D93
  3
FlatWithEdges
350
1D94
  3
Gouraud
350
1D95
  3
GouraudWithEdges
350
1D96
  3
Hidden
350
A3B8
  3
JitterOff
350
58C9
  3
Linepattern
350
1DA0
  3
OverhangOff
350
58CA
  3
Realistic
350
1D9C
  3
Shaded
350
A3BD
  3
Shaded with edges
350
A3BC
  3
Shades of Gray
350
A3B9
  3
Sketchy
350
A3BA
  3
Thicken
350
1D9F
  3
Wireframe
350
A3B7
  3
X-Ray
350
A3BB
  0
WIPEOUTVARIABLES
  5
10CEB
102
{ACAD_REACTORS
330
C
102
}
330
C
100
AcDbWipeoutVariables
 70
     1
  0
XRECORD
  5
1AFF
102
{ACAD_REACTORS
330
C
102
}
330
C
100
AcDbXrecord
280
     1
 90
   990106
  3

 60
     0
 61
     0
 62
     1
 63
     3
 64
     0
 65
     0
 66
     0
 67
     3
 68
     1
 69
     0
 70
     0
 71
     0
 72
     0
 40
0.0
170
     0
  0
XRECORD
  5
549BC
102
{ACAD_REACTORS
330
C
102
}
330
C
100
AcDbXrecord
280
     1
 90
        1
330
1E
330
31BF2
330
31BF4
  0
DICTIONARY
  5
4C
102
{ACAD_REACTORS
330
C
102
}
330
C
100
AcDbDictionary
281
     1
  3
ANNOALLVISIBLE
350
32C7D
  3
CANNOSCALE
350
2569
  3
CMLEADERSTYLE
350
2567
  3
CTABLESTYLE
350
4D
  3
CVIEWDETAILSTYLE
350
31C1B
  3
CVIEWSECTIONSTYLE
350
31C1C
  3
DIMASSOC
350
83
  3
HIDETEXT
350
82
  3
INDEXCTL
350
597E
  3
LAYEREVAL
350
A45A
  3
LAYERNOTIFY
350
A45B
  3
LIGHTINGUNITS
350
256A
  3
MLEADERSCALE
350
597C
  3
MSLTSCALE
350
2568
  3
PROJECTNAME
350
84
  3
SOLIDHIST
350
32C1C
  3
SORTENTS
350
597D
  0
DICTIONARY
  5
535AD
102
{ACAD_REACTORS
330
C
102
}
330
C
100
AcDbDictionary
281
     1
  3
AcmStdDictionary
350
535B6
  0
DICTIONARY
  5
5E76
102
{ACAD_REACTORS
330
C
102
}
330
C
100
AcDbDictionary
281
     1
  0
DICTIONARY
  5
53586
102
{ACAD_REACTORS
330
C
102
}
330
C
100
AcDbDictionary
281
     1
  0
DICTIONARY
  5
535F5
102
{ACAD_REACTORS
330
C
102
}
330
C
100
AcDbDictionary
281
     1
  0
DICTIONARY
  5
5B6B
102
{ACAD_REACTORS
330
48
102
}
330
48
100
AcDbDictionary
281
     1
  0
DICTIONARY
  5
67
102
{ACAD_REACTORS
330
48
102
}
330
48
100
AcDbDictionary
281
     1
  0
DICTIONARY
  5
5B6A
102
{ACAD_REACTORS
330
48
102
}
330
48
100
AcDbDictionary
281
     1
1001
ACAD
1000
<All
  0
XRECORD
  5
253C
102
{ACAD_REACTORS
330
253B
102
}
330
253B
100
AcDbXrecord
280
     1
290
     1
  0
XRECORD
  5
254A
102
{ACAD_REACTORS
330
2549
102
}
330
2549
100
AcDbXrecord
280
     1
290
     1
  0
SORTENTSTABLE
  5
1FDE
102
{ACAD_REACTORS
330
1FDD
102
}
330
1FDD
100
AcDbSortentsTable
330
23
  0
SORTENTSTABLE
  5
51992
102
{ACAD_REACTORS
330
51991
102
}
330
51991
100
AcDbSortentsTable
330
5198F
  0
DIMASSOC
  5
5497C
102
{ACAD_REACTORS
330
5497B
102
}
330
5497B
100
AcDbDimAssoc
330
5497A
 90
        2
 70
     0
 71
     0
  1
AcDbOsnapPointRef
 72
     3
331
54962
 73
     2
 91
        0
 40
0.0
 10
0.0
 20
0.0
 30
0.0
 75
     0
  0
DIMASSOC
  5
5497F
102
{ACAD_REACTORS
330
5497E
102
}
330
5497E
100
AcDbDimAssoc
330
5497D
 90
       15
 70
     0
 71
     0
  1
AcDbOsnapPointRef
 72
    13
331
5492B
 73
     2
 91
        0
 40
0.0
 10
0.0
 20
0.0
 30
2.000000000000000E+50
 75
     0
  1
AcDbOsnapPointRef
 72
     1
331
5492B
 73
     2
 91
        0
 40
0.9999999999999998
 10
0.0
 20
0.0
 30
2.000000000000000E+50
 75
     0
  1
AcDbOsnapPointRef
 72
    13
331
5492F
 73
     2
 91
        0
 40
0.0
 10
0.0
 20
0.0
 30
2.000000000000000E+50
 75
     0
  1
AcDbOsnapPointRef
 72
     1
331
5492F
 73
     2
 91
        0
 40
0.9999999999999998
 10
0.0
 20
0.0
 30
2.000000000000000E+50
 75
     0
  0
DIMASSOC
  5
54982
102
{ACAD_REACTORS
330
54981
102
}
330
54981
100
AcDbDimAssoc
330
54980
 90
        3
 70
     0
 71
     0
  1
AcDbOsnapPointRef
 72
    10
331
54936
 73
     2
 91
        0
 40
3.997205688168418
 10
0.0
 20
0.0
 30
0.0
 75
     0
  1
AcDbOsnapPointRef
 72
    10
331
54937
 73
     2
 91
        0
 40
3.526760459172152
 10
0.0
 20
0.0
 30
0.0
 75
     0
  0
DIMASSOC
  5
54986
102
{ACAD_REACTORS
330
54985
102
}
330
54985
100
AcDbDimAssoc
330
54984
 90
        3
 70
     0
 71
     0
  1
AcDbOsnapPointRef
 72
    10
331
5495D
 73
     2
 91
        0
 40
0.3399355728041776
 10
0.0
 20
0.0
 30
0.0
 75
     0
  1
AcDbOsnapPointRef
 72
     8
331
5495E
 73
     2
 91
        0
 40
0.328031052472126
 10
0.0
 20
0.0
 30
0.0
 75
     1
  1
AcDbOsnapPointRef
 72
    10
331
5495D
 73
     2
 91
        0
 40
0.3399355728041776
 10
0.0
 20
0.0
 30
0.0
 75
     0
  0
DIMASSOC
  5
54989
102
{ACAD_REACTORS
330
54988
102
}
330
54988
100
AcDbDimAssoc
330
54987
 90
        2
 70
     0
 71
     0
  1
AcDbOsnapPointRef
 72
     3
331
54922
 73
     2
 91
        0
 40
0.0
 10
0.0
 20
0.0
 30
0.0
 75
     0
  0
XRECORD
  5
31D0D
102
{ACAD_REACTORS
330
31D0C
102
}
330
31D0C
100
AcDbXrecord
280
     1
 90
        1
340
250C
  0
XRECORD
  5
31D11
102
{ACAD_REACTORS
330
31D10
102
}
330
31D10
100
AcDbXrecord
280
     1
 90
        1
340
250C
  0
ACDBDETAILVIEWSTYLE
  5
31BF4
102
{ACAD_XDICTIONARY
360
53DDB
102
}
102
{ACAD_REACTORS
330
31BF3
102
}
330
31BF3
100
AcDbModelDocViewStyle
 70
     0
  3
Metric50
290
     0
100
AcDbDetailViewStyle
 70
     0
 71
     0
 90
        3
 71
     1
340
11
 62
   256
 40
5.0
340
0
 62
   256
 40
5.0
300

 40
0.0
280
     1
 71
     2
340
16
 90
       25
 62
   256
 71
     3
340
11
 62
   256
 40
5.0
 90
        0
 40
15.0
 90
        1
300
%<\AcVar ViewDetailId>% (%<\AcVar ViewScale \f "%sn">%)
 71
     4
340
16
 90
       25
 62
   256
340
16
 90
       25
 62
   256
280
     0
1001
ACAD
1000
AcRTDxfName
1000
ACDBDETAILVIEWSTYLE
1000
AcRTDxfName
1000
ACDBDETAILVIEWSTYLE
1000
AcRTDxfName
1000
ACDBDETAILVIEWSTYLE
  0
LAYOUT
  5
31D05
102
{ACAD_XDICTIONARY
360
31D19
102
}
102
{ACAD_REACTORS
330
1A
102
}
330
1A
100
AcDbPlotSettings
  1

  2
Canon iPF605
  4
User4403
  6

 40
3.757083415985107
 41
3.75714111328125
 42
3.757080078125
 43
3.757080078125
 44
593.97900390625
 45
840.9940185546874
 46
0.0
 47
0.0
 48
0.0
 49
0.0
140
0.0
141
0.0
142
1.0
143
1.0
 70
   688
 72
     1
 73
     1
 74
     5
  7

 75
    16
147
1.0
 76
     0
 77
     2
 78
   300
148
0.0
149
0.0
100
AcDbLayout
  1
Layout1
 70
     1
 71
     1
 10
-3.757080078125
 20
-3.757083415985107
 11
837.2369384765624
 21
590.2219204902649
 12
0.0
 22
0.0
 32
0.0
 14
0.7612936004385347
 24
0.7559578922353012
 34
0.0
 15
832.7911693029754
 25
585.9562928245313
 35
0.0
146
0.0
 13
0.0
 23
0.0
 33
0.0
 16
1.0
 26
0.0
 36
0.0
 17
0.0
 27
1.0
 37
0.0
 76
     0
330
31D04
331
31D0B
1001
ACAD_PSEXT
1000
Canon iPF605
1000
Canon iPF605
1000
192.168.10.93
1000

1070
     0
  0
LAYOUT
  5
26
102
{ACAD_XDICTIONARY
360
59CC
102
}
102
{ACAD_REACTORS
330
1A
102
}
330
1A
100
AcDbPlotSettings
  1

  2
\\pc17\HP DeskJet 1220C A4
  4
A4
  6

 40
4.180416584014892
 41
12.562424659729
 42
4.180404663085937
 43
3.84173583984375
 44
209.9733276367187
 45
296.9259948730469
 46
0.0
 47
0.0
 48
0.0
 49
0.0
140
0.0
141
0.0
142
1.0
143
1.0
 70
 11952
 72
     1
 73
     0
 74
     0
  7
monochrome.ctb
 75
    16
147
1.0
 76
     0
 77
     2
 78
   300
148
121.7955125582991
149
19.45327258920656
100
AcDbLayout
  1
Model
 70
     1
 71
     0
 10
0.0
 20
0.0
 11
12.0
 21
9.0
 12
0.0
 22
0.0
 32
0.0
 14
0.0
 24
0.0
 34
0.0
 15
0.0
 25
0.0
 35
0.0
146
0.0
 13
0.0
 23
0.0
 33
0.0
 16
1.0
 26
0.0
 36
0.0
 17
0.0
 27
1.0
 37
0.0
 76
     0
330
23
331
1D8D
1001
ACAD_PSEXT
1000
\\pc17\HP DeskJet 1220C A4
1000
HP DeskJet 1220C
1000
Zeichenbüro
1000
A4
1070
     0
  0
MATERIAL
  5
1D90
102
{ACAD_REACTORS
330
1B
102
}
330
1B
100
AcDbMaterial
  1
ByBlock
 73
     1
 78
     1
172
     1
176
     1
270
     1
274
     1
 94
       63
  0
MATERIAL
  5
1D8F
102
{ACAD_REACTORS
330
1B
102
}
330
1B
100
AcDbMaterial
  1
ByLayer
 73
     1
 78
     1
172
     1
176
     1
270
     1
274
     1
 94
       63
  0
MATERIAL
  5
1D91
102
{ACAD_REACTORS
330
1B
102
}
330
1B
100
AcDbMaterial
  1
Global
 73
     1
 78
     1
172
     1
176
     1
270
     1
274
     1
 94
       63
  0
MLEADERSTYLE
  5
252E
102
{ACAD_REACTORS
330
252D
102
}
330
252D
100
AcDbMLeaderStyle
179
     2
170
     2
171
     1
172
     0
 90
        2
 40
0.0
 41
0.0
173
     1
 91
-1056964608
340
14
 92
       -2
290
     1
 42
2.0
291
     1
 43
0.36
  3
Standard
 44
4.0
300

342
11
174
     1
178
     6
175
     1
176
     0
 93
-1056964608
 45
4.0
292
     0
297
     0
 46
4.0
 94
-1056964608
 47
1.0
 49
1.0
140
1.0
293
     1
141
0.0
294
     1
177
     0
142
1.0
295
     0
296
     0
143
0.125
271
     0
272
     9
273
     9
298
     0
  0
MLINESTYLE
  5
18
102
{ACAD_REACTORS
330
17
102
}
330
17
100
AcDbMlineStyle
  2
STANDARD
 70
     0
  3

 62
   256
 51
90.0
 52
90.0
 71
     2
 49
0.5
 62
   256
  6
BYLAYER
 49
-0.5
 62
   256
  6
BYLAYER
  0
ACDBPLACEHOLDER
  5
F
102
{ACAD_REACTORS
330
E
102
}
330
E
  0
SCALE
  5
250C
102
{ACAD_REACTORS
330
250B
102
}
330
250B
100
AcDbScale
 70
     0
300
1:1
140
1.0
141
1.0
290
     1
  0
ACDBSECTIONVIEWSTYLE
  5
31BF2
102
{ACAD_XDICTIONARY
360
53DD9
102
}
102
{ACAD_REACTORS
330
31BF1
102
}
330
31BF1
100
AcDbModelDocViewStyle
 70
     0
  3
Metric50
290
     0
100
AcDbSectionViewStyle
 70
     0
 71
     0
 90
      102
 71
     1
340
11
 62
   256
 40
5.0
340
0
340
0
 62
   256
 40
5.0
300
I, O, Q, S, X, Z
 40
10.0
 90
        0
 40
2.5
 90
        0
 71
     2
340
16
 90
       25
 62
   256
340
16
 90
       50
 62
   256
 40
5.0
 40
2.5
 40
5.0
 71
     3
340
11
 62
   256
 40
5.0
 90
        0
 40
15.0
 90
        1
300
%<\AcVar ViewSectionStartId>%-%<\AcVar ViewSectionEndId>% (%<\AcVar ViewScale \f "%sn">%)
 71
     4
 62
   256
 62
   257
300
ANSI31
 40
1.0
 90
        0
290
     0
290
     0
 90
        6
 40
0.0
 40
1.570796326794896
 40
0.2617993877991494
 40
1.308996938995747
 40
-0.2617993877991494
 40
1.832595714594046
1001
ACAD
1000
AcRTDxfName
1000
ACDBSECTIONVIEWSTYLE
1000
AcRTDxfName
1000
ACDBSECTIONVIEWSTYLE
1000
AcRTDxfName
1000
ACDBSECTIONVIEWSTYLE
  0
TABLESTYLE
  5
1E
102
{ACAD_XDICTIONARY
360
2563
102
}
102
{ACAD_REACTORS
330
1D
102
}
330
1D
100
AcDbTableStyle
280
     0
  3
Standard
 70
     0
 71
     0
 40
1.5
 41
1.5
280
     0
281
     0
  7
Standard
140
4.5
170
     2
 62
     0
 63
     7
283
     0
 90
        4
 91
        0
  1

274
    -2
284
     1
 64
     0
275
    -2
285
     1
 65
     0
276
    -2
286
     1
 66
     0
277
    -2
287
     1
 67
     0
278
    -2
288
     1
 68
     0
279
    -2
289
     1
 69
     0
  7
Standard
140
6.0
170
     5
 62
     0
 63
     7
283
     0
 90
        4
 91
        0
  1

274
    -2
284
     1
 64
     0
275
    -2
285
     1
 65
     0
276
    -2
286
     1
 66
     0
277
    -2
287
     1
 67
     0
278
    -2
288
     1
 68
     0
279
    -2
289
     1
 69
     0
  7
Standard
140
4.5
170
     5
 62
     0
 63
     7
283
     0
 90
        4
 91
        0
  1

274
    -2
284
     1
 64
     0
275
    -2
285
     1
 65
     0
276
    -2
286
     1
 66
     0
277
    -2
287
     1
 67
     0
278
    -2
288
     1
 68
     0
279
    -2
289
     1
 69
     0
  0
VISUALSTYLE
  5
1D98
102
{ACAD_REACTORS
330
1D92
102
}
330
1D92
100
AcDbVisualStyle
  2
2dWireframe
 70
     4
177
     3
291
     0
 70
    58
 90
        0
176
     1
 90
        2
176
     1
 90
        0
176
     1
 90
        0
176
     1
 40
0.6
176
     1
 40
30.0
176
     1
 62
     7
176
     1
 90
        1
176
     1
 90
        4
176
     1
 62
     7
176
     1
 62
   257
176
     1
 90
        1
176
     1
 90
        1
176
     1
 40
1.0
176
     1
 90
        0
176
     1
 62
   257
176
     1
 40
1.0
176
     1
 90
        1
176
     1
 90
        6
176
     1
 90
        2
176
     1
 62
     7
176
     1
 90
        5
176
     1
 90
        0
176
     1
 90
        0
176
     1
290
     0
176
     1
 90
        1
176
     1
 40
0.0
176
     1
 90
        0
176
     1
290
     1
176
     1
290
     1
176
     1
290
     0
176
     1
290
     0
176
     1
290
     0
176
     1
290
     0
176
     1
290
     0
176
     1
290
     0
176
     1
290
     0
176
     1
 90
       50
176
     1
 40
0.0
176
     1
 40
1.0
176
     1
 90
        0
176
     1
 62
    18
420
        0
176
     1
 90
       50
176
     1
 90
        3
176
     1
 62
     5
420
      255
176
     1
290
     0
176
     1
 90
       50
176
     1
 90
       50
176
     1
 90
       50
176
     1
290
     0
176
     1
 90
       50
176
     1
 62
   256
176
     0
 40
1.0
176
     0
 90
        2
176
     1
  1
strokes_ogs.tif
176
     1
290
     0
176
     1
 40
1.0
176
     1
 40
1.0
176
     1
  0
VISUALSTYLE
  5
1D9A
102
{ACAD_REACTORS
330
1D92
102
}
330
1D92
100
AcDbVisualStyle
  2
3D Hidden
 70
     6
177
     3
291
     0
 70
    58
 90
        1
176
     1
 90
        2
176
     1
 90
        2
176
     1
 90
        0
176
     1
 40
0.6
176
     1
 40
30.0
176
     1
 62
     7
176
     1
 90
        2
176
     1
 90
        2
176
     1
 62
     7
176
     1
 62
   257
176
     1
 90
        2
176
     1
 90
        1
176
     1
 40
40.0
176
     1
 90
        0
176
     1
 62
   257
176
     1
 40
1.0
176
     1
 90
        1
176
     1
 90
        6
176
     1
 90
        2
176
     1
 62
     7
176
     1
 90
        3
176
     1
 90
        0
176
     1
 90
        0
176
     1
290
     0
176
     1
 90
        1
176
     1
 40
0.0
176
     1
 90
        0
176
     1
290
     0
176
     1
290
     1
176
     1
290
     1
176
     1
290
     0
176
     1
290
     0
176
     1
290
     0
176
     1
290
     0
176
     1
290
     0
176
     1
290
     0
176
     1
 90
       50
176
     1
 40
0.0
176
     1
 40
1.0
176
     1
 90
        0
176
     1
 62
    18
420
        0
176
     1
 90
       50
176
     1
 90
        3
176
     1
 62
     5
420
      255
176
     1
290
     0
176
     1
 90
       50
176
     1
 90
       50
176
     1
 90
       50
176
     1
290
     0
176
     1
 90
       50
176
     1
 62
   256
176
     0
 40
1.0
176
     0
 90
        2
176
     1
  1
strokes_ogs.tif
176
     1
290
     0
176
     1
 40
1.0
176
     1
 40
1.0
176
     1
  0
VISUALSTYLE
  5
1D99
102
{ACAD_REACTORS
330
1D92
102
}
330
1D92
100
AcDbVisualStyle
  2
3dWireframe
 70
     5
177
     3
291
     0
 70
    58
 90
        0
176
     1
 90
        2
176
     1
 90
        0
176
     1
 90
        0
176
     1
 40
0.6
176
     1
 40
30.0
176
     1
 62
     7
176
     1
 90
        1
176
     1
 90
        4
176
     1
 62
     7
176
     1
 62
   257
176
     1
 90
        1
176
     1
 90
        1
176
     1
 40
1.0
176
     1
 90
        0
176
     1
 62
   257
176
     1
 40
1.0
176
     1
 90
        1
176
     1
 90
        6
176
     1
 90
        2
176
     1
 62
     7
176
     1
 90
        5
176
     1
 90
        0
176
     1
 90
        0
176
     1
290
     0
176
     1
 90
        1
176
     1
 40
0.0
176
     1
 90
        0
176
     1
290
     0
176
     1
290
     1
176
     1
290
     1
176
     1
290
     0
176
     1
290
     0
176
     1
290
     0
176
     1
290
     0
176
     1
290
     0
176
     1
290
     0
176
     1
 90
       50
176
     1
 40
0.0
176
     1
 40
1.0
176
     1
 90
        0
176
     1
 62
    18
420
        0
176
     1
 90
       50
176
     1
 90
        3
176
     1
 62
     5
420
      255
176
     1
290
     0
176
     1
 90
       50
176
     1
 90
       50
176
     1
 90
       50
176
     1
290
     0
176
     1
 90
       50
176
     1
 62
   256
176
     0
 40
1.0
176
     0
 90
        2
176
     1
  1
strokes_ogs.tif
176
     1
290
     0
176
     1
 40
1.0
176
     1
 40
1.0
176
     1
  0
VISUALSTYLE
  5
1D97
102
{ACAD_REACTORS
330
1D92
102
}
330
1D92
100
AcDbVisualStyle
  2
Basic
 70
     7
177
     3
291
     1
 70
    58
 90
        1
176
     1
 90
        0
176
     1
 90
        1
176
     1
 90
        0
176
     1
 40
0.6
176
     1
 40
30.0
176
     1
 62
     7
176
     1
 90
        0
176
     1
 90
        4
176
     1
 62
     7
176
     1
 62
   257
176
     1
 90
        1
176
     1
 90
        1
176
     1
 40
1.0
176
     1
 90
        8
176
     1
 62
     7
176
     1
 40
1.0
176
     1
 90
        1
176
     1
 90
        6
176
     1
 90
        2
176
     1
 62
     7
176
     1
 90
        5
176
     1
 90
        0
176
     1
 90
        0
176
     1
290
     0
176
     1
 90
        1
176
     1
 40
0.0
176
     1
 90
        0
176
     1
290
     0
176
     1
290
     1
176
     1
290
     1
176
     1
290
     0
176
     1
290
     0
176
     1
290
     0
176
     1
290
     0
176
     1
290
     0
176
     1
290
     0
176
     1
 90
       50
176
     1
 40
0.0
176
     1
 40
1.0
176
     1
 90
        0
176
     1
 62
    18
420
        0
176
     1
 90
       50
176
     1
 90
        3
176
     1
 62
     5
420
      255
176
     1
290
     0
176
     1
 90
       50
176
     1
 90
       50
176
     1
 90
       50
176
     1
290
     0
176
     1
 90
       50
176
     1
 62
   256
176
     0
 40
1.0
176
     0
 90
        2
176
     1
  1
strokes_ogs.tif
176
     1
290
     0
176
     1
 40
1.0
176
     1
 40
1.0
176
     1
  0
VISUALSTYLE
  5
1D9E
102
{ACAD_REACTORS
330
1D92
102
}
330
1D92
100
AcDbVisualStyle
  2
Brighten
 70
    12
177
     3
291
     1
 70
    58
 90
        2
176
     1
 90
        2
176
     1
 90
        0
176
     1
 90
        0
176
     1
 40
0.6
176
     1
 40
30.0
176
     1
 62
     7
176
     1
 90
        1
176
     1
 90
        4
176
     1
 62
     7
176
     1
 62
   257
176
     1
 90
        1
176
     1
 90
        1
176
     1
 40
1.0
176
     1
 90
        8
176
     1
 62
     7
176
     1
 40
1.0
176
     1
 90
        1
176
     1
 90
        6
176
     1
 90
        2
176
     1
 62
     7
176
     1
 90
        5
176
     1
 90
        0
176
     1
 90
        0
176
     1
290
     0
176
     1
 90
        1
176
     1
 40
50.0
176
     1
 90
        0
176
     1
290
     0
176
     1
290
     1
176
     1
290
     1
176
     1
290
     0
176
     1
290
     0
176
     1
290
     0
176
     1
290
     0
176
     1
290
     0
176
     1
290
     0
176
     1
 90
       50
176
     1
 40
0.0
176
     1
 40
1.0
176
     1
 90
        0
176
     1
 62
    18
420
        0
176
     1
 90
       50
176
     1
 90
        3
176
     1
 62
     5
420
      255
176
     1
290
     0
176
     1
 90
       50
176
     1
 90
       50
176
     1
 90
       50
176
     1
290
     0
176
     1
 90
       50
176
     1
 62
   256
176
     0
 40
1.0
176
     0
 90
        2
176
     1
  1
strokes_ogs.tif
176
     1
290
     0
176
     1
 40
1.0
176
     1
 40
1.0
176
     1
  0
VISUALSTYLE
  5
1DA2
102
{ACAD_REACTORS
330
1D92
102
}
330
1D92
100
AcDbVisualStyle
  2
ColorChange
 70
    16
177
     3
291
     1
 70
    58
 90
        2
176
     1
 90
        2
176
     1
 90
        3
176
     1
 90
        0
176
     1
 40
0.6
176
     1
 40
30.0
176
     1
 62
     8
176
     1
 90
        1
176
     1
 90
        4
176
     1
 62
     7
176
     1
 62
   257
176
     1
 90
        1
176
     1
 90
        1
176
     1
 40
1.0
176
     1
 90
        8
176
     1
 62
     8
176
     1
 40
1.0
176
     1
 90
        1
176
     1
 90
        6
176
     1
 90
        2
176
     1
 62
     7
176
     1
 90
        5
176
     1
 90
        0
176
     1
 90
        0
176
     1
290
     0
176
     1
 90
        1
176
     1
 40
0.0
176
     1
 90
        0
176
     1
290
     0
176
     1
290
     1
176
     1
290
     1
176
     1
290
     0
176
     1
290
     0
176
     1
290
     0
176
     1
290
     0
176
     1
290
     0
176
     1
290
     0
176
     1
 90
       50
176
     1
 40
0.0
176
     1
 40
1.0
176
     1
 90
        0
176
     1
 62
    18
420
        0
176
     1
 90
       50
176
     1
 90
        3
176
     1
 62
     5
420
      255
176
     1
290
     0
176
     1
 90
       50
176
     1
 90
       50
176
     1
 90
       50
176
     1
290
     0
176
     1
 90
       50
176
     1
 62
   256
176
     0
 40
1.0
176
     0
 90
        2
176
     1
  1
strokes_ogs.tif
176
     1
290
     0
176
     1
 40
1.0
176
     1
 40
1.0
176
     1
  0
VISUALSTYLE
  5
1D9B
102
{ACAD_REACTORS
330
1D92
102
}
330
1D92
100
AcDbVisualStyle
  2
Conceptual
 70
     9
177
     3
291
     0
 70
    58
 90
        3
176
     1
 90
        2
176
     1
 90
        0
176
     1
 90
        0
176
     1
 40
0.6
176
     1
 40
30.0
176
     1
 62
     7
176
     1
 90
        2
176
     1
 90
        2
176
     1
 62
     7
176
     1
 62
   257
176
     1
 90
        1
176
     1
 90
        1
176
     1
 40
40.0
176
     1
 90
        8
176
     1
 62
     7
176
     1
 40
1.0
176
     1
 90
        1
176
     1
 90
        6
176
     1
 90
        2
176
     1
 62
     7
176
     1
 90
        3
176
     1
 90
        0
176
     1
 90
        0
176
     1
290
     0
176
     1
 90
        1
176
     1
 40
0.0
176
     1
 90
        0
176
     1
290
     0
176
     1
290
     1
176
     1
290
     1
176
     1
290
     0
176
     1
290
     0
176
     1
290
     0
176
     1
290
     0
176
     1
290
     0
176
     1
290
     0
176
     1
 90
       50
176
     1
 40
0.0
176
     1
 40
1.0
176
     1
 90
        0
176
     1
 62
    18
420
        0
176
     1
 90
       50
176
     1
 90
        3
176
     1
 62
     5
420
      255
176
     1
290
     0
176
     1
 90
       50
176
     1
 90
       50
176
     1
 90
       50
176
     1
290
     0
176
     1
 90
       50
176
     1
 62
   256
176
     0
 40
1.0
176
     0
 90
        2
176
     1
  1
strokes_ogs.tif
176
     1
290
     0
176
     1
 40
1.0
176
     1
 40
1.0
176
     1
  0
VISUALSTYLE
  5
1D9D
102
{ACAD_REACTORS
330
1D92
102
}
330
1D92
100
AcDbVisualStyle
  2
Dim
 70
    11
177
     3
291
     1
 70
    58
 90
        2
176
     1
 90
        2
176
     1
 90
        0
176
     1
 90
        0
176
     1
 40
0.6
176
     1
 40
30.0
176
     1
 62
     7
176
     1
 90
        1
176
     1
 90
        4
176
     1
 62
     7
176
     1
 62
   257
176
     1
 90
        1
176
     1
 90
        1
176
     1
 40
1.0
176
     1
 90
        8
176
     1
 62
     7
176
     1
 40
1.0
176
     1
 90
        1
176
     1
 90
        6
176
     1
 90
        2
176
     1
 62
     7
176
     1
 90
        5
176
     1
 90
        0
176
     1
 90
        0
176
     1
290
     0
176
     1
 90
        1
176
     1
 40
-50.0
176
     1
 90
        0
176
     1
290
     0
176
     1
290
     1
176
     1
290
     1
176
     1
290
     0
176
     1
290
     0
176
     1
290
     0
176
     1
290
     0
176
     1
290
     0
176
     1
290
     0
176
     1
 90
       50
176
     1
 40
0.0
176
     1
 40
1.0
176
     1
 90
        0
176
     1
 62
    18
420
        0
176
     1
 90
       50
176
     1
 90
        3
176
     1
 62
     5
420
      255
176
     1
290
     0
176
     1
 90
       50
176
     1
 90
       50
176
     1
 90
       50
176
     1
290
     0
176
     1
 90
       50
176
     1
 62
   256
176
     0
 40
1.0
176
     0
 90
        2
176
     1
  1
strokes_ogs.tif
176
     1
290
     0
176
     1
 40
1.0
176
     1
 40
1.0
176
     1
  0
VISUALSTYLE
  5
58CB
102
{ACAD_REACTORS
330
1D92
102
}
330
1D92
100
AcDbVisualStyle
  2
EdgeColorOff
 70
    22
177
     3
291
     1
 70
    58
 90
        2
176
     0
 90
        2
176
     0
 90
        0
176
     0
 90
        0
176
     0
 40
0.6
176
     0
 40
30.0
176
     0
 62
     7
176
     0
 90
        1
176
     0
 90
        4
176
     0
 62
     7
176
     0
 62
   257
176
     0
 90
        1
176
     0
 90
        1
176
     0
 40
1.0
176
     0
 90
        8
176
     2
 62
     7
176
     0
 40
1.0
176
     0
 90
        1
176
     0
 90
        6
176
     0
 90
        2
176
     0
 62
     7
176
     0
 90
        5
176
     0
 90
        0
176
     0
 90
        0
176
     0
290
     0
176
     0
 90
        1
176
     0
 40
0.0
176
     0
 90
        0
176
     0
290
     0
176
     1
290
     1
176
     1
290
     1
176
     1
290
     0
176
     1
290
     0
176
     1
290
     0
176
     1
290
     0
176
     1
290
     0
176
     1
290
     0
176
     1
 90
       50
176
     1
 40
0.0
176
     1
 40
1.0
176
     1
 90
        0
176
     1
 62
    18
420
        0
176
     1
 90
       50
176
     1
 90
        3
176
     1
 62
     5
420
      255
176
     1
290
     0
176
     1
 90
       50
176
     1
 90
       50
176
     1
 90
       50
176
     1
290
     0
176
     1
 90
       50
176
     1
 62
   256
176
     0
 40
1.0
176
     0
 90
        2
176
     1
  1
strokes_ogs.tif
176
     1
290
     0
176
     1
 40
1.0
176
     1
 40
1.0
176
     1
  0
VISUALSTYLE
  5
1DA1
102
{ACAD_REACTORS
330
1D92
102
}
330
1D92
100
AcDbVisualStyle
  2
Facepattern
 70
    15
177
     3
291
     1
 70
    58
 90
        2
176
     1
 90
        2
176
     1
 90
        0
176
     1
 90
        0
176
     1
 40
0.6
176
     1
 40
30.0
176
     1
 62
     7
176
     1
 90
        1
176
     1
 90
        4
176
     1
 62
     7
176
     1
 62
   257
176
     1
 90
        1
176
     1
 90
        1
176
     1
 40
1.0
176
     1
 90
        8
176
     1
 62
     7
176
     1
 40
1.0
176
     1
 90
        1
176
     1
 90
        6
176
     1
 90
        2
176
     1
 62
     7
176
     1
 90
        5
176
     1
 90
        0
176
     1
 90
        0
176
     1
290
     0
176
     1
 90
        1
176
     1
 40
0.0
176
     1
 90
        0
176
     1
290
     0
176
     1
290
     1
176
     1
290
     1
176
     1
290
     0
176
     1
290
     0
176
     1
290
     0
176
     1
290
     0
176
     1
290
     0
176
     1
290
     0
176
     1
 90
       50
176
     1
 40
0.0
176
     1
 40
1.0
176
     1
 90
        0
176
     1
 62
    18
420
        0
176
     1
 90
       50
176
     1
 90
        3
176
     1
 62
     5
420
      255
176
     1
290
     0
176
     1
 90
       50
176
     1
 90
       50
176
     1
 90
       50
176
     1
290
     0
176
     1
 90
       50
176
     1
 62
   256
176
     0
 40
1.0
176
     0
 90
        2
176
     1
  1
strokes_ogs.tif
176
     1
290
     0
176
     1
 40
1.0
176
     1
 40
1.0
176
     1
  0
VISUALSTYLE
  5
1D93
102
{ACAD_REACTORS
330
1D92
102
}
330
1D92
100
AcDbVisualStyle
  2
Flat
 70
     0
177
     3
291
     1
 70
    58
 90
        2
176
     1
 90
        1
176
     1
 90
        1
176
     1
 90
        2
176
     1
 40
0.6
176
     1
 40
30.0
176
     1
 62
     7
176
     1
 90
        0
176
     1
 90
        4
176
     1
 62
     7
176
     1
 62
   257
176
     1
 90
        1
176
     1
 90
        1
176
     1
 40
1.0
176
     1
 90
        8
176
     1
 62
     7
176
     1
 40
1.0
176
     1
 90
        1
176
     1
 90
        6
176
     1
 90
        2
176
     1
 62
     7
176
     1
 90
        5
176
     1
 90
        0
176
     1
 90
        0
176
     1
290
     0
176
     1
 90
       13
176
     1
 40
0.0
176
     1
 90
        0
176
     1
290
     0
176
     1
290
     1
176
     1
290
     1
176
     1
290
     0
176
     1
290
     0
176
     1
290
     0
176
     1
290
     0
176
     1
290
     0
176
     1
290
     0
176
     1
 90
       50
176
     1
 40
0.0
176
     1
 40
1.0
176
     1
 90
        0
176
     1
 62
    18
420
        0
176
     1
 90
       50
176
     1
 90
        3
176
     1
 62
     5
420
      255
176
     1
290
     0
176
     1
 90
       50
176
     1
 90
       50
176
     1
 90
       50
176
     1
290
     0
176
     1
 90
       50
176
     1
 62
   256
176
     0
 40
1.0
176
     0
 90
        2
176
     1
  1
strokes_ogs.tif
176
     1
290
     0
176
     1
 40
1.0
176
     1
 40
1.0
176
     1
  0
VISUALSTYLE
  5
1D94
102
{ACAD_REACTORS
330
1D92
102
}
330
1D92
100
AcDbVisualStyle
  2
FlatWithEdges
 70
     1
177
     3
291
     1
 70
    58
 90
        2
176
     1
 90
        1
176
     1
 90
        1
176
     1
 90
        2
176
     1
 40
0.6
176
     1
 40
30.0
176
     1
 62
     7
176
     1
 90
        1
176
     1
 90
        4
176
     1
 62
     7
176
     1
 62
   257
176
     1
 90
        1
176
     1
 90
        1
176
     1
 40
1.0
176
     1
 90
        0
176
     1
 62
   257
176
     1
 40
1.0
176
     1
 90
        1
176
     1
 90
        6
176
     1
 90
        2
176
     1
 62
     7
176
     1
 90
        5
176
     1
 90
        0
176
     1
 90
        0
176
     1
290
     0
176
     1
 90
       13
176
     1
 40
0.0
176
     1
 90
        0
176
     1
290
     0
176
     1
290
     1
176
     1
290
     1
176
     1
290
     0
176
     1
290
     0
176
     1
290
     0
176
     1
290
     0
176
     1
290
     0
176
     1
290
     0
176
     1
 90
       50
176
     1
 40
0.0
176
     1
 40
1.0
176
     1
 90
        0
176
     1
 62
    18
420
        0
176
     1
 90
       50
176
     1
 90
        3
176
     1
 62
     5
420
      255
176
     1
290
     0
176
     1
 90
       50
176
     1
 90
       50
176
     1
 90
       50
176
     1
290
     0
176
     1
 90
       50
176
     1
 62
   256
176
     0
 40
1.0
176
     0
 90
        2
176
     1
  1
strokes_ogs.tif
176
     1
290
     0
176
     1
 40
1.0
176
     1
 40
1.0
176
     1
  0
VISUALSTYLE
  5
1D95
102
{ACAD_REACTORS
330
1D92
102
}
330
1D92
100
AcDbVisualStyle
  2
Gouraud
 70
     2
177
     3
291
     1
 70
    58
 90
        2
176
     1
 90
        2
176
     1
 90
        1
176
     1
 90
        2
176
     1
 40
0.6
176
     1
 40
30.0
176
     1
 62
     7
176
     1
 90
        0
176
     1
 90
        4
176
     1
 62
     7
176
     1
 62
   257
176
     1
 90
        1
176
     1
 90
        1
176
     1
 40
1.0
176
     1
 90
        0
176
     1
 62
     7
176
     1
 40
1.0
176
     1
 90
        1
176
     1
 90
        6
176
     1
 90
        2
176
     1
 62
     7
176
     1
 90
        5
176
     1
 90
        0
176
     1
 90
        0
176
     1
290
     0
176
     1
 90
       13
176
     1
 40
0.0
176
     1
 90
        0
176
     1
290
     0
176
     1
290
     1
176
     1
290
     1
176
     1
290
     0
176
     1
290
     0
176
     1
290
     0
176
     1
290
     0
176
     1
290
     0
176
     1
290
     0
176
     1
 90
       50
176
     1
 40
0.0
176
     1
 40
1.0
176
     1
 90
        0
176
     1
 62
    18
420
        0
176
     1
 90
       50
176
     1
 90
        3
176
     1
 62
     5
420
      255
176
     1
290
     0
176
     1
 90
       50
176
     1
 90
       50
176
     1
 90
       50
176
     1
290
     0
176
     1
 90
       50
176
     1
 62
   256
176
     0
 40
1.0
176
     0
 90
        2
176
     1
  1
strokes_ogs.tif
176
     1
290
     0
176
     1
 40
1.0
176
     1
 40
1.0
176
     1
  0
VISUALSTYLE
  5
1D96
102
{ACAD_REACTORS
330
1D92
102
}
330
1D92
100
AcDbVisualStyle
  2
GouraudWithEdges
 70
     3
177
     3
291
     1
 70
    58
 90
        2
176
     1
 90
        2
176
     1
 90
        1
176
     1
 90
        2
176
     1
 40
0.6
176
     1
 40
30.0
176
     1
 62
     7
176
     1
 90
        1
176
     1
 90
        4
176
     1
 62
     7
176
     1
 62
   257
176
     1
 90
        1
176
     1
 90
        1
176
     1
 40
1.0
176
     1
 90
        0
176
     1
 62
   257
176
     1
 40
1.0
176
     1
 90
        1
176
     1
 90
        6
176
     1
 90
        2
176
     1
 62
     7
176
     1
 90
        5
176
     1
 90
        0
176
     1
 90
        0
176
     1
290
     0
176
     1
 90
       13
176
     1
 40
0.0
176
     1
 90
        0
176
     1
290
     0
176
     1
290
     1
176
     1
290
     1
176
     1
290
     0
176
     1
290
     0
176
     1
290
     0
176
     1
290
     0
176
     1
290
     0
176
     1
290
     0
176
     1
 90
       50
176
     1
 40
0.0
176
     1
 40
1.0
176
     1
 90
        0
176
     1
 62
    18
420
        0
176
     1
 90
       50
176
     1
 90
        3
176
     1
 62
     5
420
      255
176
     1
290
     0
176
     1
 90
       50
176
     1
 90
       50
176
     1
 90
       50
176
     1
290
     0
176
     1
 90
       50
176
     1
 62
   256
176
     0
 40
1.0
176
     0
 90
        2
176
     1
  1
strokes_ogs.tif
176
     1
290
     0
176
     1
 40
1.0
176
     1
 40
1.0
176
     1
  0
VISUALSTYLE
  5
A3B8
102
{ACAD_REACTORS
330
1D92
102
}
330
1D92
100
AcDbVisualStyle
  2
Hidden
 70
     6
177
     3
291
     0
 70
    58
 90
        1
176
     1
 90
        2
176
     1
 90
        2
176
     1
 90
        0
176
     1
 40
0.6
176
     1
 40
30.0
176
     1
 62
     7
176
     1
 90
        2
176
     1
 90
        2
176
     1
 62
     7
176
     1
 62
   257
176
     1
 90
        2
176
     1
 90
        1
176
     1
 40
40.0
176
     1
 90
        0
176
     1
 62
   257
176
     1
 40
1.0
176
     1
 90
        1
176
     1
 90
        6
176
     1
 90
        2
176
     1
 62
     7
176
     1
 90
        3
176
     1
 90
        0
176
     1
 90
        0
176
     1
290
     0
176
     1
 90
        1
176
     1
 40
0.0
176
     1
 90
        0
176
     1
290
     0
176
     1
290
     1
176
     1
290
     1
176
     1
290
     0
176
     1
290
     0
176
     1
290
     0
176
     1
290
     0
176
     1
290
     0
176
     1
290
     0
176
     1
 90
       50
176
     1
 40
0.0
176
     1
 40
1.0
176
     1
 90
        0
176
     1
 62
    18
420
        0
176
     1
 90
       50
176
     1
 90
        3
176
     1
 62
     5
420
      255
176
     1
290
     0
176
     1
 90
       50
176
     1
 90
       50
176
     1
 90
       50
176
     1
290
     0
176
     1
 90
       50
176
     1
 62
   256
176
     0
 40
1.0
176
     0
 90
        2
176
     1
  1
strokes_ogs.tif
176
     1
290
     0
176
     1
 40
1.0
176
     1
 40
1.0
176
     1
  0
VISUALSTYLE
  5
58C9
102
{ACAD_REACTORS
330
1D92
102
}
330
1D92
100
AcDbVisualStyle
  2
JitterOff
 70
    20
177
     3
291
     1
 70
    58
 90
        2
176
     0
 90
        2
176
     0
 90
        0
176
     0
 90
        0
176
     0
 40
0.6
176
     0
 40
30.0
176
     0
 62
     7
176
     0
 90
        1
176
     0
 90
        4
176
     0
 62
     7
176
     0
 62
   257
176
     0
 90
        1
176
     0
 90
        1
176
     0
 40
1.0
176
     0
 90
       10
176
     2
 62
     7
176
     0
 40
1.0
176
     0
 90
        1
176
     0
 90
        6
176
     0
 90
        2
176
     0
 62
     7
176
     0
 90
        5
176
     0
 90
        0
176
     0
 90
        0
176
     0
290
     0
176
     0
 90
        1
176
     0
 40
0.0
176
     0
 90
        0
176
     0
290
     0
176
     1
290
     1
176
     1
290
     1
176
     1
290
     0
176
     1
290
     0
176
     1
290
     0
176
     1
290
     0
176
     1
290
     0
176
     1
290
     0
176
     1
 90
       50
176
     1
 40
0.0
176
     1
 40
1.0
176
     1
 90
        0
176
     1
 62
    18
420
        0
176
     1
 90
       50
176
     1
 90
        3
176
     1
 62
     5
420
      255
176
     1
290
     0
176
     1
 90
       50
176
     1
 90
       50
176
     1
 90
       50
176
     1
290
     0
176
     1
 90
       50
176
     1
 62
   256
176
     0
 40
1.0
176
     0
 90
        2
176
     1
  1
strokes_ogs.tif
176
     1
290
     0
176
     1
 40
1.0
176
     1
 40
1.0
176
     1
  0
VISUALSTYLE
  5
1DA0
102
{ACAD_REACTORS
330
1D92
102
}
330
1D92
100
AcDbVisualStyle
  2
Linepattern
 70
    14
177
     3
291
     1
 70
    58
 90
        2
176
     1
 90
        2
176
     1
 90
        0
176
     1
 90
        0
176
     1
 40
0.6
176
     1
 40
30.0
176
     1
 62
     7
176
     1
 90
        1
176
     1
 90
        4
176
     1
 62
     7
176
     1
 62
   257
176
     1
 90
        7
176
     1
 90
        7
176
     1
 40
1.0
176
     1
 90
        8
176
     1
 62
     7
176
     1
 40
1.0
176
     1
 90
        1
176
     1
 90
        6
176
     1
 90
        2
176
     1
 62
     7
176
     1
 90
        5
176
     1
 90
        0
176
     1
 90
        0
176
     1
290
     0
176
     1
 90
        1
176
     1
 40
0.0
176
     1
 90
        0
176
     1
290
     0
176
     1
290
     1
176
     1
290
     1
176
     1
290
     0
176
     1
290
     0
176
     1
290
     0
176
     1
290
     0
176
     1
290
     0
176
     1
290
     0
176
     1
 90
       50
176
     1
 40
0.0
176
     1
 40
1.0
176
     1
 90
        0
176
     1
 62
    18
420
        0
176
     1
 90
       50
176
     1
 90
        3
176
     1
 62
     5
420
      255
176
     1
290
     0
176
     1
 90
       50
176
     1
 90
       50
176
     1
 90
       50
176
     1
290
     0
176
     1
 90
       50
176
     1
 62
   256
176
     0
 40
1.0
176
     0
 90
        2
176
     1
  1
strokes_ogs.tif
176
     1
290
     0
176
     1
 40
1.0
176
     1
 40
1.0
176
     1
  0
VISUALSTYLE
  5
58CA
102
{ACAD_REACTORS
330
1D92
102
}
330
1D92
100
AcDbVisualStyle
  2
OverhangOff
 70
    21
177
     3
291
     1
 70
    58
 90
        2
176
     0
 90
        2
176
     0
 90
        0
176
     0
 90
        0
176
     0
 40
0.6
176
     0
 40
30.0
176
     0
 62
     7
176
     0
 90
        1
176
     0
 90
        4
176
     0
 62
     7
176
     0
 62
   257
176
     0
 90
        1
176
     0
 90
        1
176
     0
 40
1.0
176
     0
 90
        9
176
     2
 62
     7
176
     0
 40
1.0
176
     0
 90
        1
176
     0
 90
        6
176
     0
 90
        2
176
     0
 62
     7
176
     0
 90
        5
176
     0
 90
        0
176
     0
 90
        0
176
     0
290
     0
176
     0
 90
        1
176
     0
 40
0.0
176
     0
 90
        0
176
     0
290
     0
176
     1
290
     1
176
     1
290
     1
176
     1
290
     0
176
     1
290
     0
176
     1
290
     0
176
     1
290
     0
176
     1
290
     0
176
     1
290
     0
176
     1
 90
       50
176
     1
 40
0.0
176
     1
 40
1.0
176
     1
 90
        0
176
     1
 62
    18
420
        0
176
     1
 90
       50
176
     1
 90
        3
176
     1
 62
     5
420
      255
176
     1
290
     0
176
     1
 90
       50
176
     1
 90
       50
176
     1
 90
       50
176
     1
290
     0
176
     1
 90
       50
176
     1
 62
   256
176
     0
 40
1.0
176
     0
 90
        2
176
     1
  1
strokes_ogs.tif
176
     1
290
     0
176
     1
 40
1.0
176
     1
 40
1.0
176
     1
  0
VISUALSTYLE
  5
1D9C
102
{ACAD_REACTORS
330
1D92
102
}
330
1D92
100
AcDbVisualStyle
  2
Realistic
 70
     8
177
     3
291
     0
 70
    58
 90
        2
176
     1
 90
        2
176
     1
 90
        0
176
     1
 90
        0
176
     1
 40
0.6
176
     1
 40
30.0
176
     1
 62
     7
176
     1
 90
        1
176
     1
 90
        0
176
     1
 62
     7
176
     1
 62
   257
176
     1
 90
        1
176
     1
 90
        1
176
     1
 40
1.0
176
     1
 90
        8
176
     1
 62
     8
176
     1
 40
1.0
176
     1
 90
        1
176
     1
 90
        6
176
     1
 90
        2
176
     1
 62
     7
176
     1
 90
        5
176
     1
 90
        0
176
     1
 90
        0
176
     1
290
     0
176
     1
 90
       13
176
     1
 40
0.0
176
     1
 90
        0
176
     1
290
     0
176
     1
290
     1
176
     1
290
     1
176
     1
290
     0
176
     1
290
     0
176
     1
290
     0
176
     1
290
     0
176
     1
290
     0
176
     1
290
     0
176
     1
 90
       50
176
     1
 40
0.0
176
     1
 40
1.0
176
     1
 90
        0
176
     1
 62
    18
420
        0
176
     1
 90
       50
176
     1
 90
        3
176
     1
 62
     5
420
      255
176
     1
290
     0
176
     1
 90
       50
176
     1
 90
       50
176
     1
 90
       50
176
     1
290
     0
176
     1
 90
       50
176
     1
 62
   256
176
     0
 40
1.0
176
     0
 90
        2
176
     1
  1
strokes_ogs.tif
176
     1
290
     0
176
     1
 40
1.0
176
     1
 40
1.0
176
     1
  0
VISUALSTYLE
  5
A3BD
102
{ACAD_REACTORS
330
1D92
102
}
330
1D92
100
AcDbVisualStyle
  2
Shaded
 70
    27
177
     3
291
     0
 70
    58
 90
        2
176
     1
 90
        2
176
     1
 90
        1
176
     1
 90
        2
176
     1
 40
0.6
176
     1
 40
30.0
176
     1
 62
     7
176
     1
 90
        0
176
     1
 90
        4
176
     1
 62
     7
176
     1
 62
   257
176
     1
 90
        1
176
     1
 90
        1
176
     1
 40
1.0
176
     1
 90
        8
176
     1
 62
   257
176
     1
 40
1.0
176
     1
 90
        1
176
     1
 90
        6
176
     1
 90
        2
176
     1
 62
     8
176
     1
 90
        3
176
     1
 90
        0
176
     1
 90
        0
176
     1
290
     0
176
     1
 90
        5
176
     1
 40
0.0
176
     1
 90
        0
176
     1
290
     0
176
     1
290
     1
176
     1
290
     1
176
     1
290
     0
176
     1
290
     0
176
     1
290
     0
176
     1
290
     0
176
     1
290
     0
176
     1
290
     0
176
     1
 90
       50
176
     1
 40
0.0
176
     1
 40
1.0
176
     1
 90
        0
176
     1
 62
    18
420
        0
176
     1
 90
       50
176
     1
 90
        3
176
     1
 62
     5
420
      255
176
     1
290
     0
176
     1
 90
       50
176
     1
 90
       50
176
     1
 90
       50
176
     1
290
     0
176
     1
 90
       50
176
     1
 62
   256
176
     0
 40
1.0
176
     0
 90
        2
176
     1
  1
strokes_ogs.tif
176
     1
290
     0
176
     1
 40
1.0
176
     1
 40
1.0
176
     1
  0
VISUALSTYLE
  5
A3BC
102
{ACAD_REACTORS
330
1D92
102
}
330
1D92
100
AcDbVisualStyle
  2
Shaded with edges
 70
    26
177
     3
291
     0
 70
    58
 90
        2
176
     1
 90
        2
176
     1
 90
        1
176
     1
 90
        2
176
     1
 40
0.6
176
     1
 40
30.0
176
     1
 62
     7
176
     1
 90
        1
176
     1
 90
       10
176
     1
 62
     7
176
     1
 62
   257
176
     1
 90
        2
176
     1
 90
        1
176
     1
 40
1.0
176
     1
 90
        8
176
     1
 62
   257
176
     1
 40
1.0
176
     1
 90
        1
176
     1
 90
        6
176
     1
 90
        2
176
     1
 62
     7
176
     1
 90
        3
176
     1
 90
        0
176
     1
 90
        0
176
     1
290
     0
176
     1
 90
        5
176
     1
 40
0.0
176
     1
 90
        0
176
     1
290
     0
176
     1
290
     1
176
     1
290
     1
176
     1
290
     0
176
     1
290
     0
176
     1
290
     0
176
     1
290
     0
176
     1
290
     0
176
     1
290
     0
176
     1
 90
       50
176
     1
 40
0.0
176
     1
 40
1.0
176
     1
 90
        0
176
     1
 62
    18
420
        0
176
     1
 90
       50
176
     1
 90
        3
176
     1
 62
     5
420
      255
176
     1
290
     0
176
     1
 90
       50
176
     1
 90
       50
176
     1
 90
       50
176
     1
290
     0
176
     1
 90
       50
176
     1
 62
   256
176
     0
 40
1.0
176
     0
 90
        2
176
     1
  1
strokes_ogs.tif
176
     1
290
     0
176
     1
 40
1.0
176
     1
 40
1.0
176
     1
  0
VISUALSTYLE
  5
A3B9
102
{ACAD_REACTORS
330
1D92
102
}
330
1D92
100
AcDbVisualStyle
  2
Shades of Gray
 70
    23
177
     3
291
     0
 70
    58
 90
        2
176
     1
 90
        2
176
     1
 90
        3
176
     1
 90
        0
176
     1
 40
0.6
176
     1
 40
30.0
176
     1
 62
     7
176
     1
 90
        2
176
     1
 90
        2
176
     1
 62
     7
176
     1
 62
     7
176
     1
 90
        1
176
     1
 90
        1
176
     1
 40
40.0
176
     1
 90
        8
176
     1
 62
     7
176
     1
 40
1.0
176
     1
 90
        1
176
     1
 90
        6
176
     1
 90
        2
176
     1
 62
     7
176
     1
 90
        3
176
     1
 90
        0
176
     1
 90
        0
176
     1
290
     0
176
     1
 90
        1
176
     1
 40
0.0
176
     1
 90
        0
176
     1
290
     0
176
     1
290
     1
176
     1
290
     1
176
     1
290
     0
176
     1
290
     0
176
     1
290
     0
176
     1
290
     0
176
     1
290
     0
176
     1
290
     0
176
     1
 90
       50
176
     1
 40
0.0
176
     1
 40
1.0
176
     1
 90
        0
176
     1
 62
    18
420
        0
176
     1
 90
       50
176
     1
 90
        3
176
     1
 62
     5
420
      255
176
     1
290
     0
176
     1
 90
       50
176
     1
 90
       50
176
     1
 90
       50
176
     1
290
     0
176
     1
 90
       50
176
     1
 62
   256
176
     0
 40
1.0
176
     0
 90
        2
176
     1
  1
strokes_ogs.tif
176
     1
290
     0
176
     1
 40
1.0
176
     1
 40
1.0
176
     1
  0
VISUALSTYLE
  5
A3BA
102
{ACAD_REACTORS
330
1D92
102
}
330
1D92
100
AcDbVisualStyle
  2
Sketchy
 70
    24
177
     3
291
     0
 70
    58
 90
        1
176
     1
 90
        2
176
     1
 90
        2
176
     1
 90
        0
176
     1
 40
0.6
176
     1
 40
30.0
176
     1
 62
     7
176
     1
 90
        2
176
     1
 90
        2
176
     1
 62
     7
176
     1
 62
     7
176
     1
 90
        1
176
     1
 90
        1
176
     1
 40
40.0
176
     1
 90
       11
176
     1
 62
     7
176
     1
 40
1.0
176
     1
 90
        1
176
     1
 90
        6
176
     1
 90
        2
176
     1
 62
     7
176
     1
 90
        6
176
     1
 90
        0
176
     1
 90
        0
176
     1
290
     0
176
     1
 90
        1
176
     1
 40
0.0
176
     1
 90
        0
176
     1
290
     0
176
     1
290
     1
176
     1
290
     1
176
     1
290
     0
176
     1
290
     0
176
     1
290
     0
176
     1
290
     0
176
     1
290
     0
176
     1
290
     0
176
     1
 90
       50
176
     1
 40
0.0
176
     1
 40
1.0
176
     1
 90
        0
176
     1
 62
    18
420
        0
176
     1
 90
       50
176
     1
 90
        3
176
     1
 62
     5
420
      255
176
     1
290
     0
176
     1
 90
       50
176
     1
 90
       50
176
     1
 90
       50
176
     1
290
     0
176
     1
 90
       50
176
     1
 62
   256
176
     0
 40
1.0
176
     0
 90
        2
176
     1
  1
strokes_ogs.tif
176
     1
290
     0
176
     1
 40
1.0
176
     1
 40
1.0
176
     1
  0
VISUALSTYLE
  5
1D9F
102
{ACAD_REACTORS
330
1D92
102
}
330
1D92
100
AcDbVisualStyle
  2
Thicken
 70
    13
177
     3
291
     1
 70
    58
 90
        2
176
     1
 90
        2
176
     1
 90
        0
176
     1
 90
        0
176
     1
 40
0.6
176
     1
 40
30.0
176
     1
 62
     7
176
     1
 90
        1
176
     1
 90
        4
176
     1
 62
     7
176
     1
 62
   257
176
     1
 90
        1
176
     1
 90
        1
176
     1
 40
1.0
176
     1
 90
       12
176
     1
 62
     7
176
     1
 40
1.0
176
     1
 90
        1
176
     1
 90
        6
176
     1
 90
        2
176
     1
 62
     7
176
     1
 90
        5
176
     1
 90
        0
176
     1
 90
        0
176
     1
290
     0
176
     1
 90
        1
176
     1
 40
0.0
176
     1
 90
        0
176
     1
290
     0
176
     1
290
     1
176
     1
290
     1
176
     1
290
     0
176
     1
290
     0
176
     1
290
     0
176
     1
290
     0
176
     1
290
     0
176
     1
290
     0
176
     1
 90
       50
176
     1
 40
0.0
176
     1
 40
1.0
176
     1
 90
        0
176
     1
 62
    18
420
        0
176
     1
 90
       50
176
     1
 90
        3
176
     1
 62
     5
420
      255
176
     1
290
     0
176
     1
 90
       50
176
     1
 90
       50
176
     1
 90
       50
176
     1
290
     0
176
     1
 90
       50
176
     1
 62
   256
176
     0
 40
1.0
176
     0
 90
        2
176
     1
  1
strokes_ogs.tif
176
     1
290
     0
176
     1
 40
1.0
176
     1
 40
1.0
176
     1
  0
VISUALSTYLE
  5
A3B7
102
{ACAD_REACTORS
330
1D92
102
}
330
1D92
100
AcDbVisualStyle
  2
Wireframe
 70
     5
177
     3
291
     0
 70
    58
 90
        0
176
     1
 90
        2
176
     1
 90
        0
176
     1
 90
        0
176
     1
 40
0.6
176
     1
 40
30.0
176
     1
 62
     7
176
     1
 90
        1
176
     1
 90
        4
176
     1
 62
     7
176
     1
 62
   257
176
     1
 90
        1
176
     1
 90
        1
176
     1
 40
1.0
176
     1
 90
        0
176
     1
 62
   257
176
     1
 40
1.0
176
     1
 90
        1
176
     1
 90
        6
176
     1
 90
        2
176
     1
 62
     7
176
     1
 90
        3
176
     1
 90
        0
176
     1
 90
        0
176
     1
290
     0
176
     1
 90
        1
176
     1
 40
0.0
176
     1
 90
        0
176
     1
290
     0
176
     1
290
     1
176
     1
290
     1
176
     1
290
     0
176
     1
290
     0
176
     1
290
     0
176
     1
290
     0
176
     1
290
     0
176
     1
290
     0
176
     1
 90
       50
176
     1
 40
0.0
176
     1
 40
1.0
176
     1
 90
        0
176
     1
 62
    18
420
        0
176
     1
 90
       50
176
     1
 90
        3
176
     1
 62
     5
420
      255
176
     1
290
     0
176
     1
 90
       50
176
     1
 90
       50
176
     1
 90
       50
176
     1
290
     0
176
     1
 90
       50
176
     1
 62
   256
176
     0
 40
1.0
176
     0
 90
        2
176
     1
  1
strokes_ogs.tif
176
     1
290
     0
176
     1
 40
1.0
176
     1
 40
1.0
176
     1
  0
VISUALSTYLE
  5
A3BB
102
{ACAD_REACTORS
330
1D92
102
}
330
1D92
100
AcDbVisualStyle
  2
X-Ray
 70
    25
177
     3
291
     0
 70
    58
 90
        2
176
     1
 90
        2
176
     1
 90
        1
176
     1
 90
        1
176
     1
 40
0.5
176
     1
 40
30.0
176
     1
 62
     7
176
     1
 90
        1
176
     1
 90
        0
176
     1
 62
     7
176
     1
 62
   257
176
     1
 90
        1
176
     1
 90
        1
176
     1
 40
1.0
176
     1
 90
        8
176
     1
 62
     7
176
     1
 40
1.0
176
     1
 90
        1
176
     1
 90
        6
176
     1
 90
        2
176
     1
 62
     7
176
     1
 90
        3
176
     1
 90
        0
176
     1
 90
        0
176
     1
290
     0
176
     1
 90
       13
176
     1
 40
0.0
176
     1
 90
        0
176
     1
290
     0
176
     1
290
     1
176
     1
290
     1
176
     1
290
     0
176
     1
290
     0
176
     1
290
     0
176
     1
290
     0
176
     1
290
     0
176
     1
290
     0
176
     1
 90
       50
176
     1
 40
0.0
176
     1
 40
1.0
176
     1
 90
        0
176
     1
 62
    18
420
        0
176
     1
 90
       50
176
     1
 90
        3
176
     1
 62
     5
420
      255
176
     1
290
     0
176
     1
 90
       50
176
     1
 90
       50
176
     1
 90
       50
176
     1
290
     0
176
     1
 90
       50
176
     1
 62
   256
176
     0
 40
1.0
176
     0
 90
        2
176
     1
  1
strokes_ogs.tif
176
     1
290
     0
176
     1
 40
1.0
176
     1
 40
1.0
176
     1
  0
DICTIONARYVAR
  5
32C7D
102
{ACAD_REACTORS
330
4C
102
}
330
4C
100
DictionaryVariables
280
     0
  1
1
  0
DICTIONARYVAR
  5
2569
102
{ACAD_REACTORS
330
4C
102
}
330
4C
100
DictionaryVariables
280
     0
  1
1:1
  0
DICTIONARYVAR
  5
2567
102
{ACAD_REACTORS
330
4C
102
}
330
4C
100
DictionaryVariables
280
     0
  1
STANDARD
  0
DICTIONARYVAR
  5
4D
102
{ACAD_REACTORS
330
4C
102
}
330
4C
100
DictionaryVariables
280
     0
  1
STANDARD
  0
DICTIONARYVAR
  5
31C1B
102
{ACAD_REACTORS
330
4C
102
}
330
4C
100
DictionaryVariables
280
     0
  1
Metric50
  0
DICTIONARYVAR
  5
31C1C
102
{ACAD_REACTORS
330
4C
102
}
330
4C
100
DictionaryVariables
280
     0
  1
Metric50
  0
DICTIONARYVAR
  5
83
102
{ACAD_REACTORS
330
4C
102
}
330
4C
100
DictionaryVariables
280
     0
  1
2
  0
DICTIONARYVAR
  5
82
102
{ACAD_REACTORS
330
4C
102
}
330
4C
100
DictionaryVariables
280
     0
  1
1
  0
DICTIONARYVAR
  5
597E
102
{ACAD_REACTORS
330
4C
102
}
330
4C
100
DictionaryVariables
280
     0
  1
0
  0
DICTIONARYVAR
  5
A45A
102
{ACAD_REACTORS
330
4C
102
}
330
4C
100
DictionaryVariables
280
     0
  1
1
  0
DICTIONARYVAR
  5
A45B
102
{ACAD_REACTORS
330
4C
102
}
330
4C
100
DictionaryVariables
280
     0
  1
15
  0
DICTIONARYVAR
  5
256A
102
{ACAD_REACTORS
330
4C
102
}
330
4C
100
DictionaryVariables
280
     0
  1
0
  0
DICTIONARYVAR
  5
597C
102
{ACAD_REACTORS
330
4C
102
}
330
4C
100
DictionaryVariables
280
     0
  1
1.000000
  0
DICTIONARYVAR
  5
2568
102
{ACAD_REACTORS
330
4C
102
}
330
4C
100
DictionaryVariables
280
     0
  1
0
  0
DICTIONARYVAR
  5
84
102
{ACAD_REACTORS
330
4C
102
}
330
4C
100
DictionaryVariables
280
     0
  1

  0
DICTIONARYVAR
  5
32C1C
102
{ACAD_REACTORS
330
4C
102
}
330
4C
100
DictionaryVariables
280
     0
  1
1
  0
DICTIONARYVAR
  5
597D
102
{ACAD_REACTORS
330
4C
102
}
330
4C
100
DictionaryVariables
280
     0
  1
127
  0
DICTIONARY
  5
535B6
102
{ACAD_REACTORS
330
535AD
102
}
330
535AD
100
AcDbDictionary
281
     1
  0
DICTIONARY
  5
53DDB
330
31BF4
100
AcDbDictionary
280
     1
281
     1
  3
ACAD_XREC_ROUNDTRIP
360
549BB
  0
DICTIONARY
  5
31D19
330
31D05
100
AcDbDictionary
280
     1
281
     1
  0
DICTIONARY
  5
59CC
330
26
100
AcDbDictionary
280
     1
281
     1
  0
DICTIONARY
  5
53DD9
330
31BF2
100
AcDbDictionary
280
     1
281
     1
  3
ACAD_XREC_ROUNDTRIP
360
549BA
  0
DICTIONARY
  5
2563
330
1E
100
AcDbDictionary
280
     1
281
     1
  3
ACAD_ROUNDTRIP_2008_TABLESTYLE_CELLSTYLEMAP
360
549B9
  0
XRECORD
  5
549BB
102
{ACAD_REACTORS
330
53DDB
102
}
330
53DDB
100
AcDbXrecord
280
     1
102
DISPLAYNAME
  1
Metric50
102
FLAGS
 90
        0
  0
XRECORD
  5
549BA
102
{ACAD_REACTORS
330
53DD9
102
}
330
53DD9
100
AcDbXrecord
280
     1
102
DISPLAYNAME
  1
Metric50
102
FLAGS
 90
        0
  0
CELLSTYLEMAP
  5
549B9
102
{ACAD_REACTORS
330
2563
102
}
330
2563
100
AcDbCellStyleMap
 90
        3
300
CELLSTYLE
  1
TABLEFORMAT_BEGIN
 90
        5
170
     1
 91
        0
 92
    32768
 62
   257
 93
        1
300
CONTENTFORMAT
  1
CONTENTFORMAT_BEGIN
 90
        0
 91
        0
 92
        4
 93
        0
300

 40
0.0
140
1.0
 94
        5
 62
     0
340
11
144
6.0
309
CONTENTFORMAT_END
171
     1
301
MARGIN
  1
CELLMARGIN_BEGIN
 40
1.5
 40
1.5
 40
1.5
 40
1.5
 40
0.18
 40
0.18
309
CELLMARGIN_END
 94
        6
 95
        1
302
GRIDFORMAT
  1
GRIDFORMAT_BEGIN
 90
        0
 91
        1
 62
     0
 92
       -2
340
0
 93
        0
 40
0.045
309
GRIDFORMAT_END
 95
        2
302
GRIDFORMAT
  1
GRIDFORMAT_BEGIN
 90
        0
 91
        1
 62
     0
 92
       -2
340
0
 93
        0
 40
0.045
309
GRIDFORMAT_END
 95
        4
302
GRIDFORMAT
  1
GRIDFORMAT_BEGIN
 90
        0
 91
        1
 62
     0
 92
       -2
340
0
 93
        0
 40
0.045
309
GRIDFORMAT_END
 95
        8
302
GRIDFORMAT
  1
GRIDFORMAT_BEGIN
 90
        0
 91
        1
 62
     0
 92
       -2
340
0
 93
        0
 40
0.045
309
GRIDFORMAT_END
 95
       16
302
GRIDFORMAT
  1
GRIDFORMAT_BEGIN
 90
        0
 91
        1
 62
     0
 92
       -2
340
0
 93
        0
 40
0.045
309
GRIDFORMAT_END
 95
       32
302
GRIDFORMAT
  1
GRIDFORMAT_BEGIN
 90
        0
 91
        1
 62
     0
 92
       -2
340
0
 93
        0
 40
0.045
309
GRIDFORMAT_END
309
TABLEFORMAT_END
  1
CELLSTYLE_BEGIN
 90
        1
 91
        1
300
_TITLE
309
CELLSTYLE_END
300
CELLSTYLE
  1
TABLEFORMAT_BEGIN
 90
        5
170
     1
 91
        0
 92
        0
 62
   257
 93
        1
300
CONTENTFORMAT
  1
CONTENTFORMAT_BEGIN
 90
        0
 91
        0
 92
        4
 93
        0
300

 40
0.0
140
1.0
 94
        5
 62
     0
340
11
144
4.5
309
CONTENTFORMAT_END
171
     1
301
MARGIN
  1
CELLMARGIN_BEGIN
 40
1.5
 40
1.5
 40
1.5
 40
1.5
 40
0.18
 40
0.18
309
CELLMARGIN_END
 94
        6
 95
        1
302
GRIDFORMAT
  1
GRIDFORMAT_BEGIN
 90
        0
 91
        1
 62
     0
 92
       -2
340
0
 93
        0
 40
0.045
309
GRIDFORMAT_END
 95
        2
302
GRIDFORMAT
  1
GRIDFORMAT_BEGIN
 90
        0
 91
        1
 62
     0
 92
       -2
340
0
 93
        0
 40
0.045
309
GRIDFORMAT_END
 95
        4
302
GRIDFORMAT
  1
GRIDFORMAT_BEGIN
 90
        0
 91
        1
 62
     0
 92
       -2
340
0
 93
        0
 40
0.045
309
GRIDFORMAT_END
 95
        8
302
GRIDFORMAT
  1
GRIDFORMAT_BEGIN
 90
        0
 91
        1
 62
     0
 92
       -2
340
0
 93
        0
 40
0.045
309
GRIDFORMAT_END
 95
       16
302
GRIDFORMAT
  1
GRIDFORMAT_BEGIN
 90
        0
 91
        1
 62
     0
 92
       -2
340
0
 93
        0
 40
0.045
309
GRIDFORMAT_END
 95
       32
302
GRIDFORMAT
  1
GRIDFORMAT_BEGIN
 90
        0
 91
        1
 62
     0
 92
       -2
340
0
 93
        0
 40
0.045
309
GRIDFORMAT_END
309
TABLEFORMAT_END
  1
CELLSTYLE_BEGIN
 90
        2
 91
        1
300
_HEADER
309
CELLSTYLE_END
300
CELLSTYLE
  1
TABLEFORMAT_BEGIN
 90
        5
170
     1
 91
        0
 92
        0
 62
   257
 93
        1
300
CONTENTFORMAT
  1
CONTENTFORMAT_BEGIN
 90
        0
 91
        0
 92
        4
 93
        0
300

 40
0.0
140
1.0
 94
        2
 62
     0
340
11
144
4.5
309
CONTENTFORMAT_END
171
     1
301
MARGIN
  1
CELLMARGIN_BEGIN
 40
1.5
 40
1.5
 40
1.5
 40
1.5
 40
0.18
 40
0.18
309
CELLMARGIN_END
 94
        6
 95
        1
302
GRIDFORMAT
  1
GRIDFORMAT_BEGIN
 90
        0
 91
        1
 62
     0
 92
       -2
340
0
 93
        0
 40
0.045
309
GRIDFORMAT_END
 95
        2
302
GRIDFORMAT
  1
GRIDFORMAT_BEGIN
 90
        0
 91
        1
 62
     0
 92
       -2
340
0
 93
        0
 40
0.045
309
GRIDFORMAT_END
 95
        4
302
GRIDFORMAT
  1
GRIDFORMAT_BEGIN
 90
        0
 91
        1
 62
     0
 92
       -2
340
0
 93
        0
 40
0.045
309
GRIDFORMAT_END
 95
        8
302
GRIDFORMAT
  1
GRIDFORMAT_BEGIN
 90
        0
 91
        1
 62
     0
 92
       -2
340
0
 93
        0
 40
0.045
309
GRIDFORMAT_END
 95
       16
302
GRIDFORMAT
  1
GRIDFORMAT_BEGIN
 90
        0
 91
        1
 62
     0
 92
       -2
340
0
 93
        0
 40
0.045
309
GRIDFORMAT_END
 95
       32
302
GRIDFORMAT
  1
GRIDFORMAT_BEGIN
 90
        0
 91
        1
 62
     0
 92
       -2
340
0
 93
        0
 40
0.045
309
GRIDFORMAT_END
309
TABLEFORMAT_END
  1
CELLSTYLE_BEGIN
 90
        3
 91
        2
300
_DATA
309
CELLSTYLE_END
  0
ENDSEC
  0
SECTION
  2
ACDSDATA
 70
     2
 71
     8
  0
ACDSSCHEMA
 90
        0
  1
AcDb_Thumbnail_Schema
  2
AcDbDs::ID
280
    10
 91
        8
  2
Thumbnail_Data
280
    15
 91
        0
101
ACDSRECORD
 95
        0
 90
        1
  2
AcDbDs::TreatedAsObjectData
280
     1
291
     1
101
ACDSRECORD
 95
        0
 90
        2
  2
AcDbDs::Legacy
280
     1
291
     1
101
ACDSRECORD
  1
AcDbDs::ID
 90
        3
  2
AcDs:Indexable
280
     1
291
     1
101
ACDSRECORD
  1
AcDbDs::ID
 90
        4
  2
AcDbDs::HandleAttribute
280
     7
282
     1
  0
ACDSSCHEMA
 90
        1
  1
AcDbDs::TreatedAsObjectDataSchema
  2
AcDbDs::TreatedAsObjectData
280
     1
 91
        0
  0
ACDSSCHEMA
 90
        2
  1
AcDbDs::LegacySchema
  2
AcDbDs::Legacy
280
     1
 91
        0
  0
ACDSSCHEMA
 90
        3
  1
AcDbDs::IndexedPropertySchema
  2
AcDs:Indexable
280
     1
 91
        0
  0
ACDSSCHEMA
 90
        4
  1
AcDbDs::HandleAttributeSchema
  2
AcDbDs::HandleAttribute
280
     7
 91
        1
284
     1
  0
ACDSRECORD
 90
        0
  2
AcDbDs::ID
280
    10
320
26
  2
Thumbnail_Data
280
    15
 94
     1597
310
89504E470D0A1A0A0000000D49484452000001000000006F08030000003479EE6F00000300504C5445000000000000FFFFFF0000000000000000000000000000000000000000000000000000330000660000990000CC0000FF0033000033330033660033990033CC0033FF0066000066330066660066990066CC0066FF0099
310
000099330099660099990099CC0099FF00CC0000CC3300CC6600CC9900CCCC00CCFF00FF0000FF3300FF6600FF9900FFCC00FFFF3300003300333300663300993300CC3300FF3333003333333333663333993333CC3333FF3366003366333366663366993366CC3366FF3399003399333399663399993399CC3399FF33CC00
310
33CC3333CC6633CC9933CCCC33CCFF33FF0033FF3333FF6633FF9933FFCC33FFFF6600006600336600666600996600CC6600FF6633006633336633666633996633CC6633FF6666006666336666666666996666CC6666FF6699006699336699666699996699CC6699FF66CC0066CC3366CC6666CC9966CCCC66CCFF66FF0066
310
FF3366FF6666FF9966FFCC66FFFF9900009900339900669900999900CC9900FF9933009933339933669933999933CC9933FF9966009966339966669966999966CC9966FF9999009999339999669999999999CC9999FF99CC0099CC3399CC6699CC9999CCCC99CCFF99FF0099FF3399FF6699FF9999FFCC99FFFFCC0000CC00
310
33CC0066CC0099CC00CCCC00FFCC3300CC3333CC3366CC3399CC33CCCC33FFCC6600CC6633CC6666CC6699CC66CCCC66FFCC9900CC9933CC9966CC9999CC99CCCC99FFCCCC00CCCC33CCCC66CCCC99CCCCCCCCCCFFCCFF00CCFF33CCFF66CCFF99CCFFCCCCFFFFFF0000FF0033FF0066FF0099FF00CCFF00FFFF3300FF3333
310
FF3366FF3399FF33CCFF33FFFF6600FF6633FF6666FF6699FF66CCFF66FFFF9900FF9933FF9966FF9999FF99CCFF99FFFFCC00FFCC33FFCC66FFCC99FFCCCCFFCCFFFFFF00FFFF33FFFF66FFFF99FFFFCCFFFFFF0000000D0D0D1A1A1A2828283535354343435050505D5D5D6B6B6B787878868686939393A1A1A1AEAEAEBB
310
BBBBC9C9C9D6D6D6E4E4E4F1F1F1FFFFFF000000000000000000000000000000000000000000000000000000000000C11FEF66000002824944415478DAED9B4B92C3200C44394EEE7FB7DEA766AAE260CC4712021BD26F359938866E2481291C02218410420821841042082184104208216402D0B0A57ADDE5BBC99FF09327
310
EB9FE4DA36C3BF93057D229677A07B0C170F028FDE2F6C8157CF17B5C0B3DB0B3AE03C6ACB0541BEBF3D0BE1A52C28F5552A01D94B97B1A034823A03B06A29A8C9971B50B0E0F9CF92A88C9CD280F68017BFBFCF8342EDD32571D4FDC60FF0B06903F5C4356D88C068C00D1503ADBA25094C5C2EACFD06961ECD8BFEBFF661
310
5804A465AC2C03B6949C96FD898A8FB04F49FC0EF8F9CFFFCB120BEAC5E5010E34F49F14553B85BC3AAB01B31CC83413FF0BC9A7C61480D4B2420BA269758A03D9DE9D035858D78FABAF0B814B23C27505EED07FAEE287187CC7B75EF5F2E992B4233560BC0390457F2454B17A45E503C233420065F90E53713108C4066066
310
0678CBAF34207EB6C0DC004893DFBD09713D9D15027903E0DA2EB21620D843E055A16F0EC09807D2731E8C35E0D511004785EF7AAACA4E11D7D097EE82A80D5019815CF7CB0F3F7603E2F4521A80450D286E2D69CBBBD880BE1A8863B5D7D0613640F0507D8301B1DC68B9376A8B12B06FCAC953401702917A43822B53C472
310
83D10604857A874BF45FCA0DB01501917AF1161DEC7BC1852F31D800696DD7DCD1D780A1EB8030626346BCAC01F00003E039FCCD9BBAD4C0E0A65EE0806D26F49B3F31DC806A12DC7F4A2E7B17670330E661DC694365FCB668F94844A7049F6366618A0363CE746011FDB9867C52182B24406E41E456C1B048005CA668EFC8
310
B21D83D9E3B8B5DD803D4EDCDB55ECF3C6C16FEB3756D4BDDE3B52ABD9EFCD33CDCCB2E58B774173CE2A10420821841042082184104208218410F2C3BC010C0EDD4735E237610000000049454E44AE42608275AD80AB3E7E4C082184104208218410420821841062E2078D8671763C276F630000000049454E44AE426082F8
310
7B17B778F586C6AEFF8115A01BBD7C46BFEC7E8E3BB77BFF74BDD74A0F5477E5F75E3D06000000000000000000000000000048E50FC8BB628E46CDB22F0000000049454E44AE426082
  0
ACDSRECORD
 90
        0
  2
AcDbDs::ID
280
    10
320
31D05
  2
Thumbnail_Data
280
    15
 94
     2810
310
89504E470D0A1A0A0000000D4948445200000100000000B5080300000087DCD12600000300504C5445FFFFFF000000FFFFFF0000000000000000000000000000000000000000000000000000330000660000990000CC0000FF0033000033330033660033990033CC0033FF0066000066330066660066990066CC0066FF0099
310
000099330099660099990099CC0099FF00CC0000CC3300CC6600CC9900CCCC00CCFF00FF0000FF3300FF6600FF9900FFCC00FFFF3300003300333300663300993300CC3300FF3333003333333333663333993333CC3333FF3366003366333366663366993366CC3366FF3399003399333399663399993399CC3399FF33CC00
310
33CC3333CC6633CC9933CCCC33CCFF33FF0033FF3333FF6633FF9933FFCC33FFFF6600006600336600666600996600CC6600FF6633006633336633666633996633CC6633FF6666006666336666666666996666CC6666FF6699006699336699666699996699CC6699FF66CC0066CC3366CC6666CC9966CCCC66CCFF66FF0066
310
FF3366FF6666FF9966FFCC66FFFF9900009900339900669900999900CC9900FF9933009933339933669933999933CC9933FF9966009966339966669966999966CC9966FF9999009999339999669999999999CC9999FF99CC0099CC3399CC6699CC9999CCCC99CCFF99FF0099FF3399FF6699FF9999FFCC99FFFFCC0000CC00
310
33CC0066CC0099CC00CCCC00FFCC3300CC3333CC3366CC3399CC33CCCC33FFCC6600CC6633CC6666CC6699CC66CCCC66FFCC9900CC9933CC9966CC9999CC99CCCC99FFCCCC00CCCC33CCCC66CCCC99CCCCCCCCCCFFCCFF00CCFF33CCFF66CCFF99CCFFCCCCFFFFFF0000FF0033FF0066FF0099FF00CCFF00FFFF3300FF3333
310
FF3366FF3399FF33CCFF33FFFF6600FF6633FF6666FF6699FF66CCFF66FFFF9900FF9933FF9966FF9999FF99CCFF99FFFFCC00FFCC33FFCC66FFCC99FFCCCCFFCCFFFFFF00FFFF33FFFF66FFFF99FFFFCCFFFFFF0000000D0D0D1A1A1A2828283535354343435050505D5D5D6B6B6B787878868686939393A1A1A1AEAEAEBB
310
BBBBC9C9C9D6D6D6E4E4E4F1F1F1FFFFFF000000000000000000000000000000000000000000000000000000000000790CAC0F000007B54944415478DAED9D5B9ADB200C85BBF62CAC8B391B685FF4DE649AD85C2424B020D8D8DFB4E349321EF83912206EBFB0F6F5E71768E5EB05E0EFCAD70F0095D27545F217D0016071
310
00CFEC2F0D20719A2B0288582C0D80AE670CB5005657002D0FE072048C00AE5B0FD42BE0621A683081AB0368EC545E0FC0E3F118036068E7DF0AE0F9ED096093FF4F6F00718B28B68F4300C477C427637B039FAFE88DF0A53DADDCC332002CB5CFFFA7028036005BA1470AE0D3D605402A581900201B50D86A47C97F4F08A0
310
A8803093AF04A6BD136C1905973633808CE63000282B007B8F44049096770B80A2024277DA0140590119006800A296AC11008A0A6000E06B0004CF1D98C0CF8F8F57793E2BF67A00B32920F501B1E506EE7FB700FCC8B90A40F497A60250D3720A3EFE785FC8A21AC6A6F048006A35883C9169ED19A639CF48E838EB0070AF
310
74015056405806490131776150DB0640CE10FA2B80EC0A90539800C0A900E84DE110C0E14E910880B57FF151E8080045001427B3680C7BCFA10E406C64481400B6EA400D00C9CFB49471FAD8AC71844A1390DAC289811D02101734B8F296EC5C4181B8D6203380AC400AA98F005056D19A00E48E2AF73B92B811BE0FA63A01
310
67C3754DE1B27C194EEE00A2A65D9A49F1977300D90D0BE0FF2361284C08B540B5091800EC9D003E093200A63051D3109A074016D5C852073619A85300D24AA33F0098017CFEA850362E0092209A05008602F8F81E900240CEB7660261EE470060D32603C0200034CC04A2EE8D92A5BD7C5413381B008302B682CF2A402F00
310
89FB1F094035013E4C5AA8068F29C00880AD313B00103F50AA433F55464F00BC236BE90B144C801D966313C278CCB300109D20E4A113B9AC0F02408001E50016171D6FEA0E0B2DCF43C3BF6F9F89BACED016576C00D0DC1D2EB47DB3EE67C1D968004C61F1F72F359880734448163CCC9F5E1B40A6C8CB01D07A83D40C0027
310
014037804E0048AA066707E033492A1C5B3EB3020C7DEB3302080711BA00D8064F302980A496BF01F89B00960780A03954AA07D600408B02D8E3D56082D89EC3E3134E965600E431ED8B4D977F77A421C4857D15302F004AE2D565FD5E0A001EFFFFE591C292015F1B80188D35E8E477F0751200F97C401100501D069D1D00
310
45D36A5400E7F6826600A20F30B466CE6602B42FBC50C3DD261F78051F20D57B3627B85DE751003F519EB2107B384B6C0C00676FE301406D053803405700D2447B6604DCBC72B40C6092CE103BDD96D469E0FA6CF167AE7FBE3EDF4F07401DAB2C19E66FF632847D0F5A08B4A9229A0FD83F7F0C80A51AECD184926CB20180
310
923ED38289F100ECE1A532006D64AC0300C5B31EEC7DB60028E7CD63C98CF893341152A8A16F001D00A804BE056094095801601880C13EC03041602C00A577DE070061A40998CA7820004502EE00089329603C800915502C0A6F00D6A6EE30006509745480F4F6D0A6B02A013700F9D2D92E0032FBD26B0124DB3235F40675
310
00A30696E2B17F1F00C7F712A35E9BF401E27401BB02142F701840BEE58567E7770480833E00D9CAD151003013807A055864573681120066A931FA02A8F6016D1D6264E2302C9EEE0AE08B072B5059011B261425E0E503AA8DA0A702220030018003009A19801C68F70350A980A69AF3080061DEBA9F0984CB8791EF02C9DD
310
55DDCE0A201A5E465A8187AFE577865B1680DA14CE0148043C3B435D00704136900140385DB433807CE7C6BE006002902A4070838E0082CD7B0B3E205E399ADE667B1114F602AB07C08D16BB47852B57D2AA70D37D78D207940100DAAE3AFE00BCFB43E94644304584D8BC728D8F2FC504EB1BDA927EAA00309EF0CB0094C6
310
50E3DAE162F77A3200341600B752F36A008AC3112706D034498A297F9C0A80B4B75809806802D9E69A1703205694A102409707C0CD8B2B6FD3B20080205C036D24EF9A00408006A01DC34100E5B0A78F0990BC4592C3784637057801A0D2BC150F005F9D2D6D0320BFED32A2D5928BE2093362D0D80660F8195BCACECDEC4B
310
10E91F05A006ADFCBBAFA581B12900F88BBE37006943741700FE127007206F3AEB00A08304BC01BCF740E906C05D0220EFAA2EFC1754657001E02F01D04CED80AF00686C36506D2D40E402C0DB06AA1F579C56D41F80BB04D0F80BDF03E0BED6CF1D675F00DE12F07B5C7D43FD7200283877B41F806977CC086634819604B0
310
3B29D892794D00C901581D00CC4A6094139C1740752A5B014C4AE006300E00CD0980DDFCBF13004C096094133CF31E8A4E00E80680C501D00D008B03A01BC0F200B038003ADBE400B403B09CF0D98870A08C9A00403CEADE83C0D80D992B01E4673723C5E090F82901A445CDECE6209F7B3A715D620250254A0F057F75E970
310
D5747925F9159DF0C30A10F7792EBFC0889A3101B4253F199DEF0A00B09EBADB04A05D53810CCE6B0289C793E6E1414B7D9D02AA17C3113F466B9DE4583872330540E959AA7D000C6E0A5602C8E71FA70D81F44864502D80A871887D703358F1169EFCB22FEF4857F8CAC9A32613A07DD6DD440008A403C8D60B060B412B15
310
F01E6EEC04205E89B29F74064A006C7BCE7C16F0EC27A3B1008807400D0082D23839008A17469901C437BD016826403613100010CDAD00C19FEDCBB4B98C9B7D40A302141F908EC7A333806D0208E44FC94E50F001A362305F6E0126D7B190D8EA41D11BC00DE0067003B8015C02C0CAD70B00AD7CBD002C7EFD036649CDC6
310
055B14440000000049454E44AE426082
  0
ENDSEC
  0
EOF
