  0
SECTION
  2
HEADER
  9
$ACADVER
  1
AC1015
  9
$ACADMAINTVER
 70
    20
  9
$DWGCODEPAGE
  3
ANSI_1252
  9
$INSBASE
 10
0.0
 20
0.0
 30
0.0
  9
$EXTMIN
 10
-2609262545.695595
 20
-2523174248.06629
 30
0.0
  9
$EXTMAX
 10
123641.9477995889
 20
-39563.46773731272
 30
2400.0
  9
$LIMMIN
 10
0.0
 20
0.0
  9
$LIMMAX
 10
210.0
 20
297.0
  9
$ORTHOMODE
 70
     0
  9
$REGENMODE
 70
     1
  9
$FILLMODE
 70
     1
  9
$QTEXTMODE
 70
     0
  9
$MIRRTEXT
 70
     0
  9
$LTSCALE
 40
1.0
  9
$ATTMODE
 70
     1
  9
$TEXTSIZE
 40
150.0
  9
$TRACEWID
 40
1.0
  9
$TEXTSTYLE
  7
100
  9
$CLAYER
  8
ESF_Spielgeraet
  9
$CELTYPE
  6
ByLayer
  9
$CECOLOR
 62
     7
  9
$CELTSCALE
 40
1.0
  9
$DISPSILH
 70
     0
  9
$DIMSCALE
 40
1.0
  9
$DIMASZ
 40
1.0
  9
$DIMEXO
 40
1.0
  9
$DIMDLI
 40
1.0
  9
$DIMRND
 40
0.0
  9
$DIMDLE
 40
3.0
  9
$DIMEXE
 40
1.0
  9
$DIMTP
 40
0.0
  9
$DIMTM
 40
0.0
  9
$DIMTXT
 40
1.0
  9
$DIMCEN
 40
1.0
  9
$DIMTSZ
 40
0.0
  9
$DIMTOL
 70
     0
  9
$DIMLIM
 70
     0
  9
$DIMTIH
 70
     0
  9
$DIMTOH
 70
     0
  9
$DIMSE1
 70
     0
  9
$DIMSE2
 70
     0
  9
$DIMTAD
 70
     1
  9
$DIMZIN
 70
     8
  9
$DIMBLK
  1

  9
$DIMASO
 70
     1
  9
$DIMSHO
 70
     1
  9
$DIMPOST
  1

  9
$DIMAPOST
  1

  9
$DIMALT
 70
     0
  9
$DIMALTD
 70
     3
  9
$DIMALTF
 40
0.03937007874016
  9
$DIMLFAC
 40
1.0
  9
$DIMTOFL
 70
     1
  9
$DIMTVP
 40
0.0
  9
$DIMTIX
 70
     0
  9
$DIMSOXD
 70
     0
  9
$DIMSAH
 70
     0
  9
$DIMBLK1
  1

  9
$DIMBLK2
  1

  9
$DIMSTYLE
  2
1
  9
$DIMCLRD
 70
     0
  9
$DIMCLRE
 70
     0
  9
$DIMCLRT
 70
     0
  9
$DIMTFAC
 40
1.0
  9
$DIMGAP
 40
1.0
  9
$DIMJUST
 70
     0
  9
$DIMSD1
 70
     0
  9
$DIMSD2
 70
     0
  9
$DIMTOLJ
 70
     0
  9
$DIMTZIN
 70
     8
  9
$DIMALTZ
 70
     0
  9
$DIMALTTZ
 70
     0
  9
$DIMUPT
 70
     0
  9
$DIMDEC
 70
     2
  9
$DIMTDEC
 70
     2
  9
$DIMALTU
 70
     2
  9
$DIMALTTD
 70
     3
  9
$DIMTXSTY
  7
Standard
  9
$DIMAUNIT
 70
     0
  9
$DIMADEC
 70
     2
  9
$DIMALTRND
 40
0.0
  9
$DIMAZIN
 70
     0
  9
$DIMDSEP
 70
    44
  9
$DIMATFIT
 70
     3
  9
$DIMFRAC
 70
     0
  9
$DIMLDRBLK
  1

  9
$DIMLUNIT
 70
     2
  9
$DIMLWD
 70
    -2
  9
$DIMLWE
 70
    -2
  9
$DIMTMOVE
 70
     0
  9
$LUNITS
 70
     2
  9
$LUPREC
 70
     2
  9
$SKETCHINC
 40
1.0
  9
$FILLETRAD
 40
0.0
  9
$AUNITS
 70
     0
  9
$AUPREC
 70
     0
  9
$MENU
  1
.
  9
$ELEVATION
 40
0.0
  9
$PELEVATION
 40
0.0
  9
$THICKNESS
 40
0.0
  9
$LIMCHECK
 70
     0
  9
$CHAMFERA
 40
0.0
  9
$CHAMFERB
 40
0.0
  9
$CHAMFERC
 40
0.0
  9
$CHAMFERD
 40
0.0
  9
$SKPOLY
 70
     0
  9
$TDCREATE
 40
2453325.357163981
  9
$TDUCREATE
 40
2453325.315497315
  9
$TDUPDATE
 40
2458164.430036100
  9
$TDUUPDATE
 40
2458164.388369433
  9
$TDINDWG
 40
4.5956814699
  9
$TDUSRTIMER
 40
4.5956796528
  9
$USRTIMER
 70
     1
  9
$ANGBASE
 50
0.0
  9
$ANGDIR
 70
     0
  9
$PDMODE
 70
     0
  9
$PDSIZE
 40
0.0
  9
$PLINEWID
 40
0.0
  9
$SPLFRAME
 70
     0
  9
$SPLINETYPE
 70
     6
  9
$SPLINESEGS
 70
     8
  9
$HANDSEED
  5
86DB9
  9
$SURFTAB1
 70
     6
  9
$SURFTAB2
 70
     6
  9
$SURFTYPE
 70
     6
  9
$SURFU
 70
     6
  9
$SURFV
 70
     6
  9
$UCSBASE
  2

  9
$UCSNAME
  2

  9
$UCSORG
 10
0.0
 20
0.0
 30
0.0
  9
$UCSXDIR
 10
1.0
 20
0.0
 30
0.0
  9
$UCSYDIR
 10
0.0
 20
1.0
 30
0.0
  9
$UCSORTHOREF
  2

  9
$UCSORTHOVIEW
 70
     0
  9
$UCSORGTOP
 10
0.0
 20
0.0
 30
0.0
  9
$UCSORGBOTTOM
 10
0.0
 20
0.0
 30
0.0
  9
$UCSORGLEFT
 10
0.0
 20
0.0
 30
0.0
  9
$UCSORGRIGHT
 10
0.0
 20
0.0
 30
0.0
  9
$UCSORGFRONT
 10
0.0
 20
0.0
 30
0.0
  9
$UCSORGBACK
 10
0.0
 20
0.0
 30
0.0
  9
$PUCSBASE
  2

  9
$PUCSNAME
  2

  9
$PUCSORG
 10
0.0
 20
0.0
 30
0.0
  9
$PUCSXDIR
 10
1.0
 20
0.0
 30
0.0
  9
$PUCSYDIR
 10
0.0
 20
1.0
 30
0.0
  9
$PUCSORTHOREF
  2

  9
$PUCSORTHOVIEW
 70
     0
  9
$PUCSORGTOP
 10
0.0
 20
0.0
 30
0.0
  9
$PUCSORGBOTTOM
 10
0.0
 20
0.0
 30
0.0
  9
$PUCSORGLEFT
 10
0.0
 20
0.0
 30
0.0
  9
$PUCSORGRIGHT
 10
0.0
 20
0.0
 30
0.0
  9
$PUCSORGFRONT
 10
0.0
 20
0.0
 30
0.0
  9
$PUCSORGBACK
 10
0.0
 20
0.0
 30
0.0
  9
$USERI1
 70
     0
  9
$USERI2
 70
     0
  9
$USERI3
 70
     0
  9
$USERI4
 70
     0
  9
$USERI5
 70
     0
  9
$USERR1
 40
0.0
  9
$USERR2
 40
0.0
  9
$USERR3
 40
0.0
  9
$USERR4
 40
0.0
  9
$USERR5
 40
0.0
  9
$WORLDVIEW
 70
     1
  9
$SHADEDGE
 70
     3
  9
$SHADEDIF
 70
    70
  9
$TILEMODE
 70
     1
  9
$MAXACTVP
 70
    64
  9
$PINSBASE
 10
0.0
 20
0.0
 30
0.0
  9
$PLIMCHECK
 70
     0
  9
$PEXTMIN
 10
0.7612936004385347
 20
0.7559578922353012
 30
0.0
  9
$PEXTMAX
 10
832.7911693029752
 20
585.9562928245312
 30
0.0
  9
$PLIMMIN
 10
-3.757080078125
 20
-3.757083415985106
  9
$PLIMMAX
 10
837.2369384765624
 20
590.2219204902649
  9
$UNITMODE
 70
     0
  9
$VISRETAIN
 70
     1
  9
$PLINEGEN
 70
     0
  9
$PSLTSCALE
 70
     1
  9
$TREEDEPTH
 70
  3020
  9
$CMLSTYLE
  2
Standard
  9
$CMLJUST
 70
     0
  9
$CMLSCALE
 40
20.0
  9
$PROXYGRAPHICS
 70
     1
  9
$MEASUREMENT
 70
     1
  9
$CELWEIGHT
370
    -1
  9
$ENDCAPS
280
     0
  9
$JOINSTYLE
280
     0
  9
$LWDISPLAY
290
     0
  9
$INSUNITS
 70
     4
  9
$HYPERLINKBASE
  1

  9
$STYLESHEET
  1
MONOCHROME.CTB
  9
$XEDIT
290
     1
  9
$CEPSNTYPE
380
     0
  9
$PSTYLEMODE
290
     1
  9
$FINGERPRINTGUID
  2
{84C6DA88-BD7E-44D7-AD8D-086D7E86F6BE}
  9
$VERSIONGUID
  2
{A9ACCFFC-C572-4A7B-8D3C-F1E3E3F7C32D}
  9
$EXTNAMES
290
     1
  9
$PSVPSCALE
 40
0.0
  9
$OLESTARTUP
290
     0
  0
ENDSEC
  0
SECTION
  2
CLASSES
  0
CLASS
  1
ACDBDICTIONARYWDFLT
  2
AcDbDictionaryWithDefault
  3
ObjectDBX Classes
 90
        0
280
     0
281
     0
  0
CLASS
  1
TABLESTYLE
  2
AcDbTableStyle
  3
ObjectDBX Classes
 90
     4095
280
     0
281
     0
  0
CLASS
  1
DICTIONARYVAR
  2
AcDbDictionaryVar
  3
ObjectDBX Classes
 90
        0
280
     0
281
     0
  0
CLASS
  1
ACDBPLACEHOLDER
  2
AcDbPlaceHolder
  3
ObjectDBX Classes
 90
        0
280
     0
281
     0
  0
CLASS
  1
LAYOUT
  2
AcDbLayout
  3
ObjectDBX Classes
 90
        0
280
     0
281
     0
  0
CLASS
  1
DIMASSOC
  2
AcDbDimAssoc
  3
"AcDbDimAssoc|Product Desc:     AcDim ARX App For Dimension|Company:          Autodesk, Inc.|WEB Address:      www.autodesk.com"
 90
        0
280
     0
281
     0
  0
CLASS
  1
SORTENTSTABLE
  2
AcDbSortentsTable
  3
ObjectDBX Classes
 90
        0
280
     0
281
     0
  0
CLASS
  1
MATERIAL
  2
AcDbMaterial
  3
ObjectDBX Classes
 90
     1153
280
     0
281
     0
  0
CLASS
  1
VISUALSTYLE
  2
AcDbVisualStyle
  3
ObjectDBX Classes
 90
     4095
280
     0
281
     0
  0
CLASS
  1
ACAD_EVALUATION_GRAPH
  2
AcDbEvalGraph
  3
ObjectDBX Classes
 90
     1153
280
     0
281
     0
  0
CLASS
  1
ACAECUSTOBJ
  2
AcAeEditorObj
  3
AcAeEditorObj
 90
    33792
280
     0
281
     0
  0
CLASS
  1
ACDB_DYNAMICBLOCKPURGEPREVENTER_VERSION
  2
AcDbDynamicBlockPurgePreventer
  3
ObjectDBX Classes
 90
    33921
280
     0
281
     0
  0
CLASS
  1
SCALE
  2
AcDbScale
  3
ObjectDBX Classes
 90
     1153
280
     0
281
     0
  0
CLASS
  1
MLEADERSTYLE
  2
AcDbMLeaderStyle
  3
ACDB_MLEADERSTYLE_CLASS
 90
     4095
280
     0
281
     0
  0
CLASS
  1
CELLSTYLEMAP
  2
AcDbCellStyleMap
  3
ObjectDBX Classes
 90
     1152
280
     0
281
     0
  0
CLASS
  1
MULTILEADER
  2
AcDbMLeader
  3
ACDB_MLEADER_CLASS
 90
    33793
280
     0
281
     1
  0
CLASS
  1
AEC_REFEDIT_STATUS_TRACKER
  2
AecDbRefEditStatusTracker
  3
AecArchBase70|Product Desc: Autodesk Architectural Desktop 2007 |Company: Autodesk,Inc. |WEB Address: www.autodesk.com
 90
    32897
280
     0
281
     0
  0
CLASS
  1
NPOCOLLECTION
  2
AcDbImpNonPersistentObjectsCollection
  3
ObjectDBX Classes
 90
     1153
280
     0
281
     0
  0
CLASS
  1
IMAGEDEF
  2
AcDbRasterImageDef
  3
ISM
 90
    32768
280
     0
281
     0
  0
CLASS
  1
RASTERVARIABLES
  2
AcDbRasterVariables
  3
ISM
 90
        0
280
     0
281
     0
  0
CLASS
  1
IMAGEDEF_REACTOR
  2
AcDbRasterImageDefReactor
  3
ISM
 90
    32769
280
     0
281
     0
  0
CLASS
  1
IMAGE
  2
AcDbRasterImage
  3
ISM
 90
    34943
280
     0
281
     1
  0
CLASS
  1
ACDB_BLOCKREPRESENTATION_DATA
  2
AcDbBlockRepresentationData
  3
ObjectDBX Classes
 90
    33921
280
     0
281
     0
  0
CLASS
  1
SOLID_BACKGROUND
  2
AcDbSolidBackground
  3
SCENEOE
 90
    36863
280
     0
281
     0
  0
CLASS
  1
EXACXREFPANELOBJECT
  2
ExAcXREFPanelObject
  3
EXAC_ESW
 90
     1025
280
     0
281
     0
  0
CLASS
  1
WIPEOUT
  2
AcDbWipeout
  3
WipeOut|Product Desc: Object Enabler for WipeOut entity | Company: Autodesk, Inc. | WEB Address: www.autodesk.com
 90
    34943
280
     0
281
     1
  0
CLASS
  1
WIPEOUTVARIABLES
  2
AcDbWipeoutVariables
  3
"WipeOut|Product Desc:     WipeOut Dbx Application|Company:          Autodesk, Inc.|WEB Address:      www.autodesk.com"
 90
        0
280
     0
281
     0
  0
CLASS
  1
ARC_DIMENSION
  2
AcDbArcDimension
  3
ObjectDBX Classes
 90
    33793
280
     0
281
     1
  0
CLASS
  1
PDFDEFINITION
  2
AcDbPdfDefinition
  3
ObjectDBX Classes
 90
    33921
280
     0
281
     0
  0
CLASS
  1
PDFUNDERLAY
  2
AcDbPdfReference
  3
ObjectDBX Classes
 90
    36863
280
     0
281
     1
  0
CLASS
  1
ACDBSECTIONVIEWSTYLE
  2
AcDbSectionViewStyle
  3
ObjectDBX Classes
 90
     1025
280
     0
281
     0
  0
CLASS
  1
ACDBDETAILVIEWSTYLE
  2
AcDbDetailViewStyle
  3
ObjectDBX Classes
 90
     1025
280
     0
281
     0
  0
CLASS
  1
BREAKDATA
  2
AcDbBreakData
  3
ObjectDBX Classes
 90
    33792
280
     0
281
     0
  0
CLASS
  1
ACME_DOCUMENT
  2
AcMeDbDoc
  3
AcMeServices
 90
     1024
280
     0
281
     0
  0
CLASS
  1
AMGSETTINGSOBJ
  2
AmgSettingsObj
  3
"AcadM|Product Description: AutoCAD Mechanical|Company: Autodesk, Inc."
 90
     1024
280
     0
281
     0
  0
CLASS
  1
ACMESCOPE
  2
AcMeScope
  3
AcMeServices
 90
     1024
280
     0
281
     0
  0
CLASS
  1
ACMECOMMANDHISTORY
  2
AcMeCommandHistory
  3
AcMeServices
 90
     1024
280
     0
281
     0
  0
CLASS
  1
ACIMSYSVARMAN
  2
AcImSysVarManager
  3
AcMeServices
 90
     1024
280
     0
281
     0
  0
CLASS
  1
ACIMINTSYSVAR
  2
AcImIntSysVar
  3
AcMeServices
 90
     1024
280
     0
281
     0
  0
CLASS
  1
ACMESTATEMGR
  2
AcMeStateMgr
  3
AcMeServices
 90
     1024
280
     0
281
     0
  0
CLASS
  1
ACDBENTITYCACHE
  2
AcMeEntityCache
  3
AcMeServices
 90
     1024
280
     0
281
     0
  0
CLASS
  1
ACGREFMASTER
  2
AcGrefMaster
  3
AcAttribServices
 90
     1024
280
     0
281
     0
  0
CLASS
  1
ACME_DATABASE
  2
AcMeDbDatabase
  3
AcMeServices
 90
     1024
280
     0
281
     0
  0
CLASS
  1
ACRFINSADJUSTERMGR
  2
AcRfInsAdjusterMgr
  3
AcMeServices
 90
     1024
280
     0
281
     0
  0
CLASS
  1
ACGREFACADMASTER
  2
AcGrefacadMaster
  3
AcGrefServices
 90
     1024
280
     0
281
     0
  0
CLASS
  1
AMDTMENUSTATEMGR
  2
AmdtMenuStateMgr
  3
McadcomServices
 90
     1024
280
     0
281
     0
  0
CLASS
  1
AMDTMCOMMENUSTATE
  2
AmdtMcomMenuState
  3
McadcomServices
 90
     1024
280
     0
281
     0
  0
CLASS
  1
AMIMASTER
  2
AmiMaster
  3
AmiServices
 90
     1024
280
     0
281
     0
  0
CLASS
  1
MAPIAMMOUDLE
  2
MApiAmModule
  3
MApiAmServices
 90
     1024
280
     0
281
     0
  0
CLASS
  1
ACIMSTRSYSVAR
  2
AcImStrSysVar
  3
AcMeServices
 90
     1024
280
     0
281
     0
  0
CLASS
  1
AMDTAMMENUSTATE
  2
AmdtAmMenuState
  3
DesignerAssemblies
 90
     1024
280
     0
281
     0
  0
CLASS
  1
ACAMPROJECT
  2
AcAmProject
  3
DesignerAssemblies
 90
     1024
280
     0
281
     0
  0
CLASS
  1
ACAMGRCOMPDEF
  2
AcAmGrCompDef
  3
DesignerAssemblies
 90
     1024
280
     0
281
     0
  0
CLASS
  1
ACAMCOMPDEF
  2
AcAmCompDef
  3
DesignerAssemblies
 90
     1024
280
     0
281
     0
  0
CLASS
  1
ACAMCOMPDEFMGR
  2
AcAmCompDefMgr
  3
DesignerAssemblies
 90
     1024
280
     0
281
     0
  0
CLASS
  1
AMCONTEXTMGR
  2
AcAmContextMgr
  3
DesignerAssemblies
 90
     1024
280
     0
281
     0
  0
CLASS
  1
ACAMCONTEXTMODELER
  2
AcAmContextModeler
  3
DesignerAssemblies
 90
     1024
280
     0
281
     0
  0
CLASS
  1
ACMDATADICTIONARY
  2
AcmDataDictionary
  3
"AcmSymBB|Product Description: AutoCAD Mechanical|Company: Autodesk, Inc."
 90
     1024
280
     0
281
     0
  0
CLASS
  1
ACAMGRCOMPDEFSET
  2
AcAmGrCompDefSet
  3
DesignerAssemblies
 90
     1024
280
     0
281
     0
  0
CLASS
  1
AMDTBROWSERDBTAB
  2
AmdtBrowserDbTab
  3
McadcomServices
 90
     1024
280
     0
281
     0
  0
CLASS
  1
CBROWSERAPPOBJECT
  2
CBrowserAppObject
  3
McadcomServices
 90
     1024
280
     0
281
     0
  0
CLASS
  1
DM_PLACEHOLDER
  2
AcDmSelsetPlaceholder
  3
McadcomServices
 90
     1024
280
     0
281
     0
  0
CLASS
  1
ACMSTANDARDDIN
  2
AcmStandardDIN
  3
"Amdt_StdImp|Product Description: AutoCAD Mechanical|Company: Autodesk, Inc."
 90
     1024
280
     0
281
     0
  0
CLASS
  1
AMDTEDGESTANDARDDIN13715
  2
AmdtEdgeStdDIN13715
  3
"Amdt_StdImp|Product Description: AutoCAD Mechanical|Company: Autodesk, Inc."
 90
     1024
280
     0
281
     0
  0
CLASS
  1
ACMSURFSTANDARDDIN2002
  2
AcmSurfTextStdDIN2002
  3
"Amdt_StdImp|Product Description: AutoCAD Mechanical|Company: Autodesk, Inc."
 90
     1024
280
     0
281
     0
  0
CLASS
  1
ACMFCFSTANDARDDIN2008
  2
AcmFCFStdDIN2008
  3
"Amdt_StdImp|Product Description: AutoCAD Mechanical|Company: Autodesk, Inc."
 90
     1024
280
     0
281
     0
  0
CLASS
  1
ACMWELDSTANDARDDIN
  2
AcmWeldingStdDIN
  3
"Amdt_StdImp|Product Description: AutoCAD Mechanical|Company: Autodesk, Inc."
 90
     1024
280
     0
281
     0
  0
CLASS
  1
ACMIDSTANDARDDIN2012
  2
AcmIdStdDIN2012
  3
"Amdt_StdImp|Product Description: AutoCAD Mechanical|Company: Autodesk, Inc."
 90
     1024
280
     0
281
     0
  0
CLASS
  1
ACMDATUMSTANDARDDIN2008
  2
AcmDatumStdDIN2008
  3
"Amdt_StdImp|Product Description: AutoCAD Mechanical|Company: Autodesk, Inc."
 90
     1024
280
     0
281
     0
  0
CLASS
  1
ACMBOMSTANDARDDIN
  2
AcmBOMStdDIN
  3
"Amdt_StdImp|Product Description: AutoCAD Mechanical|Company: Autodesk, Inc."
 90
     1024
280
     0
281
     0
  0
CLASS
  1
ACMDETAILSTANDARDDIN
  2
AmdtDetailSymStdDIN
  3
"Amdt_StdImp|Product Description: AutoCAD Mechanical|Company: Autodesk, Inc."
 90
     1024
280
     0
281
     0
  0
CLASS
  1
ACMSECTIONSTANDARDDIN
  2
AmdtSectionSymStdDIN
  3
"Amdt_StdImp|Product Description: AutoCAD Mechanical|Company: Autodesk, Inc."
 90
     1024
280
     0
281
     0
  0
CLASS
  1
ACMCENTERLINESTANDARDDIN
  2
AmdtCenterLineStdDIN
  3
"Amdt_StdImp|Product Description: AutoCAD Mechanical|Company: Autodesk, Inc."
 90
     1024
280
     0
281
     0
  0
CLASS
  1
ACMTHREADLINESTANDARDDIN
  2
AmdtThreadLineStdDIN
  3
"Amdt_StdImp|Product Description: AutoCAD Mechanical|Company: Autodesk, Inc."
 90
     1024
280
     0
281
     0
  0
CLASS
  1
ACMNOTESTANDARDDIN
  2
AmdtNoteStdDIN
  3
"Amdt_StdImp|Product Description: AutoCAD Mechanical|Company: Autodesk, Inc."
 90
     1024
280
     0
281
     0
  0
CLASS
  1
ACMTAPERSTANDARDDIN
  2
AcmTaperStdDIN
  3
"Amdt_StdImp|Product Description: AutoCAD Mechanical|Company: Autodesk, Inc."
 90
     1024
280
     0
281
     0
  0
CLASS
  1
ACMANOOTATIONVIEWSTANDARDDIN
  2
AmdtAnViewStdDIN
  3
"Amdt_StdImp|Product Description: AutoCAD Mechanical|Company: Autodesk, Inc."
 90
     1024
280
     0
281
     0
  0
CLASS
  1
ACAMGLAYSTD
  2
AcAmgLayStd
  3
"AmgLay|Product Description: AutoCAD Mechanical|Company: Autodesk, Inc."
 90
     1024
280
     0
281
     0
  0
CLASS
  1
ACAMGDIMSTD
  2
AcAmgDimStd
  3
"AmgDim|Product Description: AutoCAD Mechanical|Company: Autodesk, Inc."
 90
     1024
280
     0
281
     0
  0
CLASS
  1
AMGOBJPROPCFG
  2
AmgObjPropCfg
  3
"AmgLay|Product Description: AutoCAD Mechanical|Company: Autodesk, Inc."
 90
     1024
280
     0
281
     0
  0
CLASS
  1
ACAMGHOLECHARTSTDDIN
  2
AcAmgHoleChartStdDIN
  3
AmgDim|Product Description: AutoCAD Mechanical|Company: Autodesk, Inc.
 90
     1024
280
     0
281
     0
  0
CLASS
  1
ACAMGTITLESTD
  2
AcAmgTitleStd
  3
"AmgTitle|Product Description: AutoCAD Mechanical|Company: Autodesk, Inc."
 90
     1024
280
     0
281
     0
  0
CLASS
  1
ACMSECTIONSTANDARDCUSTOM
  2
AmdtSectionSymStdCustom
  3
"Amdt_StdImp|Product Description: AutoCAD Mechanical|Company: Autodesk, Inc."
 90
     1024
280
     0
281
     0
  0
CLASS
  1
ACMDETAILTANDARDCUSTOM
  2
AmdtDetailSymStdCustom
  3
"Amdt_StdImp|Product Description: AutoCAD Mechanical|Company: Autodesk, Inc."
 90
     1024
280
     0
281
     0
  0
CLASS
  1
FIELD
  2
AcDbField
  3
ObjectDBX Classes
 90
     1152
280
     0
281
     0
  0
CLASS
  1
FIELDLIST
  2
AcDbFieldList
  3
ObjectDBX Classes
 90
     1152
280
     0
281
     0
  0
CLASS
  1
AMDTNOTETEMPLATEDB
  2
AmdtNoteTemplateDB
  3
AcmSymBB|Product Description: AutoCAD Mechanical|Company: Autodesk, Inc.
 90
     1024
280
     0
281
     0
  0
CLASS
  1
ACAMGFILTERDAT
  2
AcAmgFilterDat
  3
"AcadM|Product Description: AutoCAD Mechanical|Company: Autodesk, Inc."
 90
    33792
280
     0
281
     0
  0
CLASS
  1
DBCOLOR
  2
AcDbColor
  3
ObjectDBX Classes
 90
        0
280
     0
281
     0
  0
CLASS
  1
CAMSSTRUCTBTNSTATE
  2
StructBtnState
  3
DesignerAssemblies
 90
    33792
280
     0
281
     0
  0
CLASS
  1
ACMDATAENTRYBLOCK
  2
AcmDataEntryBlock
  3
AcmSymBB|Product Description: AutoCAD Mechanical|Company: Autodesk, Inc.
 90
    33792
280
     0
281
     0
  0
CLASS
  1
ACDBASSOCACTION
  2
AcDbAssocAction
  3
ObjectDBX Classes
 90
    33793
280
     0
281
     0
  0
CLASS
  1
ACDBASSOCARRAYACTIONBODY
  2
AcDbAssocArrayActionBody
  3
ObjectDBX Classes
 90
    33793
280
     0
281
     0
  0
CLASS
  1
ACDBASSOCDEPENDENCY
  2
AcDbAssocDependency
  3
ObjectDBX Classes
 90
    33793
280
     0
281
     0
  0
CLASS
  1
ACDBASSOCVERTEXACTIONPARAM
  2
AcDbAssocVertexActionParam
  3
ObjectDBX Classes
 90
    33793
280
     0
281
     0
  0
CLASS
  1
ACDBASSOCEDGEACTIONPARAM
  2
AcDbAssocEdgeActionParam
  3
ObjectDBX Classes
 90
    33793
280
     0
281
     0
  0
CLASS
  1
ACDBASSOCARRAYPATHPARAMETERS
  2
AcDbAssocArrayPathParameters
  3
ObjectDBX Classes
 90
    33793
280
     0
281
     0
  0
CLASS
  1
ACDBASSOCNETWORK
  2
AcDbAssocNetwork
  3
ObjectDBX Classes
 90
    33793
280
     0
281
     0
  0
CLASS
  1
ACSH_HISTORY_CLASS
  2
AcDbShHistory
  3
ObjectDBX Classes
 90
     1153
280
     0
281
     0
  0
CLASS
  1
ACSH_EXTRUSION_CLASS
  2
AcDbShExtrusion
  3
ObjectDBX Classes
 90
     1153
280
     0
281
     0
  0
ENDSEC
  0
SECTION
  2
TABLES
  0
TABLE
  2
VPORT
  5
8
102
{ACAD_XDICTIONARY
360
592E
102
}
330
0
100
AcDbSymbolTable
 70
     1
  0
VPORT
  5
1D8D
330
8
100
AcDbSymbolTableRecord
100
AcDbViewportTableRecord
  2
*Active
 70
     0
 10
0.0
 20
0.0
 11
1.0
 21
1.0
 12
-2609262507.329744
 22
-2523174249.703689
 13
0.0
 23
0.0
 14
10.0
 24
10.0
 15
10.0
 25
10.0
 16
0.0
 26
0.0
 36
1.0
 17
0.0
 27
0.0
 37
0.0
 40
73.35612964630127
 41
1.749103942652329
 42
50.0
 43
0.0
 44
0.0
 50
0.0
 51
0.0
 71
     0
 72
  1000
 73
     1
 74
     3
 75
     0
 76
     0
 77
     0
 78
     0
281
     0
 65
     0
110
0.0
120
0.0
130
0.0
111
1.0
121
0.0
131
0.0
112
0.0
122
1.0
132
0.0
 79
     0
146
0.0
1001
ACAD_NAV_VCDISPLAY
1070
     3
  0
ENDTAB
  0
TABLE
  2
LTYPE
  5
5
330
0
100
AcDbSymbolTable
 70
    15
  0
LTYPE
  5
14
330
5
100
AcDbSymbolTableRecord
100
AcDbLinetypeTableRecord
  2
ByBlock
 70
     0
  3

 72
    65
 73
     0
 40
0.0
  0
LTYPE
  5
15
330
5
100
AcDbSymbolTableRecord
100
AcDbLinetypeTableRecord
  2
ByLayer
 70
     0
  3

 72
    65
 73
     0
 40
0.0
  0
LTYPE
  5
16
330
5
100
AcDbSymbolTableRecord
100
AcDbLinetypeTableRecord
  2
Continuous
 70
     0
  3
Solid line
 72
    65
 73
     0
 40
0.0
  0
LTYPE
  5
5424D
330
5
100
AcDbSymbolTableRecord
100
AcDbLinetypeTableRecord
  2
Amconstr
 70
     0
  3
_______________________
 72
    65
 73
     2
 40
9999.0
 49
9999.0
 74
     0
 49
0.0
 74
     0
  0
LTYPE
  5
5424E
330
5
100
AcDbSymbolTableRecord
100
AcDbLinetypeTableRecord
  2
Amzigzag
 70
     0
  3
/\/-/\/-/\/-/\/-/\/-/\/
 72
    65
 73
     2
 40
11.0001
 49
0.0001
 74
     4
 75
   136
340
54269
 46
0.04
 50
0.0
 44
0.0
 45
0.0
 49
-11.0
 74
     0
  0
LTYPE
  5
5424F
330
5
100
AcDbSymbolTableRecord
100
AcDbLinetypeTableRecord
  2
AM_DIN_F_W050
 70
     0
  3
__ __ __ __ __ __ __ __ __ __ __ __ __ __ __
 72
    65
 73
     2
 40
6.25
 49
4.75
 74
     0
 49
-1.5
 74
     0
  0
LTYPE
  5
54250
330
5
100
AcDbSymbolTableRecord
100
AcDbLinetypeTableRecord
  2
AM_DIN_G_W050
 70
     0
  3
____ . ____ . ____ . ____ . ____ . ____ . ____
 72
    65
 73
     4
 40
13.75
 49
9.75
 74
     0
 49
-1.5
 74
     0
 49
1.0
 74
     0
 49
-1.5
 74
     0
  0
LTYPE
  5
54251
330
5
100
AcDbSymbolTableRecord
100
AcDbLinetypeTableRecord
  2
AM_DIN_K_W050
 70
     0
  3
_____ . . _____ . . _____ . . ____ .. ____
 72
    65
 73
     6
 40
16.25
 49
9.75
 74
     0
 49
-1.5
 74
     0
 49
1.0
 74
     0
 49
-1.5
 74
     0
 49
1.0
 74
     0
 49
-1.5
 74
     0
  0
LTYPE
  5
54252
330
5
100
AcDbSymbolTableRecord
100
AcDbLinetypeTableRecord
  2
AM_DIN_G_W050x2
 70
     0
  3
__ . __ . __ . __ . __ . __
 72
    65
 73
     4
 40
6.875
 49
4.75
 74
     0
 49
-0.875
 74
     0
 49
0.375
 74
     0
 49
-0.875
 74
     0
  0
LTYPE
  5
54253
330
5
100
AcDbSymbolTableRecord
100
AcDbLinetypeTableRecord
  2
AM_DIN_F_W050x2
 70
     0
  3
 _ _ _ _ _ _ _ _ _ _ _ _
 72
    65
 73
     2
 40
3.125
 49
2.25
 74
     0
 49
-0.875
 74
     0
  0
LTYPE
  5
54254
330
5
100
AcDbSymbolTableRecord
100
AcDbLinetypeTableRecord
  2
ACDINWELD
 70
     0
  3
_ _ _ _ _
 72
    65
 73
     2
 40
2.0
 49
2.0
 74
     0
 49
-1.0
 74
     0
  0
LTYPE
  5
54255
330
5
100
AcDbSymbolTableRecord
100
AcDbLinetypeTableRecord
  2
ACDINTGL
 70
     0
  3
_ _ _ _ _
 72
    65
 73
     2
 40
3.0
 49
2.0
 74
     0
 49
-1.0
 74
     0
  0
LTYPE
  5
54256
330
5
100
AcDbSymbolTableRecord
100
AcDbLinetypeTableRecord
  2
ACDINTGB
 70
     0
  3
__ . . __ . .
 72
    65
 73
     6
 40
9.0
 49
4.0
 74
     0
 49
-1.0
 74
     0
 49
1.0
 74
     0
 49
-1.0
 74
     0
 49
1.0
 74
     0
 49
-1.0
 74
     0
  0
LTYPE
  5
8686D
330
5
100
AcDbSymbolTableRecord
100
AcDbLinetypeTableRecord
  2
HIDDEN2
 70
     0
  3
Hidden (.5x) _ _ _ _ _ _ _ _ _ _ _ _ _ _ _ _ _
 72
    65
 73
     2
 40
4.762499999999998
 49
3.174999999999998
 74
     0
 49
-1.587499999999999
 74
     0
  0
LTYPE
  5
86CD8
330
5
100
AcDbSymbolTableRecord
100
AcDbLinetypeTableRecord
  2
HIDDEN
 70
     0
  3
Hidden __ __ __ __ __ __ __ __ __ __ __ __ __ __
 72
    65
 73
     2
 40
9.525
 49
6.349999999999999
 74
     0
 49
-3.174999999999999
 74
     0
  0
LTYPE
  5
86CD9
330
5
100
AcDbSymbolTableRecord
100
AcDbLinetypeTableRecord
  2
PHANTOM2
 70
     0
  3
Phantom (.5x) ___ _ _ ___ _ _ ___ _ _ ___ _ _
 72
    65
 73
     6
 40
31.75
 49
15.875
 74
     0
 49
-3.174999999999999
 74
     0
 49
3.174999999999999
 74
     0
 49
-3.174999999999999
 74
     0
 49
3.174999999999999
 74
     0
 49
-3.174999999999999
 74
     0
  0
LTYPE
  5
86CDA
330
5
100
AcDbSymbolTableRecord
100
AcDbLinetypeTableRecord
  2
CENTER
 70
     0
  3
Center ____ _ ____ _ ____ _ ____ _ ____ _ ____
 72
    65
 73
     4
 40
50.8
 49
31.75
 74
     0
 49
-6.349999999999999
 74
     0
 49
6.349999999999999
 74
     0
 49
-6.349999999999999
 74
     0
  0
ENDTAB
  0
TABLE
  2
LAYER
  5
2
102
{ACAD_XDICTIONARY
360
48
102
}
330
0
100
AcDbSymbolTable
 70
    11
  0
LAYER
  5
10
102
{ACAD_XDICTIONARY
360
253B
102
}
330
2
100
AcDbSymbolTableRecord
100
AcDbLayerTableRecord
  2
0
 70
     0
 62
     7
  6
Continuous
370
    -3
390
F
  0
LAYER
  5
3F
102
{ACAD_XDICTIONARY
360
2549
102
}
330
2
100
AcDbSymbolTableRecord
100
AcDbLayerTableRecord
  2
Kontur 18
 70
     0
 62
     1
  6
Continuous
370
    18
390
F
1001
AcAecLayerStandard
1000

1000

  0
LAYER
  5
32AF3
102
{ACAD_XDICTIONARY
360
32AF4
102
}
330
2
100
AcDbSymbolTableRecord
100
AcDbLayerTableRecord
  2
Bemaßung
 70
     0
 62
     9
  6
Continuous
370
     5
390
F
1001
AcAecLayerStandard
1000

1000

  0
LAYER
  5
517C8
102
{ACAD_XDICTIONARY
360
517C9
102
}
330
2
100
AcDbSymbolTableRecord
100
AcDbLayerTableRecord
  2
Text
 70
     0
 62
     3
  6
Continuous
370
    25
390
F
1001
AcAecLayerStandard
1000

1000

  0
LAYER
  5
53613
330
2
100
AcDbSymbolTableRecord
100
AcDbLayerTableRecord
  2
ESF_Spielgeraet
 70
     0
 62
     7
  6
Continuous
370
    15
390
F
1001
AcAecLayerStandard
1000

1000

1001
ACCMTRANSPARENCY
1071
        0
  0
LAYER
  5
84F5A
330
2
100
AcDbSymbolTableRecord
100
AcDbLayerTableRecord
  2
Defpoints
 70
     0
 62
     7
  6
Continuous
290
     0
370
    -3
390
F
  0
LAYER
  5
86870
102
{ACAD_XDICTIONARY
360
86871
102
}
330
2
100
AcDbSymbolTableRecord
100
AcDbLayerTableRecord
  2
Kontur 25
 70
     0
 62
     7
  6
Continuous
370
    25
390
F
1001
AcAecLayerStandard
1000

1000

  0
LAYER
  5
86872
102
{ACAD_XDICTIONARY
360
86873
102
}
330
2
100
AcDbSymbolTableRecord
100
AcDbLayerTableRecord
  2
Kontur 09
 70
     0
 62
     5
  6
Continuous
370
     9
390
F
  0
LAYER
  5
86874
102
{ACAD_XDICTIONARY
360
86875
102
}
330
2
100
AcDbSymbolTableRecord
100
AcDbLayerTableRecord
  2
Schraffur
 70
     0
 62
   111
  6
Continuous
370
     5
390
F
  0
LAYER
  5
86876
330
2
100
AcDbSymbolTableRecord
100
AcDbLayerTableRecord
  2
dünne Linie
 70
     0
 62
   143
  6
Continuous
370
     5
390
F
1001
AcAecLayerStandard
1000

1000

  0
LAYER
  5
86877
330
2
100
AcDbSymbolTableRecord
100
AcDbLayerTableRecord
  2
Sicherheitsbereich
 70
     0
 62
    31
  6
HIDDEN2
370
    13
390
F
1001
AcAecLayerStandard
1000

1000

1001
ACCMTRANSPARENCY
1071
        0
  0
ENDTAB
  0
TABLE
  2
STYLE
  5
3
330
0
100
AcDbSymbolTable
 70
     7
  0
STYLE
  5
11
330
3
100
AcDbSymbolTableRecord
100
AcDbTextStyleTableRecord
  2
Standard
 70
     0
 40
0.0
 41
1.0
 50
0.0
 71
     0
 42
150.0
  3
tahoma.ttf
  4

1001
ACAD
1000
Tahoma
1071
       34
  0
STYLE
  5
BA8
330
3
100
AcDbSymbolTableRecord
100
AcDbTextStyleTableRecord
  2
100
 70
     0
 40
100.0
 41
1.0
 50
0.0
 71
     0
 42
150.0
  3
tahoma.ttf
  4

1001
ACAD
1000
Tahoma
1071
       34
  0
STYLE
  5
51980
330
3
100
AcDbSymbolTableRecord
100
AcDbTextStyleTableRecord
  2
2.5
 70
     0
 40
2.5
 41
1.0
 50
0.0
 71
     0
 42
2.5
  3
arial.ttf
  4

1001
ACAD
1000
Arial
1071
       34
  0
STYLE
  5
54269
330
3
100
AcDbSymbolTableRecord
100
AcDbTextStyleTableRecord
  2

 70
     1
 40
0.0
 41
1.0
 50
0.0
 71
     0
 42
100.0
  3
genltshp.shx
  4

  0
STYLE
  5
5426A
330
3
100
AcDbSymbolTableRecord
100
AcDbTextStyleTableRecord
  2
ACDINGDT
 70
     0
 40
0.0
 41
1.0
 50
0.0
 71
     0
 42
100.0
  3
amgdt.shx
  4

  0
STYLE
  5
57949
330
3
100
AcDbSymbolTableRecord
100
AcDbTextStyleTableRecord
  2
Norm
 70
     0
 40
0.0
 41
1.0
 50
0.0
 71
     0
 42
0.2
  3
txt
  4

  0
STYLE
  5
86D16
330
3
100
AcDbSymbolTableRecord
100
AcDbTextStyleTableRecord
  2
ACDINTS
 70
     0
 40
0.0
 41
1.0
 50
0.0
 71
     0
 42
150.0
  3
isocp.shx
  4

  0
ENDTAB
  0
TABLE
  2
VIEW
  5
6
330
0
100
AcDbSymbolTable
 70
     0
  0
ENDTAB
  0
TABLE
  2
UCS
  5
7
330
0
100
AcDbSymbolTable
 70
     0
  0
ENDTAB
  0
TABLE
  2
APPID
  5
9
330
0
100
AcDbSymbolTable
 70
    42
  0
APPID
  5
12
330
9
100
AcDbSymbolTableRecord
100
AcDbRegAppTableRecord
  2
ACAD
 70
     0
  0
APPID
  5
2F
330
9
100
AcDbSymbolTableRecord
100
AcDbRegAppTableRecord
  2
ACAD_PSEXT
 70
     0
  0
APPID
  5
39
330
9
100
AcDbSymbolTableRecord
100
AcDbRegAppTableRecord
  2
AcAecLayerStandard
 70
     0
  0
APPID
  5
1DB7
330
9
100
AcDbSymbolTableRecord
100
AcDbRegAppTableRecord
  2
ACAD_EXEMPT_FROM_CAD_STANDARDS
 70
     0
  0
APPID
  5
2091
330
9
100
AcDbSymbolTableRecord
100
AcDbRegAppTableRecord
  2
ACAUTHENVIRON
 70
     0
  0
APPID
  5
2096
330
9
100
AcDbSymbolTableRecord
100
AcDbRegAppTableRecord
  2
AcDbDynamicBlockTrueName
 70
     0
  0
APPID
  5
2097
330
9
100
AcDbSymbolTableRecord
100
AcDbRegAppTableRecord
  2
AcDbDynamicBlockGUID
 70
     0
  0
APPID
  5
2099
330
9
100
AcDbSymbolTableRecord
100
AcDbRegAppTableRecord
  2
AcDbBlockRepETag
 70
     0
  0
APPID
  5
2115
330
9
100
AcDbSymbolTableRecord
100
AcDbRegAppTableRecord
  2
ACAD_DSTYLE_DIMTEXT_FILL
 70
     0
  0
APPID
  5
2116
330
9
100
AcDbSymbolTableRecord
100
AcDbRegAppTableRecord
  2
AcDbBlockRepBTag
 70
     0
  0
APPID
  5
252F
330
9
100
AcDbSymbolTableRecord
100
AcDbRegAppTableRecord
  2
ACAD_MLEADERVER
 70
     0
  0
APPID
  5
257F
330
9
100
AcDbSymbolTableRecord
100
AcDbRegAppTableRecord
  2
ACAD_DSTYLE_DIMJAG
 70
     0
  0
APPID
  5
2580
330
9
100
AcDbSymbolTableRecord
100
AcDbRegAppTableRecord
  2
ACAD_DSTYLE_DIMTALN
 70
     0
  0
APPID
  5
26EC
330
9
100
AcDbSymbolTableRecord
100
AcDbRegAppTableRecord
  2
ACADANNOAV
 70
     0
  0
APPID
  5
2738
330
9
100
AcDbSymbolTableRecord
100
AcDbRegAppTableRecord
  2
ACAD_DSTYLE_DIMBREAK
 70
     0
  0
APPID
  5
273B
330
9
100
AcDbSymbolTableRecord
100
AcDbRegAppTableRecord
  2
AcadAnnoPO
 70
     0
  0
APPID
  5
828C
330
9
100
AcDbSymbolTableRecord
100
AcDbRegAppTableRecord
  2
AcadAnnotative
 70
     0
  0
APPID
  5
C44A
330
9
100
AcDbSymbolTableRecord
100
AcDbRegAppTableRecord
  2
ACAD_DSTYLE_DIMRADIAL_EXTENSION
 70
     0
  0
APPID
  5
CB35
330
9
100
AcDbSymbolTableRecord
100
AcDbRegAppTableRecord
  2
GradientColor1ACI
 70
     0
  0
APPID
  5
CB36
330
9
100
AcDbSymbolTableRecord
100
AcDbRegAppTableRecord
  2
GradientColor2ACI
 70
     0
  0
APPID
  5
12C71
330
9
100
AcDbSymbolTableRecord
100
AcDbRegAppTableRecord
  2
ACCMTRANSPARENCY
 70
     0
  0
APPID
  5
2268C
330
9
100
AcDbSymbolTableRecord
100
AcDbRegAppTableRecord
  2
ADESKUNDERLAYLAYEROVERRIDEDATA
 70
     0
  0
APPID
  5
31C07
330
9
100
AcDbSymbolTableRecord
100
AcDbRegAppTableRecord
  2
ACAD_NAV_VCDISPLAY
 70
     0
  0
APPID
  5
389C3
330
9
100
AcDbSymbolTableRecord
100
AcDbRegAppTableRecord
  2
MCAD_NO_VIS
 70
     0
  0
APPID
  5
389C4
330
9
100
AcDbSymbolTableRecord
100
AcDbRegAppTableRecord
  2
ACAD_TEMP_GRAPHIC
 70
     0
  0
APPID
  5
389C5
330
9
100
AcDbSymbolTableRecord
100
AcDbRegAppTableRecord
  2
ACATTRIBSERVICES
 70
     0
  0
APPID
  5
389C6
330
9
100
AcDbSymbolTableRecord
100
AcDbRegAppTableRecord
  2
DESIGNERASSEMBLIES
 70
     0
  0
APPID
  5
389C7
330
9
100
AcDbSymbolTableRecord
100
AcDbRegAppTableRecord
  2
GENIUS_GENSCREG_15
 70
     0
  0
APPID
  5
389C8
330
9
100
AcDbSymbolTableRecord
100
AcDbRegAppTableRecord
  2
GENIUS_GENOBJ-N-SDF_13
 70
     0
  0
APPID
  5
389C9
330
9
100
AcDbSymbolTableRecord
100
AcDbRegAppTableRecord
  2
GENIUS_GENODEF_13
 70
     0
  0
APPID
  5
53756
330
9
100
AcDbSymbolTableRecord
100
AcDbRegAppTableRecord
  2
GENIUS_GENREC_14
 70
     0
  0
APPID
  5
53757
330
9
100
AcDbSymbolTableRecord
100
AcDbRegAppTableRecord
  2
GENIUS_GENOBJ-N-REC_13
 70
     0
  0
APPID
  5
54278
330
9
100
AcDbSymbolTableRecord
100
AcDbRegAppTableRecord
  2
ACAD_DSTYLE_DIMINSPECT
 70
     0
  0
APPID
  5
54279
330
9
100
AcDbSymbolTableRecord
100
AcDbRegAppTableRecord
  2
GENIUS_GENOBJ-N-FIL_13
 70
     0
  0
APPID
  5
832FA
330
9
100
AcDbSymbolTableRecord
100
AcDbRegAppTableRecord
  2
AVE_RENDER
 70
     0
  0
APPID
  5
832FB
330
9
100
AcDbSymbolTableRecord
100
AcDbRegAppTableRecord
  2
AVE_MATERIAL
 70
     0
  0
APPID
  5
8533F
330
9
100
AcDbSymbolTableRecord
100
AcDbRegAppTableRecord
  2
HATCHBACKGROUNDCOLOR
 70
     0
  0
APPID
  5
86CB0
330
9
100
AcDbSymbolTableRecord
100
AcDbRegAppTableRecord
  2
ACAD_DSTYLE_DIMJOGGED_JOGANGLE_SYMBOL
 70
     0
  0
APPID
  5
86CB1
330
9
100
AcDbSymbolTableRecord
100
AcDbRegAppTableRecord
  2
ACAD_DSTYLE_DIM_LINETYPE
 70
     0
  0
APPID
  5
86CB2
330
9
100
AcDbSymbolTableRecord
100
AcDbRegAppTableRecord
  2
ACAD_DSTYLE_DIM_EXT1_LINETYPE
 70
     0
  0
APPID
  5
86CB3
330
9
100
AcDbSymbolTableRecord
100
AcDbRegAppTableRecord
  2
ACAD_DSTYLE_DIM_EXT2_LINETYPE
 70
     0
  0
APPID
  5
86CB6
330
9
100
AcDbSymbolTableRecord
100
AcDbRegAppTableRecord
  2
ACAD_OBJECT_CHANGE_GUID
 70
     0
  0
ENDTAB
  0
TABLE
  2
DIMSTYLE
  5
A
330
0
100
AcDbSymbolTable
 70
    12
100
AcDbDimStyleTable
 71
     1
340
37FBB
  0
DIMSTYLE
105
37FBB
330
A
100
AcDbSymbolTableRecord
100
AcDbDimStyleTableRecord
  2
1
 70
     0
 41
1.0
 42
1.0
 43
1.0
 44
1.0
 46
3.0
 73
     0
 74
     0
 77
     1
 78
     8
140
1.0
141
1.0
143
0.03937007874016
147
1.0
171
     3
172
     1
179
     2
271
     2
272
     2
274
     3
278
    44
283
     0
284
     8
340
11
1001
ACAD_DSTYLE_DIMJAG
1070
   388
1040
1.0
1001
ACAD_DSTYLE_DIMBREAK
1070
   391
1040
1.0
1001
ACAD_DSTYLE_DIMTALN
1070
   392
1070
     0
  0
DIMSTYLE
105
54270
102
{ACAD_REACTORS
330
86CFE
102
}
330
A
100
AcDbSymbolTableRecord
100
AcDbDimStyleTableRecord
  2
AM_DIN
 70
     0
  4
"
 41
3.5
 42
1.0
 43
10.0
 44
1.0
 47
0.1
 48
0.1
 73
     0
 74
     0
 77
     1
 78
     8
 79
     2
140
3.5
141
0.0
143
0.0393701
146
0.71
147
1.5
172
     1
176
   256
177
   256
178
     2
271
     2
272
     3
274
     4
283
     0
284
     8
340
11
371
    -1
372
    -1
1001
ACAD_DSTYLE_DIMJAG
1070
   388
1040
1.5
1001
ACAD_DSTYLE_DIMBREAK
1070
   391
1040
3.75
1001
ACAD_DSTYLE_DIMJOGGED_JOGANGLE_SYMBOL
1070
   384
1040
1.570796326794896
1001
ACAD_DSTYLE_DIM_LINETYPE
1070
   380
1005
14
1001
ACAD_DSTYLE_DIM_EXT1_LINETYPE
1070
   381
1005
14
1001
ACAD_DSTYLE_DIM_EXT2_LINETYPE
1070
   382
1005
14
  0
DIMSTYLE
105
54271
330
A
100
AcDbSymbolTableRecord
100
AcDbDimStyleTableRecord
  2
AM_DIN$3
 70
     0
  4
"
 41
3.5
 42
1.0
 43
10.0
 44
1.0
 47
0.1
 48
0.1
 73
     0
 77
     1
 78
     8
 79
     2
140
3.5
141
0.0
143
0.0393701
146
0.71
147
1.5
176
   256
177
   256
178
     2
271
     2
272
     3
274
     4
283
     0
284
     8
288
     1
289
     0
340
11
371
    -1
372
    -1
1001
ACAD_DSTYLE_DIMBREAK
1070
   391
1040
3.75
1001
ACAD_DSTYLE_DIMJAG
1070
   388
1040
1.5
1001
ACAD_DSTYLE_DIMJOGGED_JOGANGLE_SYMBOL
1070
   384
1040
1.570796326794896
1001
ACAD_DSTYLE_DIM_LINETYPE
1070
   380
1005
14
1001
ACAD_DSTYLE_DIM_EXT1_LINETYPE
1070
   381
1005
14
1001
ACAD_DSTYLE_DIM_EXT2_LINETYPE
1070
   382
1005
14
  0
DIMSTYLE
105
54272
330
A
100
AcDbSymbolTableRecord
100
AcDbDimStyleTableRecord
  2
AM_DIN$4
 70
     0
  4
"
 41
3.5
 42
1.0
 43
10.0
 44
1.0
 47
0.1
 48
0.1
 73
     0
 77
     1
 78
     8
 79
     2
140
3.5
141
0.0
143
0.0393701
146
0.71
147
1.5
176
   256
177
   256
178
     2
271
     2
272
     3
274
     4
283
     0
284
     8
288
     1
289
     0
340
11
371
    -1
372
    -1
1001
ACAD_DSTYLE_DIMBREAK
1070
   391
1040
3.75
1001
ACAD_DSTYLE_DIMJAG
1070
   388
1040
1.5
1001
ACAD_DSTYLE_DIMJOGGED_JOGANGLE_SYMBOL
1070
   384
1040
1.570796326794896
1001
ACAD_DSTYLE_DIM_LINETYPE
1070
   380
1005
14
1001
ACAD_DSTYLE_DIM_EXT1_LINETYPE
1070
   381
1005
14
1001
ACAD_DSTYLE_DIM_EXT2_LINETYPE
1070
   382
1005
14
  0
DIMSTYLE
105
54273
330
A
100
AcDbSymbolTableRecord
100
AcDbDimStyleTableRecord
  2
AM_DIN$6
 70
     0
  4
"
 41
3.5
 42
1.0
 43
10.0
 44
1.0
 47
0.1
 48
0.1
 73
     0
 74
     0
 78
     8
 79
     2
140
3.5
141
0.0
143
0.0393701
146
0.71
147
1.5
172
     1
176
   256
177
   256
178
     2
271
     2
272
     3
274
     4
283
     0
284
     8
340
11
371
    -1
372
    -1
1001
ACAD_DSTYLE_DIMBREAK
1070
   391
1040
3.75
1001
ACAD_DSTYLE_DIMJAG
1070
   388
1040
1.5
1001
ACAD_DSTYLE_DIMJOGGED_JOGANGLE_SYMBOL
1070
   384
1040
1.570796326794896
1001
ACAD_DSTYLE_DIM_LINETYPE
1070
   380
1005
14
1001
ACAD_DSTYLE_DIM_EXT1_LINETYPE
1070
   381
1005
14
1001
ACAD_DSTYLE_DIM_EXT2_LINETYPE
1070
   382
1005
14
  0
DIMSTYLE
105
54274
330
A
100
AcDbSymbolTableRecord
100
AcDbDimStyleTableRecord
  2
AM_DIN$7
 70
     0
  4
"
 41
3.5
 42
1.0
 43
10.0
 44
1.0
 47
0.1
 48
0.1
 73
     0
 74
     0
 77
     1
 78
     8
 79
     2
140
3.5
141
0.0
143
0.0393701
146
0.71
147
1.5
172
     1
176
   256
177
   256
178
     2
271
     2
272
     3
274
     4
283
     0
284
     8
340
11
371
    -1
372
    -1
1001
ACAD_DSTYLE_DIMBREAK
1070
   391
1040
3.75
1001
ACAD_DSTYLE_DIMJAG
1070
   388
1040
1.5
1001
ACAD_DSTYLE_DIMJOGGED_JOGANGLE_SYMBOL
1070
   384
1040
1.570796326794896
1001
ACAD_DSTYLE_DIM_LINETYPE
1070
   380
1005
14
1001
ACAD_DSTYLE_DIM_EXT1_LINETYPE
1070
   381
1005
14
1001
ACAD_DSTYLE_DIM_EXT2_LINETYPE
1070
   382
1005
14
  0
DIMSTYLE
105
54275
330
A
100
AcDbSymbolTableRecord
100
AcDbDimStyleTableRecord
  2
AM_DIN$SF
 70
     0
  4
"
 41
3.5
 42
1.0
 43
10.0
 44
1.0
 47
0.1
 48
0.1
 73
     0
 74
     0
 75
     1
 76
     1
 77
     1
 78
     8
 79
     2
140
3.5
141
0.0
143
0.0393701
146
0.71
147
1.5
172
     1
176
   256
177
   256
178
     2
271
     2
272
     3
274
     4
283
     0
284
     8
340
11
371
    -1
372
    -1
1001
ACAD_DSTYLE_DIMBREAK
1070
   391
1040
3.75
1001
ACAD_DSTYLE_DIMJAG
1070
   388
1040
1.5
1001
ACAD_DSTYLE_DIMJOGGED_JOGANGLE_SYMBOL
1070
   384
1040
1.570796326794896
1001
ACAD_DSTYLE_DIM_LINETYPE
1070
   380
1005
14
1001
ACAD_DSTYLE_DIM_EXT1_LINETYPE
1070
   381
1005
14
1001
ACAD_DSTYLE_DIM_EXT2_LINETYPE
1070
   382
1005
14
  0
DIMSTYLE
105
54276
330
A
100
AcDbSymbolTableRecord
100
AcDbDimStyleTableRecord
  2
AM_DIN$SH
 70
     0
  4
"
 41
3.5
 42
1.0
 43
10.0
 44
1.0
 47
0.1
 48
0.1
 73
     0
 74
     0
 75
     1
 76
     1
 77
     1
 78
     8
 79
     2
140
3.5
141
0.0
143
0.0393701
144
2.0
146
0.71
147
1.5
172
     1
173
     1
176
   256
177
   256
178
     2
271
     2
272
     3
274
     4
283
     0
284
     8
340
11
343
53F57
371
    -1
372
    -1
1001
ACAD_DSTYLE_DIMBREAK
1070
   391
1040
3.75
1001
ACAD_DSTYLE_DIMJAG
1070
   388
1040
1.5
1001
ACAD_DSTYLE_DIMJOGGED_JOGANGLE_SYMBOL
1070
   384
1040
1.570796326794896
1001
ACAD_DSTYLE_DIM_LINETYPE
1070
   380
1005
14
1001
ACAD_DSTYLE_DIM_EXT1_LINETYPE
1070
   381
1005
14
1001
ACAD_DSTYLE_DIM_EXT2_LINETYPE
1070
   382
1005
14
  0
DIMSTYLE
105
577D2
330
A
100
AcDbSymbolTableRecord
100
AcDbDimStyleTableRecord
  2
AM_DIN$0
 70
     0
  4
"
 41
3.5
 42
1.0
 43
10.0
 44
1.0
 47
0.1
 48
0.1
 73
     0
 74
     0
 77
     1
 78
     8
 79
     2
140
3.5
141
0.0
143
0.0393701
146
0.71
147
1.5
172
     1
176
   256
177
   256
178
     2
271
     2
272
     3
274
     4
283
     0
284
     8
340
11
371
    -1
372
    -1
1001
ACAD_DSTYLE_DIMBREAK
1070
   391
1040
3.75
1001
ACAD_DSTYLE_DIMJAG
1070
   388
1040
1.5
1001
ACAD_DSTYLE_DIMJOGGED_JOGANGLE_SYMBOL
1070
   384
1040
1.570796326794896
1001
ACAD_DSTYLE_DIM_LINETYPE
1070
   380
1005
14
1001
ACAD_DSTYLE_DIM_EXT1_LINETYPE
1070
   381
1005
14
1001
ACAD_DSTYLE_DIM_EXT2_LINETYPE
1070
   382
1005
14
  0
DIMSTYLE
105
84F60
330
A
100
AcDbSymbolTableRecord
100
AcDbDimStyleTableRecord
  2
AM_DIN$2
 70
     0
  4
"
 41
10.0
 42
1.0
 43
10.0
 44
1.0
 47
0.1
 48
0.1
 73
     0
 74
     0
 77
     1
 78
     8
 79
     2
140
10.0
141
0.0
143
0.0393701
146
0.71
147
3.0
172
     1
176
     7
177
     7
178
     7
271
     2
272
     2
283
     0
284
     8
340
11
371
    -1
372
    -1
1001
ACAD_DSTYLE_DIMBREAK
1070
   391
1040
3.75
1001
ACAD_DSTYLE_DIMJAG
1070
   388
1040
1.5
1001
ACAD_DSTYLE_DIMTALN
1070
   392
1070
     0
1001
ACAD_DSTYLE_DIMJOGGED_JOGANGLE_SYMBOL
1070
   384
1040
1.570796326794896
1001
ACAD_DSTYLE_DIM_LINETYPE
1070
   380
1005
14
1001
ACAD_DSTYLE_DIM_EXT1_LINETYPE
1070
   381
1005
14
1001
ACAD_DSTYLE_DIM_EXT2_LINETYPE
1070
   382
1005
14
  0
DIMSTYLE
105
8687B
102
{ACAD_REACTORS
330
86BDC
330
86BDF
102
}
330
A
100
AcDbSymbolTableRecord
100
AcDbDimStyleTableRecord
  2
100
 70
     0
 41
100.0
 42
30.0
 43
100.0
 44
20.0
 73
     0
 74
     0
 77
     1
 78
     8
140
100.0
141
100.0
143
0.03937007874016
147
20.0
171
     3
172
     1
179
     2
271
     2
272
     2
274
     3
278
    44
283
     0
284
     8
340
11
1001
ACAD_DSTYLE_DIMJAG
1070
   388
1040
1.5
1001
ACAD_DSTYLE_DIMTALN
1070
   392
1070
     0
  0
DIMSTYLE
105
8687D
102
{ACAD_REACTORS
330
86BC0
102
}
330
A
100
AcDbSymbolTableRecord
100
AcDbDimStyleTableRecord
  2
100$0
 70
     0
 41
100.0
 42
30.0
 43
100.0
 44
20.0
 73
     0
 74
     0
 77
     1
 78
     8
140
100.0
141
100.0
143
0.03937007874016
147
20.0
171
     3
172
     1
179
     2
271
     2
272
     2
274
     3
278
    44
283
     0
284
     8
340
11
1001
ACAD_DSTYLE_DIMBREAK
1070
   391
1040
3.75
1001
ACAD_DSTYLE_DIMJAG
1070
   388
1040
1.5
  0
ENDTAB
  0
TABLE
  2
BLOCK_RECORD
  5
1
330
0
100
AcDbSymbolTable
 70
    12
  0
BLOCK_RECORD
  5
23
102
{ACAD_XDICTIONARY
360
1FDD
102
}
330
1
100
AcDbSymbolTableRecord
100
AcDbBlockTableRecord
  2
*Model_Space
340
26
  0
BLOCK_RECORD
  5
31D04
330
1
100
AcDbSymbolTableRecord
100
AcDbBlockTableRecord
  2
*Paper_Space
340
31D05
  0
BLOCK_RECORD
  5
5198F
102
{ACAD_XDICTIONARY
360
51991
102
}
330
1
100
AcDbSymbolTableRecord
100
AcDbBlockTableRecord
  2
Eigentum
340
0
310
28000000200000002000000001002000000000000010000001000000010000000000000000000000302821FF302821FF302821FF302821FF302821FF302821FF302821FF302821FF302821FF302821FF302821FF302821FF302821FF302821FF302821FF302821FF302821FF302821FF302821FF302821FF302821FF302821
310
FF302821FF302821FF302821FF302821FF302821FF302821FF302821FF302821FF302821FF302821FF302821FF302821FF302821FF302821FF302821FF302821FF302821FF302821FF302821FF302821FF302821FF302821FF302821FF302821FF302821FF302821FF302821FF302821FF302821FF302821FF302821FF3028
310
21FF302821FF302821FF302821FF302821FF302821FF302821FF302821FF302821FF302821FF302821FF302821FF302821FF302821FF302821FF302821FF302821FF302821FF302821FF302821FF302821FF302821FF302821FF302821FF302821FF302821FF302821FF302821FF302821FF302821FF302821FF302821FF30
310
2821FF302821FF302821FF302821FF302821FF302821FF302821FF302821FF302821FF302821FF302821FF302821FF302821FF302821FF302821FF302821FF302821FF302821FF302821FF302821FF302821FF302821FF302821FF302821FF302821FF302821FF302821FF302821FF302821FF302821FF302821FF302821FF
310
302821FF302821FF302821FF302821FF302821FF302821FF302821FF302821FF302821FF302821FF302821FF302821FF302821FF302821FF302821FF302821FF302821FF302821FF302821FF302821FF302821FF302821FF302821FF302821FF302821FF302821FF302821FF302821FF302821FF302821FF302821FF302821
310
FF302821FF302821FF302821FF302821FF302821FF302821FF302821FF302821FF302821FF302821FF302821FF302821FF302821FF302821FF302821FF302821FF302821FF302821FF302821FF302821FF302821FF302821FF302821FF302821FF302821FF302821FF302821FF302821FF302821FF302821FF302821FF3028
310
21FF302821FF302821FF302821FF302821FF302821FF302821FF302821FF302821FF302821FF302821FF302821FF302821FF302821FF302821FF302821FF302821FF302821FF302821FF302821FF302821FF302821FF302821FF302821FF302821FF302821FF302821FF302821FF302821FF302821FF302821FF302821FF30
310
2821FF302821FF302821FF302821FF302821FF302821FF302821FF302821FF302821FF302821FF302821FF302821FF302821FF302821FF302821FF302821FF302821FF302821FF302821FF302821FF302821FF302821FF302821FF302821FF302821FF302821FF302821FF302821FF302821FF302821FF302821FF302821FF
310
302821FF302821FF302821FF302821FF302821FF302821FF302821FF302821FF302821FF302821FF302821FF302821FF302821FF302821FF302821FF302821FF302821FF302821FF302821FF302821FF302821FF302821FF302821FF302821FF302821FF302821FF302821FF302821FF302821FF302821FF302821FF302821
310
FF302821FF302821FF302821FF302821FF302821FF302821FF302821FF302821FF302821FF302821FF302821FF302821FF302821FF302821FF302821FF302821FF302821FF302821FF302821FF302821FF302821FF302821FF302821FF302821FF302821FF302821FF302821FF302821FF302821FF302821FF302821FF3028
310
21FF302821FF302821FF302821FF302821FF302821FF302821FF302821FF302821FF302821FF302821FF302821FF302821FF302821FF00FF00FF00FF00FF00FF00FF00FF00FF00FF00FF00FF00FF00FF00FF00FF00FF00FF00FF00FF00FF00FF00FF00FF00FF00FF00FF00FF00FF00FF00FF00FF00FF00FF00FF00FF00FF00
310
FF00FF00FF00FF00FF00FF00FF00FF00FF00FF00FF00FF00FF00FF00FF00FF00FF00FF302821FF302821FF302821FF302821FF302821FF00FF00FF00FF00FF00FF00FF00FF00FF00FF00FF00FF00FF00FF00FF00FF00FF00FF00FF00FF00FF00FF00FF00FF00FF00FF00FF00FF00FF00FF00FF00FF00FF00FF00FF00FF00FF
310
00FF00FF00FF00FF00FF00FF00FF00FF00FF00FF00FF00FF00FF00FF00FF00FF302821FF302821FF302821FF302821FF302821FF302821FF00FF00FF00FF00FF00FF00FF00FF00FF00FF00FF00FF00FF00FF00FF00FF00FF00FF00FF00FF00FF00FF00FF00FF00FF00FF00FF00FF00FF00FF00FF00FF00FF00FF00FF00FF00
310
FF00FF00FF00FF00FF00FF00FF00FF00FF00FF00FF00FF00FF00FF00FF00FF00FF00FF00FF302821FF302821FF302821FF302821FF302821FF00FF00FF00FF00FF00FF00FF00FF00FF00FF00FF00FF00FF00FF00FF00FF00FF00FF00FF00FF00FF00FF00FF00FF00FF00FF00FF00FF00FF00FF00FF00FF00FF00FF00FF00FF
310
00FF00FF00FF00FF00FF00FF00FF00FF00FF00FF00FF00FF00FF00FF00FF00FF00FF00FF00FF00FF00FF00FF00FF302821FF302821FF302821FF00FF00FF00FF00FF00FF00FF00FF00FF00FF00FF00FF00FF00FF00FF00FF00FF00FF00FF00FF00FF00FF00FF00FF00FF00FF00FF00FF00FF00FF00FF00FF00FF00FF00FF00
310
FF00FF00FF00FF00FF00FF00FF00FF00FF00FF00FF00FF00FF00FF00FF00FF00FF00FF00FF00FF302821FF00FF00FF302821FF302821FF302821FF302821FF00FF00FF00FF00FF00FF00FF00FF00FF00FF00FF00FF00FF00FF00FF00FF00FF00FF00FF00FF00FF00FF00FF00FF00FF00FF00FF00FF00FF00FF00FF00FF00FF
310
00FF00FF00FF00FF302821FF302821FF302821FF302821FF302821FF302821FF302821FF302821FF302821FF302821FF302821FF302821FF302821FF302821FF00FF00FF00FF00FF00FF00FF00FF00FF00FF00FF00FF00FF00FF00FF00FF00FF00FF00FF00FF00FF00FF00FF00FF00FF00FF00FF00FF00FF00FF00FF00FF00
310
FF00FF00FF00FF00FF00FF00FF00FF00FF00FF00FF00FF00FF00FF00FF00FF00FF302821FF302821FF302821FF302821FF302821FF302821FF302821FF00FF00FF00FF00FF00FF00FF00FF00FF00FF00FF00FF00FF00FF00FF00FF00FF00FF00FF00FF00FF00FF00FF00FF00FF00FF00FF00FF00FF00FF00FF00FF00FF00FF
310
00FF00FF00FF00FF00FF00FF00FF00FF00FF00FF00FF00FF00FF00FF00FF00FF00FF302821FF302821FF302821FF302821FF302821FF302821FF302821FF00FF00FF00FF00FF00FF00FF00FF00FF00FF00FF00FF00FF00FF00FF00FF00FF00FF00FF00FF00FF00FF00FF00FF00FF00FF00FF00FF00FF00FF00FF00FF00FF00
310
FF00FF00FF00FF302821FF302821FF302821FF302821FF302821FF302821FF302821FF302821FF302821FF302821FF302821FF302821FF302821FF302821FF00FF00FF00FF00FF00FF00FF00FF00FF00FF00FF00FF00FF00FF00FF00FF00FF00FF00FF00FF00FF00FF00FF00FF00FF00FF00FF00FF00FF00FF00FF00FF00FF
310
00FF00FF00FF00FF00FF00FF00FF00FF00FF00FF00FF00FF00FF00FF00FF00FF00FF00FF00FF00FF00FF00FF00FF00FF00FF00FF302821FF302821FF302821FF00FF00FF00FF00FF00FF00FF00FF00FF00FF00FF00FF00FF00FF00FF00FF00FF00FF00FF00FF00FF00FF00FF00FF00FF00FF00FF00FF00FF00FF00FF00FF00
310
FF00FF00FF00FF00FF00FF00FF00FF00FF00FF00FF00FF00FF00FF00FF00FF00FF00FF00FF00FF00FF00FF00FF00FF00FF00FF00FF302821FF302821FF302821FF00FF00FF00FF00FF00FF00FF00FF00FF00FF00FF00FF00FF00FF00FF00FF00FF00FF00FF00FF00FF00FF00FF00FF00FF00FF00FF00FF00FF00FF00FF00FF
310
00FF00FF00FF00FF00FF00FF00FF00FF00FF00FF00FF00FF00FF302821FF302821FF302821FF302821FF302821FF302821FF302821FF302821FF302821FF302821FF302821FF302821FF302821FF302821FF302821FF302821FF302821FF302821FF302821FF302821FF302821FF302821FF302821FF302821FF302821FF30
310
2821FF302821FF302821FF302821FF302821FF302821FF302821FF302821FF302821FF302821FF302821FF302821FF302821FF302821FF302821FF302821FF302821FF302821FF302821FF302821FF302821FF302821FF302821FF302821FF302821FF302821FF302821FF302821FF302821FF302821FF302821FF302821FF
310
302821FF302821FF302821FF302821FF302821FF302821FF302821FF302821FF302821FF302821FF302821FF302821FF302821FF302821FF302821FF302821FF302821FF302821FF302821FF302821FF302821FF302821FF302821FF302821FF302821FF302821FF302821FF302821FF302821FF302821FF302821FF302821
310
FF302821FF302821FF302821FF302821FF302821FF302821FF302821FF302821FF302821FF302821FF302821FF302821FF302821FF302821FF302821FF302821FF302821FF302821FF302821FF302821FF302821FF302821FF302821FF302821FF302821FF302821FF302821FF302821FF302821FF302821FF302821FF3028
310
21FF302821FF302821FF302821FF302821FF302821FF302821FF302821FF302821FF302821FF302821FF302821FF302821FF302821FF302821FF302821FF302821FF302821FF302821FF302821FF302821FF302821FF302821FF302821FF302821FF302821FF302821FF302821FF302821FF302821FF302821FF302821FF30
310
2821FF302821FF302821FF302821FF302821FF302821FF302821FF302821FF302821FF302821FF302821FF302821FF302821FF302821FF302821FF302821FF302821FF302821FF302821FF302821FF302821FF302821FF302821FF302821FF302821FF302821FF302821FF302821FF302821FF302821FF302821FF302821FF
310
302821FF302821FF302821FF302821FF302821FF302821FF302821FF302821FF302821FF302821FF302821FF302821FF302821FF302821FF302821FF302821FF302821FF302821FF302821FF302821FF302821FF302821FF302821FF302821FF302821FF302821FF302821FF302821FF302821FF302821FF302821FF302821
310
FF302821FF302821FF302821FF302821FF302821FF302821FF302821FF302821FF302821FF302821FF302821FF302821FF302821FF302821FF302821FF302821FF302821FF302821FF302821FF302821FF302821FF302821FF302821FF302821FF302821FF302821FF302821FF302821FF302821FF302821FF302821FF3028
310
21FF302821FF302821FF302821FF302821FF302821FF302821FF302821FF302821FF302821FF302821FF302821FF302821FF302821FF302821FF302821FF302821FF302821FF302821FF302821FF302821FF302821FF302821FF302821FF302821FF302821FF302821FF302821FF302821FF302821FF302821FF302821FF30
310
2821FF302821FF302821FF302821FF302821FF302821FF302821FF302821FF302821FF302821FF302821FF302821FF302821FF302821FF302821FF302821FF302821FF302821FF302821FF302821FF302821FF302821FF302821FF302821FF302821FF302821FF302821FF302821FF302821FF302821FF302821FF302821FF
310
302821FF302821FF302821FF302821FF302821FF302821FF302821FF302821FF302821FF302821FF302821FF302821FF302821FF302821FF302821FF302821FF302821FF302821FF
102
{BLKREFS
331
86D58
102
}
1001
ACAD
1000
DesignCenter Data
1002
{
1070
     1
1070
     4
1002
}
  0
BLOCK_RECORD
  5
53F57
330
1
100
AcDbSymbolTableRecord
100
AcDbBlockTableRecord
  2
GENAXEH
340
0
  0
BLOCK_RECORD
  5
53F5B
330
1
100
AcDbSymbolTableRecord
100
AcDbBlockTableRecord
  2
_ACMFILLED30
340
0
310
28000000200000002000000001002000000000000010000001000000010000000000000000000000302821FF302821FF302821FF302821FF302821FF302821FF302821FF302821FF302821FF302821FF302821FF302821FF302821FF302821FF302821FF302821FF302821FF302821FF302821FF302821FF302821FF302821
310
FF302821FF302821FF302821FF302821FF302821FF302821FF302821FF302821FF302821FF302821FF302821FF302821FF302821FF302821FF302821FF302821FF302821FF302821FF302821FF302821FF302821FF302821FF302821FF302821FF302821FF302821FF302821FF302821FF302821FF302821FF302821FF3028
310
21FF302821FF302821FF302821FF302821FF302821FF302821FF302821FF302821FF302821FF302821FF302821FF302821FF302821FF302821FF302821FF302821FF302821FF302821FF302821FF302821FF302821FF302821FF302821FF302821FF302821FF302821FF302821FF302821FF302821FF302821FF302821FF30
310
2821FF302821FF302821FF302821FF302821FF302821FF302821FF302821FF302821FF302821FF302821FF302821FF302821FF302821FF302821FF302821FF302821FF302821FF302821FF302821FF302821FF302821FF302821FF302821FF302821FF302821FF302821FF302821FF302821FF302821FF302821FF302821FF
310
302821FF302821FF302821FF302821FF302821FF302821FF302821FF302821FF302821FF302821FF302821FF302821FF302821FF302821FF302821FF302821FF302821FF302821FF302821FF302821FF302821FF302821FF302821FF302821FF302821FF302821FF302821FF302821FF302821FF302821FF302821FF302821
310
FF302821FF302821FF302821FF302821FF302821FF302821FF302821FF302821FF302821FF302821FF302821FF302821FF302821FF302821FF302821FF302821FF302821FF302821FF302821FF302821FF302821FF302821FF302821FF302821FF302821FF302821FF302821FF302821FF302821FF302821FF302821FF3028
310
21FF302821FF302821FF302821FF302821FF302821FF302821FF302821FF302821FF302821FF302821FF302821FF302821FF302821FF302821FF302821FF302821FF302821FF302821FF302821FF302821FF302821FF302821FF302821FF302821FF302821FF302821FF302821FF302821FF302821FF302821FF302821FF30
310
2821FF302821FF302821FF302821FF302821FF302821FF302821FF302821FF302821FF302821FF302821FF302821FF302821FF302821FF302821FF302821FF302821FF302821FF302821FF302821FF302821FF302821FF302821FF302821FF302821FF302821FF302821FF302821FF302821FF302821FF302821FF302821FF
310
302821FF302821FF302821FF302821FF302821FF302821FF302821FF302821FF302821FF302821FF302821FF302821FF302821FFFFFFFFFFFFFFFFFFFFFFFFFF302821FF302821FF302821FF302821FF302821FF302821FF302821FF302821FF302821FF302821FF302821FF302821FF302821FF302821FF302821FF302821
310
FF302821FF302821FF302821FF302821FF302821FF302821FF302821FF302821FF302821FF302821FF302821FF302821FF302821FFFFFFFFFFFFFFFFFFFFFFFFFFFFFFFFFFFFFFFFFFFFFFFFFFFFFFFFFF302821FF302821FF302821FF302821FF302821FF302821FF302821FF302821FF302821FF302821FF302821FF3028
310
21FF302821FF302821FF302821FF302821FF302821FF302821FF302821FF302821FF302821FF302821FF302821FF302821FF302821FFFFFFFFFFFFFFFFFFFFFFFFFFFFFFFFFFFFFFFFFFFFFFFFFFFFFFFFFFFFFFFFFFFFFFFFFFFFFFFFFFFFFFFFFF302821FF302821FF302821FF302821FF302821FF302821FF302821FF30
310
2821FF302821FF302821FF302821FF302821FF302821FF302821FF302821FF302821FF302821FF302821FF302821FF302821FF302821FFFFFFFFFFFFFFFFFFFFFFFFFFFFFFFFFFFFFFFFFFFFFFFFFFFFFFFFFFFFFFFFFFFFFFFFFFFFFFFFFFFFFFFFFFFFFFFFFFFFFFFFFFFFFFFFFFFFFFFFFF302821FF302821FF302821FF
310
302821FF302821FF302821FF302821FF302821FF302821FF302821FF302821FF302821FF302821FF302821FF302821FF302821FF302821FFFFFFFFFFFFFFFFFFFFFFFFFFFFFFFFFFFFFFFFFFFFFFFFFFFFFFFFFFFFFFFFFFFFFFFFFFFFFFFFFFFFFFFFFFFFFFFFFFFFFFFFFFFFFFFFFFFFFFFFFFFFFFFFFFFFFFFFFFFFFFFF
310
FFFFFFFFFF302821FF302821FF302821FF302821FF302821FF302821FF302821FF302821FF302821FF302821FF302821FF302821FF302821FFFFFFFFFFFFFFFFFFFFFFFFFFFFFFFFFFFFFFFFFFFFFFFFFFFFFFFFFFFFFFFFFFFFFFFFFFFFFFFFFFFFFFFFFFFFFFFFFFFFFFFFFFFFFFFFFFFFFFFFFFFFFFFFFFFFFFFFFFFFFF
310
FFFFFFFFFFFFFFFFFFFFFFFFFFFFFFFFFFFFFFFFFFFF302821FF302821FF302821FF302821FF302821FF302821FF302821FF302821FF302821FFFFFFFFFFFFFFFFFFFFFFFFFFFFFFFFFFFFFFFFFFFFFFFFFFFFFFFFFFFFFFFFFFFFFFFFFFFFFFFFFFFFFFFFFFFFFFFFFFFFFFFFFFFFFFFFFFFFFFFFFFFFFFFFFFFFFFFFFFFF
310
FFFFFFFFFFFFFFFFFFFFFFFFFFFFFFFFFFFFFFFFFFFFFFFFFFFFFFFFFFFFFFFFFFFFFFFFFFFFFF302821FF302821FF302821FF302821FF302821FFFFFFFFFFFFFFFFFFFFFFFFFFFFFFFFFFFFFFFFFFFFFFFFFFFFFFFFFFFFFFFFFFFFFFFFFFFFFFFFFFFFFFFFFFFFFFFFFFFFFFFFFFFFFFFFFFFFFFFFFFFFFFFFFFFFFFFFFF
310
FFFFFFFFFFFFFFFFFFFFFFFFFFFFFFFFFFFFFFFFFFFFFFFFFFFFFFFFFFFFFFFFFFFFFFFFFFFFFFFFFFFFFFFFFFFFFFFFFFFFFFFF302821FF302821FFFFFFFFFFFFFFFFFFFFFFFFFFFFFFFFFFFFFFFFFFFFFFFFFFFFFFFFFFFFFFFFFFFFFFFFFFFFFFFFFFFFFFFFFFFFFFFFFFFFFFFFFFFFFFFFFFFFFFFFFFFFFFFFFFFFFFFF
310
FFFFFFFFFFFFFFFFFFFFFFFFFFFFFFFFFFFFFFFFFFFFFFFFFFFFFFFFFFFFFFFFFFFFFFFFFFFFFFFFFFFFFFFFFF302821FF302821FF302821FF302821FFFFFFFFFFFFFFFFFFFFFFFFFFFFFFFFFFFFFFFFFFFFFFFFFFFFFFFFFFFFFFFFFFFFFFFFFFFFFFFFFFFFFFFFFFFFFFFFFFFFFFFFFFFFFFFFFFFFFFFFFFFFFFFFFFFFFF
310
FFFFFFFFFFFFFFFFFFFFFFFFFFFFFFFFFFFFFFFFFFFFFFFFFFFFFFFFFFFF302821FF302821FF302821FF302821FF302821FF302821FF302821FF302821FFFFFFFFFFFFFFFFFFFFFFFFFFFFFFFFFFFFFFFFFFFFFFFFFFFFFFFFFFFFFFFFFFFFFFFFFFFFFFFFFFFFFFFFFFFFFFFFFFFFFFFFFFFFFFFFFFFFFFFFFFFFFFFFFFFF
310
FFFFFFFFFFFFFFFFFFFFFFFFFFFFFF302821FF302821FF302821FF302821FF302821FF302821FF302821FF302821FF302821FF302821FF302821FF302821FFFFFFFFFFFFFFFFFFFFFFFFFFFFFFFFFFFFFFFFFFFFFFFFFFFFFFFFFFFFFFFFFFFFFFFFFFFFFFFFFFFFFFFFFFFFFFFFFFFFFFFFFFFFFFFFFFFFFFFFFFFFFFFFFF
310
FFFFFFFF302821FF302821FF302821FF302821FF302821FF302821FF302821FF302821FF302821FF302821FF302821FF302821FF302821FF302821FF302821FFFFFFFFFFFFFFFFFFFFFFFFFFFFFFFFFFFFFFFFFFFFFFFFFFFFFFFFFFFFFFFFFFFFFFFFFFFFFFFFFFFFFFFFFFFFFFFFFFFFFFFFFF302821FF302821FF302821
310
FF302821FF302821FF302821FF302821FF302821FF302821FF302821FF302821FF302821FF302821FF302821FF302821FF302821FF302821FF302821FF302821FFFFFFFFFFFFFFFFFFFFFFFFFFFFFFFFFFFFFFFFFFFFFFFFFFFFFFFFFFFFFFFFFFFFFFFFFFFFFFFFFF302821FF302821FF302821FF302821FF302821FF3028
310
21FF302821FF302821FF302821FF302821FF302821FF302821FF302821FF302821FF302821FF302821FF302821FF302821FF302821FF302821FF302821FF302821FFFFFFFFFFFFFFFFFFFFFFFFFFFFFFFFFFFFFFFFFFFFFFFFFF302821FF302821FF302821FF302821FF302821FF302821FF302821FF302821FF302821FF30
310
2821FF302821FF302821FF302821FF302821FF302821FF302821FF302821FF302821FF302821FF302821FF302821FF302821FF302821FF302821FF302821FF302821FFFFFFFFFFFFFFFFFF302821FF302821FF302821FF302821FF302821FF302821FF302821FF302821FF302821FF302821FF302821FF302821FF302821FF
310
302821FF302821FF302821FF302821FF302821FF302821FF302821FF302821FF302821FF302821FF302821FF302821FF302821FF302821FF302821FF302821FF302821FF302821FF302821FF302821FF302821FF302821FF302821FF302821FF302821FF302821FF302821FF302821FF302821FF302821FF302821FF302821
310
FF302821FF302821FF302821FF302821FF302821FF302821FF302821FF302821FF302821FF302821FF302821FF302821FF302821FF302821FF302821FF302821FF302821FF302821FF302821FF302821FF302821FF302821FF302821FF302821FF302821FF302821FF302821FF302821FF302821FF302821FF302821FF3028
310
21FF302821FF302821FF302821FF302821FF302821FF302821FF302821FF302821FF302821FF302821FF302821FF302821FF302821FF302821FF302821FF302821FF302821FF302821FF302821FF302821FF302821FF302821FF302821FF302821FF302821FF302821FF302821FF302821FF302821FF302821FF302821FF30
310
2821FF302821FF302821FF302821FF302821FF302821FF302821FF302821FF302821FF302821FF302821FF302821FF302821FF302821FF302821FF302821FF302821FF302821FF302821FF302821FF302821FF302821FF302821FF302821FF302821FF302821FF302821FF302821FF302821FF302821FF302821FF302821FF
310
302821FF302821FF302821FF302821FF302821FF302821FF302821FF302821FF302821FF302821FF302821FF302821FF302821FF302821FF302821FF302821FF302821FF302821FF302821FF302821FF302821FF302821FF302821FF302821FF302821FF302821FF302821FF302821FF302821FF302821FF302821FF302821
310
FF302821FF302821FF302821FF302821FF302821FF302821FF302821FF302821FF302821FF302821FF302821FF302821FF302821FF302821FF302821FF302821FF302821FF302821FF302821FF302821FF302821FF302821FF302821FF302821FF302821FF302821FF302821FF302821FF302821FF302821FF302821FF3028
310
21FF302821FF302821FF302821FF302821FF302821FF302821FF302821FF302821FF302821FF302821FF302821FF302821FF302821FF302821FF302821FF302821FF302821FF302821FF302821FF302821FF302821FF302821FF302821FF302821FF302821FF302821FF302821FF302821FF302821FF302821FF302821FF30
310
2821FF302821FF302821FF302821FF302821FF302821FF302821FF302821FF302821FF302821FF302821FF302821FF302821FF302821FF302821FF302821FF302821FF302821FF302821FF302821FF302821FF302821FF302821FF302821FF302821FF302821FF302821FF302821FF302821FF302821FF302821FF302821FF
310
302821FF302821FF302821FF302821FF302821FF302821FF302821FF302821FF302821FF302821FF302821FF302821FF302821FF302821FF302821FF302821FF302821FF302821FF
  0
BLOCK_RECORD
  5
869F5
330
1
100
AcDbSymbolTableRecord
100
AcDbBlockTableRecord
  2
*D3
340
0
  0
BLOCK_RECORD
  5
86A01
330
1
100
AcDbSymbolTableRecord
100
AcDbBlockTableRecord
  2
*D4
340
0
  0
BLOCK_RECORD
  5
86A16
330
1
100
AcDbSymbolTableRecord
100
AcDbBlockTableRecord
  2
*D5
340
0
  0
BLOCK_RECORD
  5
86B76
330
1
100
AcDbSymbolTableRecord
100
AcDbBlockTableRecord
  2
12-1020-XXE-9-000 Gernerationenkarussell
340
0
310
28000000200000002000000001002000000000000010000001000000010000000000000000000000302821FF302821FF302821FF302821FF302821FF302821FF302821FF302821FF302821FF302821FF302821FF302821FF302821FF302821FF302821FF302821FF302821FF302821FF302821FF302821FF302821FF302821
310
FF302821FF302821FF302821FF302821FF302821FF302821FF302821FF302821FF302821FF302821FF302821FF302821FFFFFFFFFFFFFFFFFFFFFFFFFFFFFFFFFFFFFFFFFFFFFFFFFFFFFFFFFFFFFFFFFFFFFFFFFFFFFFFFFFFFFFFFFFFFFFFFFFFFFFFFFFFFFFFFFFFFFFFFFFFFFFFFFFFFFFFFFFFFFFFFFFFFFFFFFFFFFF
310
FFFFFFFFFFFFFFFFFFFFFFFFFFFFFFFFFFFFFFFFFFFFFFFFFFFFFFFFFFFF302821FF302821FF302821FF302821FF302821FFFFFFFFFF302821FF302821FF302821FF302821FF302821FF302821FF302821FF302821FF302821FFFFFFFFFFFFFFFFFFFFFFFFFFFFFFFFFFFFFFFFFFFFFFFFFFFFFFFFFFFFFFFFFF302821FF30
310
2821FF302821FF302821FF302821FF302821FF302821FF302821FFFFFFFFFF302821FF302821FF302821FF302821FF302821FFFFFFFFFF302821FF302821FF302821FF302821FF302821FF302821FF302821FF302821FF302821FFFFFFFFFFFFFFFFFFFFFFFFFFFFFFFFFFFFFFFFFFFFFFFFFF302821FF302821FF302821FF
310
302821FF302821FF302821FFFFFFFFFFFFFFFFFFFFFFFFFFFFFFFFFFFFFFFFFF302821FF302821FF302821FF302821FF302821FFFFFFFFFF302821FF302821FF302821FF302821FF302821FF302821FF302821FFFFFFFFFFFFFFFFFF302821FF302821FF302821FF302821FF302821FF302821FFFFFFFFFFFFFFFFFFFFFFFF
310
FFFFFFFFFF302821FF302821FFFFFFFFFFFFFFFFFFFFFFFFFFFFFFFFFFFFFFFFFF302821FF302821FF302821FF302821FF302821FFFFFFFFFF302821FF302821FF302821FF302821FF302821FFFFFFFFFFFFFFFFFF302821FF302821FF302821FF302821FF302821FF302821FF302821FF302821FF302821FF302821FF3028
310
21FF302821FFFFFFFFFF302821FF302821FF302821FF302821FF302821FFFFFFFFFF302821FF302821FF302821FF302821FF302821FFFFFFFFFF302821FF302821FF302821FF302821FFFFFFFFFF302821FF302821FF302821FF302821FF302821FF302821FF302821FF302821FF302821FF302821FF302821FF302821FF30
310
2821FF302821FF302821FFFFFFFFFFFFFFFFFF302821FF302821FF302821FFFFFFFFFF302821FF302821FF302821FF302821FF302821FFFFFFFFFF302821FF302821FF302821FFFFFFFFFF302821FF302821FF302821FF302821FF302821FFFFFFFFFFFFFFFFFFFFFFFFFFFFFFFFFFFFFFFFFFFFFFFFFFFFFFFFFFFFFFFFFF
310
302821FF302821FF302821FF302821FF302821FFFFFFFFFF302821FF302821FFFFFFFFFF302821FF302821FF302821FF302821FF302821FFFFFFFFFF302821FF302821FFFFFFFFFF302821FF302821FF302821FF302821FF302821FF302821FFFFFFFFFFFFFFFFFFFFFFFFFFFFFFFFFFFFFFFFFFFFFFFFFFFFFFFFFFFFFFFF
310
FFFFFFFFFF302821FF302821FF302821FF302821FF302821FFFFFFFFFF302821FFFFFFFFFF302821FF302821FF302821FF302821FF302821FFFFFFFFFF302821FFFFFFFFFF302821FF302821FF302821FF302821FF302821FF302821FF302821FFFFFFFFFFFFFFFFFFFFFFFFFFFFFFFFFFFFFFFFFFFFFFFFFFFFFFFFFF3028
310
21FF302821FF302821FF302821FF302821FF302821FF302821FFFFFFFFFF302821FFFFFFFFFF302821FF302821FF302821FF302821FF302821FFFFFFFFFFFFFFFFFF302821FF302821FF302821FF302821FF302821FF302821FF302821FF302821FF302821FF302821FF302821FF302821FF302821FF302821FF302821FF30
310
2821FF302821FF302821FF302821FF302821FF302821FF302821FF302821FFFFFFFFFFFFFFFFFF302821FF302821FF302821FF302821FF302821FFFFFFFFFFFFFFFFFF302821FF302821FF302821FFFFFFFFFFFFFFFFFFFFFFFFFFFFFFFFFFFFFFFFFFFFFFFFFFFFFFFFFFFFFFFFFFFFFFFFFFFFFFFFFFFFFFFFFFFFFFFFFF
310
302821FF302821FF302821FF302821FF302821FF302821FF302821FF302821FF302821FFFFFFFFFF302821FF302821FF302821FF302821FF302821FFFFFFFFFFFFFFFFFF302821FF302821FF302821FF302821FF302821FF302821FF302821FF302821FFFFFFFFFFFFFFFFFFFFFFFFFFFFFFFFFFFFFFFFFFFFFFFFFFFFFFFF
310
FFFFFFFFFF302821FF302821FF302821FF302821FF302821FF302821FF302821FF302821FFFFFFFFFF302821FF302821FF302821FF302821FF302821FFFFFFFFFFFFFFFFFF302821FF302821FF302821FF302821FF302821FF302821FF302821FFFFFFFFFFFFFFFFFFFFFFFFFFFFFFFFFFFFFFFFFFFFFFFFFFFFFFFFFFFFFF
310
FFFFFFFFFFFFFFFFFFFF302821FF302821FF302821FF302821FF302821FF302821FF302821FFFFFFFFFF302821FF302821FF302821FF302821FF302821FFFFFFFFFFFFFFFFFF302821FF302821FF302821FF302821FF302821FF302821FFFFFFFFFFFFFFFFFFFFFFFFFFFFFFFFFFFFFFFFFFFFFFFFFFFFFFFFFFFFFFFFFFFF
310
FFFFFFFFFFFFFFFFFFFFFFFFFFFFFF302821FF302821FF302821FF302821FF302821FF302821FFFFFFFFFF302821FF302821FF302821FF302821FF302821FFFFFFFFFF302821FF302821FF302821FF302821FF302821FF302821FF302821FFFFFFFFFFFFFFFFFFFFFFFFFFFFFFFFFFFFFFFFFFFFFFFFFFFFFFFFFFFFFFFFFF
310
FFFFFFFFFFFFFFFFFFFFFFFFFFFFFFFFFFFFFFFFFFFFFFFFFFFFFFFFFFFFFFFFFFFFFFFFFFFFFFFFFFFFFFFF302821FF302821FF302821FF302821FF302821FFFFFFFFFF302821FF302821FF302821FFFFFFFFFFFFFFFFFFFFFFFFFF302821FFFFFFFFFF302821FF302821FF302821FF302821FFFFFFFFFF302821FF302821
310
FF302821FF302821FF302821FFFFFFFFFFFFFFFFFFFFFFFFFFFFFFFFFF302821FF302821FF302821FFFFFFFFFF302821FF302821FF302821FF302821FF302821FFFFFFFFFF302821FF302821FF302821FFFFFFFFFFFFFFFFFFFFFFFFFF302821FFFFFFFFFF302821FF302821FF302821FF302821FFFFFFFFFF302821FF3028
310
21FF302821FF302821FF302821FFFFFFFFFFFFFFFFFFFFFFFFFFFFFFFFFF302821FF302821FF302821FFFFFFFFFF302821FF302821FF302821FF302821FF302821FFFFFFFFFF302821FF302821FF302821FFFFFFFFFFFFFFFFFFFFFFFFFFFFFFFFFFFFFFFFFFFFFFFFFFFFFFFFFFFFFFFFFFFFFFFFFFFFFFFFFFFFFFFFFFFF
310
FFFFFFFFFFFFFFFFFFFFFFFFFFFFFFFFFFFFFF302821FF302821FF302821FF302821FF302821FF302821FFFFFFFFFF302821FF302821FF302821FF302821FF302821FF302821FFFFFFFFFF302821FF302821FF302821FFFFFFFFFF302821FF302821FFFFFFFFFFFFFFFFFFFFFFFFFFFFFFFFFFFFFFFFFFFFFFFFFFFFFFFFFF
310
FFFFFFFFFFFFFFFFFFFFFFFFFFFFFFFF302821FF302821FF302821FF302821FF302821FF302821FF302821FFFFFFFFFF302821FF302821FF302821FF302821FF302821FF302821FFFFFFFFFF302821FF302821FF302821FF302821FF302821FF302821FF302821FFFFFFFFFFFFFFFFFFFFFFFFFFFFFFFFFFFFFFFFFFFFFFFF
310
FFFFFFFFFFFFFFFFFFFFFFFFFF302821FFFFFFFFFFFFFFFFFFFFFFFFFFFFFFFFFFFFFFFFFFFFFFFFFF302821FFFFFFFFFF302821FF302821FF302821FF302821FF302821FF302821FFFFFFFFFF302821FF302821FF302821FF302821FF302821FF302821FF302821FF302821FFFFFFFFFFFFFFFFFFFFFFFFFFFFFFFFFFFFFF
310
FFFFFFFFFFFFFFFFFFFFFFFFFFFF302821FF302821FFFFFFFFFF302821FF302821FF302821FF302821FF302821FFFFFFFFFF302821FF302821FF302821FF302821FF302821FF302821FFFFFFFFFF302821FF302821FF302821FF302821FF302821FF302821FFFFFFFFFF302821FF302821FFFFFFFFFFFFFFFFFFFFFFFFFFFF
310
FFFFFFFFFFFFFFFFFFFFFF302821FF302821FFFFFFFFFF302821FF302821FF302821FF302821FF302821FFFFFFFFFF302821FF302821FF302821FF302821FF302821FF302821FF302821FF302821FFFFFFFFFF302821FF302821FF302821FF302821FF302821FFFFFFFFFF302821FF302821FFFFFFFFFFFFFFFFFFFFFFFFFF
310
FFFFFFFFFFFFFFFF302821FF302821FF302821FFFFFFFFFF302821FF302821FF302821FF302821FF302821FFFFFFFFFF302821FF302821FF302821FF302821FF302821FF302821FF302821FF302821FFFFFFFFFF302821FF302821FF302821FF302821FF302821FFFFFFFFFFFFFFFFFFFFFFFFFFFFFFFFFFFFFFFFFFFFFFFF
310
FFFFFFFFFFFFFFFFFFFFFFFFFFFFFFFFFFFFFFFFFFFFFFFFFF302821FF302821FF302821FF302821FFFFFFFFFF302821FF302821FF302821FF302821FF302821FF302821FF302821FF302821FF302821FF302821FFFFFFFFFFFFFFFFFF302821FF302821FF302821FF302821FF302821FF302821FF302821FFFFFFFFFFFFFF
310
FFFFFFFFFFFF302821FF302821FF302821FF302821FF302821FF302821FF302821FF302821FFFFFFFFFF302821FF302821FF302821FF302821FF302821FF302821FF302821FF302821FF302821FF302821FF302821FF302821FF302821FFFFFFFFFF302821FF302821FF302821FF302821FF302821FFFFFFFFFFFFFFFFFFFF
310
FFFFFFFFFFFFFFFFFFFFFFFFFFFFFF302821FF302821FF302821FF302821FF302821FFFFFFFFFF302821FF302821FF302821FF302821FF302821FF302821FF302821FF302821FF302821FF302821FF302821FF302821FF302821FF302821FF302821FFFFFFFFFF302821FF302821FF302821FF302821FFFFFFFFFFFFFFFFFF
310
FFFFFFFFFFFFFFFFFFFFFFFFFFFFFFFF302821FF302821FF302821FFFFFFFFFFFFFFFFFF302821FF302821FF302821FF302821FF302821FF302821FF302821FF302821FF302821FF302821FF302821FF302821FF302821FF302821FF302821FF302821FF302821FFFFFFFFFFFFFFFFFF302821FF302821FFFFFFFFFFFFFFFF
310
FFFFFFFFFFFFFFFFFFFFFFFFFF302821FF302821FFFFFFFFFFFFFFFFFF302821FF302821FF302821FF302821FF302821FF302821FF302821FF302821FF302821FF302821FF302821FF302821FF302821FF302821FF302821FF302821FF302821FF302821FF302821FF302821FF302821FFFFFFFFFFFFFFFFFFFFFFFFFFFFFF
310
FFFF302821FF302821FFFFFFFFFFFFFFFFFFFFFFFFFF302821FF302821FF302821FF302821FF302821FF302821FF302821FF302821FF302821FF302821FF302821FF302821FF302821FF302821FF302821FF302821FF302821FF302821FF302821FF302821FF302821FF302821FF302821FF302821FF302821FF302821FF30
310
2821FFFFFFFFFFFFFFFFFF302821FF302821FF302821FF302821FF302821FF302821FF302821FF302821FF302821FF302821FF302821FF302821FF302821FF302821FF302821FF302821FF302821FF302821FF302821FF302821FF302821FF302821FF302821FF302821FF302821FF302821FF302821FF302821FF302821FF
310
302821FF302821FF302821FF302821FF302821FF302821FF302821FF302821FF302821FF302821FF302821FF302821FF302821FF302821FF302821FF302821FF302821FF302821FF
102
{BLKREFS
331
86D59
102
}
1001
ACAD
1000
DesignCenter Data
1002
{
1070
     1
1070
     4
1002
}
  0
BLOCK_RECORD
  5
86D2B
330
1
100
AcDbSymbolTableRecord
100
AcDbBlockTableRecord
  2
*D8
340
0
  0
BLOCK_RECORD
  5
86D37
330
1
100
AcDbSymbolTableRecord
100
AcDbBlockTableRecord
  2
*D9
340
0
  0
BLOCK_RECORD
  5
86D43
330
1
100
AcDbSymbolTableRecord
100
AcDbBlockTableRecord
  2
*D10
340
0
  0
ENDTAB
  0
ENDSEC
  0
SECTION
  2
BLOCKS
  0
BLOCK
  5
24
330
23
100
AcDbEntity
  8
0
100
AcDbBlockBegin
  2
*Model_Space
 70
     0
 10
0.0
 20
0.0
 30
0.0
  3
*Model_Space
  1

  0
ENDBLK
  5
25
330
23
100
AcDbEntity
  8
0
100
AcDbBlockEnd
  0
BLOCK
  5
31D06
330
31D04
100
AcDbEntity
 67
     1
  8
0
100
AcDbBlockBegin
  2
*Paper_Space
 70
     0
 10
0.0
 20
0.0
 30
0.0
  3
*Paper_Space
  1

  0
ENDBLK
  5
31D07
330
31D04
100
AcDbEntity
 67
     1
  8
0
100
AcDbBlockEnd
  0
BLOCK
  5
51993
330
5198F
100
AcDbEntity
  8
0
100
AcDbBlockBegin
  2
Eigentum
 70
     0
 10
0.0
 20
0.0
 30
0.0
  3
Eigentum
  1

  0
MTEXT
  5
51990
102
{ACAD_XDICTIONARY
360
86CAE
102
}
330
5198F
100
AcDbEntity
  8
Text
100
AcDbMText
 10
0.1881376586563874
 20
0.0
 30
0.0
 40
1.9
 41
62.72914090897022
 71
     4
 72
     5
  3
{\fTahoma|b0|i0|c0|p34;\LDiese Zeichnung ist Eigentum der Firma:\P\lESF Emsland Spiel- und Freizeitger\U+00E4te GmbH & Co. KG\PThyssenstra\U+00DFe 7, 49744 Geeste\PTel: 05937/ 97189-0 ; Fax: 05937/ 97189-90\PAlle Rechte sind bei den Autoren.\PDiese U
  1
nterlage darf nicht ohne Zustimmung der o. g. Firma in den Ausschreibungen verwendet werden.\PDer nicht autorisierte Nachbau ist kostenpflichtig.}
  7
2.5
 73
     1
 44
1.0
1001
ACAD
1000
MTEXTBEGIN
1070
    73
1070
     1
1070
    44
1040
1.0
1070
    74
1070
     0
1000
MTEXTEND
  0
ENDBLK
  5
51994
330
5198F
100
AcDbEntity
  8
0
100
AcDbBlockEnd
  0
BLOCK
  5
53F58
330
53F57
100
AcDbEntity
  8
0
100
AcDbBlockBegin
  2
GENAXEH
 70
     0
 10
0.0
 20
0.0
 30
0.0
  3
GENAXEH
  1

  0
LINE
  5
53F59
330
53F57
100
AcDbEntity
  8
0
100
AcDbLine
 10
-1.0
 20
0.0
 30
0.0
 11
1.0
 21
0.0
 31
0.0
  0
ENDBLK
  5
53F5A
330
53F57
100
AcDbEntity
  8
0
100
AcDbBlockEnd
  0
BLOCK
  5
53F5C
330
53F5B
100
AcDbEntity
  8
0
100
AcDbBlockBegin
  2
_ACMFILLED30
 70
     0
 10
0.0
 20
0.0
 30
0.0
  3
_ACMFILLED30
  1

  0
TRACE
  5
53F5D
330
53F5B
100
AcDbEntity
  8
Kontur 18
 62
     0
100
AcDbTrace
 10
-1.0
 20
-0.26794919
 30
0.0
 11
-1.0
 21
0.26794919
 31
0.0
 12
0.0
 22
0.0
 32
0.0
 13
0.0
 23
0.0
 33
0.0
  0
ENDBLK
  5
53F5E
330
53F5B
100
AcDbEntity
  8
0
100
AcDbBlockEnd
  0
BLOCK
  5
869F6
330
869F5
100
AcDbEntity
  8
0
 62
     7
100
AcDbBlockBegin
  2
*D3
 70
     1
 10
0.0
 20
0.0
 30
0.0
  3
*D3
  1

  0
LINE
  5
86B6D
330
869F5
100
AcDbEntity
  8
Bemaßung
 62
     0
 48
0.001
370
    -2
100
AcDbLine
 10
-2609262546.495469
 20
-2523174236.663961
 30
0.0
 11
-2609262546.495469
 21
-2523174236.039577
 31
0.0
  0
LINE
  5
86B6E
330
869F5
100
AcDbEntity
  8
Bemaßung
 62
     0
 48
0.001
370
    -2
100
AcDbLine
 10
-2609262543.485469
 20
-2523174236.663961
 30
0.0
 11
-2609262543.485469
 21
-2523174236.039577
 31
0.0
  0
LINE
  5
86B6F
330
869F5
100
AcDbEntity
  8
Bemaßung
 62
     0
 48
0.001
370
    -2
100
AcDbLine
 10
-2609262546.395469
 20
-2523174236.059577
 30
0.0
 11
-2609262543.585469
 21
-2523174236.059577
 31
0.0
  0
SOLID
  5
86B70
330
869F5
100
AcDbEntity
  8
Bemaßung
 62
     0
 48
0.001
100
AcDbTrace
 10
-2609262546.395469
 20
-2523174236.042911
 30
0.0
 11
-2609262546.395469
 21
-2523174236.076244
 31
0.0
 12
-2609262546.495469
 22
-2523174236.059577
 32
0.0
 13
-2609262546.495469
 23
-2523174236.059577
 33
0.0
  0
SOLID
  5
86B71
330
869F5
100
AcDbEntity
  8
Bemaßung
 62
     0
 48
0.001
100
AcDbTrace
 10
-2609262543.585469
 20
-2523174236.042911
 30
0.0
 11
-2609262543.585469
 21
-2523174236.076244
 31
0.0
 12
-2609262543.485469
 22
-2523174236.059577
 32
0.0
 13
-2609262543.485469
 23
-2523174236.059577
 33
0.0
  0
MTEXT
  5
86B72
102
{ACAD_XDICTIONARY
360
86CBC
102
}
330
869F5
100
AcDbEntity
  8
Bemaßung
 62
     0
 48
0.001
100
AcDbMText
 10
-2609262544.990469
 20
-2523174235.974063
 30
0.0
 40
0.1
 41
0.0
 71
     5
 72
     1
  1
\U+00D8 3,00
 73
     1
 44
1.0
1001
ACAD
1000
MTEXTBEGIN
1070
    73
1070
     1
1070
    44
1040
1.0
1070
    74
1070
     0
1000
MTEXTEND
  0
POINT
  5
86B73
330
869F5
100
AcDbEntity
  8
Defpoints
 62
     0
 48
0.001
100
AcDbPoint
 10
-2609262546.495469
 20
-2523174236.693961
 30
0.0
  0
POINT
  5
86B74
330
869F5
100
AcDbEntity
  8
Defpoints
 62
     0
 48
0.001
100
AcDbPoint
 10
-2609262543.485469
 20
-2523174236.693961
 30
0.0
  0
POINT
  5
86B75
330
869F5
100
AcDbEntity
  8
Defpoints
 62
     0
 48
0.001
100
AcDbPoint
 10
-2609262543.485469
 20
-2523174236.059577
 30
0.0
  0
ENDBLK
  5
869F7
330
869F5
100
AcDbEntity
  8
0
 62
     7
100
AcDbBlockEnd
  0
BLOCK
  5
86A02
330
86A01
100
AcDbEntity
  8
0
 62
     7
100
AcDbBlockBegin
  2
*D4
 70
     1
 10
0.0
 20
0.0
 30
0.0
  3
*D4
  1

  0
LINE
  5
86B5B
330
86A01
100
AcDbEntity
  8
Bemaßung
 62
     0
 48
0.001
370
    -2
100
AcDbLine
 10
-2609262548.495469
 20
-2523174238.143374
 30
0.0
 11
-2609262548.495469
 21
-2523174242.073675
 31
0.0
  0
LINE
  5
86B5C
330
86A01
100
AcDbEntity
  8
Bemaßung
 62
     0
 48
0.001
370
    -2
100
AcDbLine
 10
-2609262541.485469
 20
-2523174238.151707
 30
0.0
 11
-2609262541.485469
 21
-2523174242.073675
 31
0.0
  0
LINE
  5
86B5D
330
86A01
100
AcDbEntity
  8
Bemaßung
 62
     0
 48
0.001
370
    -2
100
AcDbLine
 10
-2609262548.395469
 20
-2523174242.053675
 30
0.0
 11
-2609262541.585469
 21
-2523174242.053675
 31
0.0
  0
SOLID
  5
86B5E
330
86A01
100
AcDbEntity
  8
Bemaßung
 62
     0
 48
0.001
100
AcDbTrace
 10
-2609262548.395469
 20
-2523174242.037008
 30
0.0
 11
-2609262548.395469
 21
-2523174242.070342
 31
0.0
 12
-2609262548.495469
 22
-2523174242.053675
 32
0.0
 13
-2609262548.495469
 23
-2523174242.053675
 33
0.0
  0
SOLID
  5
86B5F
330
86A01
100
AcDbEntity
  8
Bemaßung
 62
     0
 48
0.001
100
AcDbTrace
 10
-2609262541.585469
 20
-2523174242.037008
 30
0.0
 11
-2609262541.585469
 21
-2523174242.070342
 31
0.0
 12
-2609262541.485469
 22
-2523174242.053675
 32
0.0
 13
-2609262541.485469
 23
-2523174242.053675
 33
0.0
  0
MTEXT
  5
86B60
102
{ACAD_XDICTIONARY
360
86CBA
102
}
330
86A01
100
AcDbEntity
  8
Bemaßung
 62
     0
 48
0.001
100
AcDbMText
 10
-2609262544.990469
 20
-2523174241.968161
 30
0.0
 40
0.1
 41
0.0
 71
     5
 72
     1
  1
Sicherheitsbereich \U+00D8 min. 7,00m
 73
     1
 44
1.0
1001
ACAD
1000
MTEXTBEGIN
1070
    73
1070
     1
1070
    44
1040
1.0
1070
    74
1070
     0
1000
MTEXTEND
  0
POINT
  5
86B61
330
86A01
100
AcDbEntity
  8
Defpoints
 62
     0
 48
0.001
100
AcDbPoint
 10
-2609262548.495469
 20
-2523174238.113373
 30
0.0
  0
POINT
  5
86B62
330
86A01
100
AcDbEntity
  8
Defpoints
 62
     0
 48
0.001
100
AcDbPoint
 10
-2609262541.485469
 20
-2523174238.121707
 30
0.0
  0
POINT
  5
86B63
330
86A01
100
AcDbEntity
  8
Defpoints
 62
     0
 48
0.001
100
AcDbPoint
 10
-2609262541.485469
 20
-2523174242.053675
 30
0.0
  0
ENDBLK
  5
86A03
330
86A01
100
AcDbEntity
  8
0
 62
     7
100
AcDbBlockEnd
  0
BLOCK
  5
86A17
330
86A16
100
AcDbEntity
  8
0
 62
     7
100
AcDbBlockBegin
  2
*D5
 70
     1
 10
0.0
 20
0.0
 30
0.0
  3
*D5
  1

  0
LINE
  5
86B64
330
86A16
100
AcDbEntity
  8
Bemaßung
 62
     0
 48
0.001
370
    -2
100
AcDbLine
 10
-2609262543.485469
 20
-2523174238.143374
 30
0.0
 11
-2609262543.485469
 21
-2523174238.534188
 31
0.0
  0
LINE
  5
86B65
330
86A16
100
AcDbEntity
  8
Bemaßung
 62
     0
 48
0.001
370
    -2
100
AcDbLine
 10
-2609262541.485469
 20
-2523174238.143374
 30
0.0
 11
-2609262541.485469
 21
-2523174238.534188
 31
0.0
  0
LINE
  5
86B66
330
86A16
100
AcDbEntity
  8
Bemaßung
 62
     0
 48
0.001
370
    -2
100
AcDbLine
 10
-2609262543.38547
 20
-2523174238.514189
 30
0.0
 11
-2609262541.585469
 21
-2523174238.514189
 31
0.0
  0
SOLID
  5
86B67
330
86A16
100
AcDbEntity
  8
Bemaßung
 62
     0
 48
0.001
100
AcDbTrace
 10
-2609262543.38547
 20
-2523174238.497521
 30
0.0
 11
-2609262543.38547
 21
-2523174238.530855
 31
0.0
 12
-2609262543.485469
 22
-2523174238.514189
 32
0.0
 13
-2609262543.485469
 23
-2523174238.514189
 33
0.0
  0
SOLID
  5
86B68
330
86A16
100
AcDbEntity
  8
Bemaßung
 62
     0
 48
0.001
100
AcDbTrace
 10
-2609262541.585469
 20
-2523174238.497521
 30
0.0
 11
-2609262541.585469
 21
-2523174238.530855
 31
0.0
 12
-2609262541.485469
 22
-2523174238.514189
 32
0.0
 13
-2609262541.485469
 23
-2523174238.514189
 33
0.0
  0
MTEXT
  5
86B69
330
86A16
100
AcDbEntity
  8
Bemaßung
 62
     0
 48
0.001
100
AcDbMText
 10
-2609262542.48547
 20
-2523174238.430723
 30
0.0
 40
0.1
 41
0.0
 71
     5
 72
     1
  1
SB = min. 2,00m
 73
     1
 44
1.0
1001
ACAD
1000
MTEXTBEGIN
1070
    73
1070
     1
1070
    44
1040
1.0
1070
    74
1070
     0
1000
MTEXTEND
  0
POINT
  5
86B6A
330
86A16
100
AcDbEntity
  8
Defpoints
 62
     0
 48
0.001
100
AcDbPoint
 10
-2609262543.485469
 20
-2523174238.113373
 30
0.0
  0
POINT
  5
86B6B
330
86A16
100
AcDbEntity
  8
Defpoints
 62
     0
 48
0.001
100
AcDbPoint
 10
-2609262541.485469
 20
-2523174238.113373
 30
0.0
  0
POINT
  5
86B6C
330
86A16
100
AcDbEntity
  8
Defpoints
 62
     0
 48
0.001
100
AcDbPoint
 10
-2609262541.485469
 20
-2523174238.514189
 30
0.0
  0
ENDBLK
  5
86A18
330
86A16
100
AcDbEntity
  8
0
 62
     7
100
AcDbBlockEnd
  0
BLOCK
  5
86B77
330
86B76
100
AcDbEntity
  8
0
 62
     7
100
AcDbBlockBegin
  2
12-1020-XXE-9-000 Gernerationenkarussell
 70
     0
 10
0.0
 20
0.0
 30
0.0
  3
12-1020-XXE-9-000 Gernerationenkarussell
  1

  0
HATCH
  5
86B79
330
86B76
100
AcDbEntity
  8
Schraffur
 62
     7
 48
0.001
370
     5
100
AcDbHatch
 10
0.0
 20
0.0
 30
0.0
210
0.0
220
0.0
230
1.0
  2
ANGLE
 70
     0
 71
     0
 91
        2
 92
        7
 72
     0
 73
     1
 93
       81
 10
-2609262544.180453
 20
-2523174237.084625
 10
-2609262544.206324
 20
-2523174237.064468
 10
-2609262544.227971
 20
-2523174237.048098
 10
-2609262544.262167
 20
-2523174237.024856
 10
-2609262544.290391
 20
-2523174237.006739
 10
-2609262544.318613
 20
-2523174236.98862
 10
-2609262544.348784
 20
-2523174236.971672
 10
-2609262544.369644
 20
-2523174236.959953
 10
-2609262544.391588
 20
-2523174236.948291
 10
-2609262544.419022
 20
-2523174236.934324
 10
-2609262544.443435
 20
-2523174236.922834
 10
-2609262544.481384
 20
-2523174236.907411
 10
-2609262544.683605
 20
-2523174237.263752
 10
-2609262544.696
 20
-2523174237.284822
 10
-2609262544.666116
 20
-2523174237.29095
 10
-2609262544.64727
 20
-2523174237.296518
 10
-2609262544.624549
 20
-2523174237.305295
 10
-2609262544.604997
 20
-2523174237.315207
 10
-2609262544.585679
 20
-2523174237.325572
 10
-2609262544.563158
 20
-2523174237.340498
 10
-2609262544.544379
 20
-2523174237.354425
 10
-2609262544.526219
 20
-2523174237.369769
 10
-2609262544.510807
 20
-2523174237.384699
 10
-2609262544.496477
 20
-2523174237.400704
 10
-2609262544.482302
 20
-2523174237.418943
 10
-2609262544.460073
 20
-2523174237.452523
 10
-2609262544.449054
 20
-2523174237.470115
 10
-2609262544.432429
 20
-2523174237.496812
 10
-2609262544.416123
 20
-2523174237.519527
 10
-2609262544.408554
 20
-2523174237.530307
 10
-2609262544.398229
 20
-2523174237.541543
 10
-2609262544.387217
 20
-2523174237.552319
 10
-2609262544.374598
 20
-2523174237.561951
 10
-2609262544.360373
 20
-2523174237.571581
 10
-2609262544.337142
 20
-2523174237.583565
 10
-2609262544.316266
 20
-2523174237.592507
 10
-2609262544.288733
 20
-2523174237.601452
 10
-2609262544.253808
 20
-2523174237.611034
 10
-2609262544.236672
 20
-2523174237.615122
 10
-2609262544.221146
 20
-2523174237.618532
 10
-2609262544.203127
 20
-2523174237.622142
 10
-2609262544.190118
 20
-2523174237.624518
 10
-2609262544.166214
 20
-2523174237.628391
 10
-2609262544.146809
 20
-2523174237.631065
 10
-2609262544.126325
 20
-2523174237.633439
 10
-2609262544.106166
 20
-2523174237.635326
 10
-2609262544.090489
 20
-2523174237.636488
 10
-2609262544.075846
 20
-2523174237.637333
 10
-2609262544.057509
 20
-2523174237.638065
 10
-2609262544.046247
 20
-2523174237.638334
 10
-2609262544.030242
 20
-2523174237.638482
 10
-2609262544.010579
 20
-2523174237.638286
 10
-2609262543.992537
 20
-2523174237.63774
 10
-2609262543.972823
 20
-2523174237.636742
 10
-2609262543.94954
 20
-2523174237.635021
 10
-2609262543.928226
 20
-2523174237.632928
 10
-2609262543.917852
 20
-2523174237.631729
 10
-2609262543.902983
 20
-2523174237.629805
 10
-2609262543.888574
 20
-2523174237.627706
 10
-2609262543.874037
 20
-2523174237.625354
 10
-2609262543.864657
 20
-2523174237.623711
 10
-2609262543.847068
 20
-2523174237.620361
 10
-2609262543.832107
 20
-2523174237.617233
 10
-2609262543.819252
 20
-2523174237.61434
 10
-2609262543.807254
 20
-2523174237.611466
 10
-2609262543.784057
 20
-2523174237.605428
 10
-2609262543.788601
 20
-2523174237.592473
 10
-2609262543.800007
 20
-2523174237.566784
 10
-2609262543.819517
 20
-2523174237.526323
 10
-2609262543.842207
 20
-2523174237.483085
 10
-2609262543.864146
 20
-2523174237.445424
 10
-2609262543.886754
 20
-2523174237.40835
 10
-2609262543.904428
 20
-2523174237.38143
 10
-2609262543.935634
 20
-2523174237.336255
 10
-2609262543.957182
 20
-2523174237.308293
 10
-2609262543.976333
 20
-2523174237.285469
 10
-2609262544.010199
 20
-2523174237.245109
 10
-2609262544.043869
 20
-2523174237.208702
 10
-2609262544.108891
 20
-2523174237.145008
 10
-2609262544.130897
 20
-2523174237.124754
 10
-2609262544.150281
 20
-2523174237.109057
 97
        0
 92
       24
 93
        4
 72
     1
 10
-2609262544.422923
 20
-2523174237.216941
 11
-2609262544.142336
 21
-2523174237.216941
 72
     1
 10
-2609262544.142336
 20
-2523174237.216941
 11
-2609262544.142336
 21
-2523174237.340746
 72
     1
 10
-2609262544.142336
 20
-2523174237.340746
 11
-2609262544.422923
 21
-2523174237.340746
 72
     1
 10
-2609262544.422923
 20
-2523174237.340746
 11
-2609262544.422923
 21
-2523174237.216941
 97
        0
 75
     0
 76
     1
 52
329.0
 41
0.005
 77
     0
 78
     2
 53
329.0
 43
-2609262596.863161
 44
-2523174272.248928
 45
0.0179877047662337
 46
0.0299365679770213
 79
     2
 49
0.0254
 49
-0.009525
 53
59.00000000000003
 43
-2609262596.863161
 44
-2523174272.248928
 45
-0.0299365679770213
 46
0.0179877047662337
 79
     2
 49
0.0254
 49
-0.009525
 47
2.021807709431783
 98
        2
 10
-2609262544.292417
 20
-2523174237.099451
 10
-2609262544.848807
 20
-2523174237.08732
1001
ACAD
1010
0.0
1020
0.0
1030
0.0
  0
HATCH
  5
86B7A
330
86B76
100
AcDbEntity
  8
Kontur 09
 62
     7
 48
0.001
100
AcDbHatch
 10
0.0
 20
0.0
 30
0.0
210
0.0
220
0.0
230
1.0
  2
ANGLE
 70
     0
 71
     0
 91
        1
 92
       23
 72
     1
 73
     1
 93
        2
 10
-2609262544.853571
 20
-2523174238.876827
 42
-1.0
 10
-2609262544.820571
 20
-2523174238.876827
 42
-1.0
 97
        0
 75
     0
 76
     1
 52
0.0
 41
0.005
 77
     0
 78
     2
 53
0.0
 43
-2609262596.863161
 44
-2523174272.248928
 45
0.0
 46
0.034925
 79
     2
 49
0.0254
 49
-0.009525
 53
90.0
 43
-2609262596.863161
 44
-2523174272.248928
 45
-0.034925
 46
0.0
 79
     2
 49
0.0254
 49
-0.009525
 47
1.793880118806292
 98
       19
 10
-2609262545.517007
 20
-2523174238.948759
 10
-2609262545.517007
 20
-2523174238.948759
 10
-2609262545.517007
 20
-2523174238.948759
 10
-2609262545.517007
 20
-2523174238.948759
 10
-2609262545.517007
 20
-2523174238.948759
 10
-2609262545.517007
 20
-2523174238.948759
 10
-2609262544.599686
 20
-2523174239.047423
 10
-2609262544.599686
 20
-2523174239.047423
 10
-2609262544.599686
 20
-2523174239.047423
 10
-2609262544.599686
 20
-2523174239.047423
 10
-2609262544.599686
 20
-2523174239.047423
 10
-2609262544.599686
 20
-2523174239.047423
 10
-2609262545.059476
 20
-2523174239.34101
 10
-2609262545.059476
 20
-2523174239.34101
 10
-2609262545.059476
 20
-2523174239.34101
 10
-2609262545.059476
 20
-2523174239.34101
 10
-2609262545.059476
 20
-2523174239.34101
 10
-2609262544.292417
 20
-2523174237.099451
 10
-2609262544.848807
 20
-2523174237.08732
1001
ACAD
1010
0.0
1020
0.0
1030
0.0
  0
HATCH
  5
86B7B
330
86B76
100
AcDbEntity
  8
Schraffur
 62
     7
 48
0.001
370
     5
100
AcDbHatch
 10
0.0
 20
0.0
 30
0.0
210
0.0
220
0.0
230
1.0
  2
ANGLE
 70
     0
 71
     0
 91
        2
 92
        7
 72
     1
 73
     1
 93
       44
 10
-2609262544.481384
 20
-2523174236.907411
 42
0.0
 10
-2609262544.482529
 20
-2523174236.906915
 42
-0.1934503059695098
 10
-2609262544.497037
 20
-2523174236.900626
 42
0.0
 10
-2609262544.503355
 20
-2523174236.897887
 42
0.0
 10
-2609262544.517277
 20
-2523174236.891899
 42
0.0
 10
-2609262544.539979
 20
-2523174236.883382
 42
0.0
 10
-2609262544.557988
 20
-2523174236.876915
 42
0.0
 10
-2609262544.580259
 20
-2523174236.869257
 42
0.0
 10
-2609262544.614896
 20
-2523174236.858388
 42
0.0
 10
-2609262544.645954
 20
-2523174236.849488
 42
0.0
 10
-2609262544.673692
 20
-2523174236.842373
 42
0.0
 10
-2609262544.701028
 20
-2523174236.835977
 42
0.0
 10
-2609262544.733908
 20
-2523174236.828742
 42
0.0
 10
-2609262544.763494
 20
-2523174236.823536
 42
0.0
 10
-2609262544.808012
 20
-2523174236.816272
 42
0.0
 10
-2609262544.845488
 20
-2523174236.811512
 42
0.0
 10
-2609262544.895248
 20
-2523174236.806954
 42
0.0
 10
-2609262544.928504
 20
-2523174236.804996
 42
0.0
 10
-2609262544.961361
 20
-2523174236.803896
 42
0.0
 10
-2609262545.004912
 20
-2523174236.803538
 42
0.0
 10
-2609262545.052315
 20
-2523174236.804942
 42
0.0
 10
-2609262545.100453
 20
-2523174236.808048
 42
0.0
 10
-2609262545.13222
 20
-2523174236.811123
 42
0.0
 10
-2609262545.191703
 20
-2523174236.818224
 42
0.0
 10
-2609262545.226581
 20
-2523174236.822964
 42
0.0
 10
-2609262545.087585
 20
-2523174237.369544
 42
0.0
 10
-2609262545.087152
 20
-2523174237.371247
 42
0.0
 10
-2609262545.079034
 20
-2523174237.366158
 42
0.0
 10
-2609262545.065513
 20
-2523174237.357427
 42
0.0
 10
-2609262545.047581
 20
-2523174237.346669
 42
0.0
 10
-2609262545.034392
 20
-2523174237.339368
 42
0.0
 10
-2609262545.009757
 20
-2523174237.327071
 42
0.0
 10
-2609262544.987858
 20
-2523174237.317576
 42
0.0
 10
-2609262544.967221
 20
-2523174237.309842
 42
0.0
 10
-2609262544.937702
 20
-2523174237.300807
 42
0.0
 10
-2609262544.917593
 20
-2523174237.295951
 42
0.0
 10
-2609262544.892765
 20
-2523174237.291164
 42
0.0
 10
-2609262544.867914
 20
-2523174237.287458
 42
0.0
 10
-2609262544.842065
 20
-2523174237.2845
 42
0.0
 10
-2609262544.812594
 20
-2523174237.28212
 42
0.0
 10
-2609262544.772804
 20
-2523174237.280671
 42
0.0
 10
-2609262544.740286
 20
-2523174237.281121
 42
0.0
 10
-2609262544.701516
 20
-2523174237.284387
 42
0.0
 10
-2609262544.696419
 20
-2523174237.285112
 42
0.0
 97
        0
 92
       24
 93
        4
 72
     1
 10
-2609262545.089179
 20
-2523174236.969041
 11
-2609262544.808592
 21
-2523174236.969041
 72
     1
 10
-2609262544.808592
 20
-2523174236.969041
 11
-2609262544.808592
 21
-2523174237.092846
 72
     1
 10
-2609262544.808592
 20
-2523174237.092846
 11
-2609262545.08918
 21
-2523174237.092846
 72
     1
 10
-2609262545.089179
 20
-2523174237.092846
 11
-2609262545.089179
 21
-2523174236.969041
 97
        0
 75
     0
 76
     1
 52
0.0
 41
0.005
 77
     0
 78
     2
 53
0.0
 43
-2609262596.863161
 44
-2523174272.248928
 45
0.0
 46
0.034925
 79
     2
 49
0.0254
 49
-0.009525
 53
90.0
 43
-2609262596.863161
 44
-2523174272.248928
 45
-0.034925
 46
0.0
 79
     2
 49
0.0254
 49
-0.009525
 47
5.176259623565184
 98
        7
 10
-2609262545.059476
 20
-2523174239.34101
 10
-2609262545.059476
 20
-2523174239.34101
 10
-2609262545.059476
 20
-2523174239.34101
 10
-2609262545.059476
 20
-2523174239.34101
 10
-2609262545.059476
 20
-2523174239.34101
 10
-2609262544.292417
 20
-2523174237.099451
 10
-2609262544.848807
 20
-2523174237.08732
1001
ACAD
1010
0.0
1020
0.0
1030
0.0
  0
HATCH
  5
86B7C
330
86B76
100
AcDbEntity
  8
Schraffur
 62
     7
 48
0.001
370
     5
100
AcDbHatch
 10
0.0
 20
0.0
 30
0.0
210
0.0
220
0.0
230
1.0
  2
ANGLE
 70
     0
 71
     0
 91
        3
 92
        7
 72
     1
 73
     1
 93
      131
 10
-2609262545.653945
 20
-2523174237.616943
 42
0.0
 10
-2609262545.588317
 20
-2523174237.605843
 42
0.0
 10
-2609262545.554232
 20
-2523174237.598971
 42
0.0
 10
-2609262545.546274
 20
-2523174237.597255
 42
0.0
 10
-2609262545.539333
 20
-2523174237.595535
 42
0.0
 10
-2609262545.515616
 20
-2523174237.591435
 42
0.0
 10
-2609262545.504215
 20
-2523174237.588543
 42
0.0
 10
-2609262545.487426
 20
-2523174237.584286
 42
0.0
 10
-2609262545.46624
 20
-2523174237.578684
 42
0.0
 10
-2609262545.447782
 20
-2523174237.573567
 42
0.0
 10
-2609262545.426989
 20
-2523174237.567491
 42
0.0
 10
-2609262545.414308
 20
-2523174237.562832
 42
0.0
 10
-2609262545.384203
 20
-2523174237.551049
 42
0.0
 10
-2609262545.370602
 20
-2523174237.545347
 42
0.0
 10
-2609262545.353101
 20
-2523174237.53801
 42
0.0
 10
-2609262545.338823
 20
-2523174237.531435
 42
0.0
 10
-2609262545.321248
 20
-2523174237.523145
 42
0.0
 10
-2609262545.301187
 20
-2523174237.513304
 42
0.0
 10
-2609262545.292962
 20
-2523174237.509103
 42
0.0
 10
-2609262545.281362
 20
-2523174237.502997
 42
0.0
 10
-2609262545.262859
 20
-2523174237.492795
 42
0.0
 10
-2609262545.251235
 20
-2523174237.486385
 42
0.0
 10
-2609262545.243594
 20
-2523174237.481999
 42
0.0
 10
-2609262545.233965
 20
-2523174237.476255
 42
0.0
 10
-2609262545.225631
 20
-2523174237.471216
 42
0.0
 10
-2609262545.218452
 20
-2523174237.466593
 42
0.0
 10
-2609262545.212765
 20
-2523174237.462928
 42
0.0
 10
-2609262545.206349
 20
-2523174237.458796
 42
0.0
 10
-2609262545.201824
 20
-2523174237.455882
 42
0.0
 10
-2609262545.196112
 20
-2523174237.452012
 42
0.0
 10
-2609262545.189858
 20
-2523174237.447668
 42
0.0
 10
-2609262545.182251
 20
-2523174237.442262
 42
0.0
 10
-2609262545.175102
 20
-2523174237.436998
 42
0.0
 10
-2609262545.169948
 20
-2523174237.433203
 42
0.0
 10
-2609262545.165043
 20
-2523174237.429592
 42
0.0
 10
-2609262545.158774
 20
-2523174237.424787
 42
0.0
 10
-2609262545.153264
 20
-2523174237.420566
 42
0.0
 10
-2609262545.147929
 20
-2523174237.416477
 42
0.0
 10
-2609262545.138213
 20
-2523174237.409017
 42
0.0
 10
-2609262545.134029
 20
-2523174237.405791
 42
0.0
 10
-2609262545.128786
 20
-2523174237.401765
 42
0.0
 10
-2609262545.123675
 20
-2523174237.397864
 42
0.0
 10
-2609262545.118797
 20
-2523174237.394168
 42
0.0
 10
-2609262545.114316
 20
-2523174237.390803
 42
0.0
 10
-2609262545.108388
 20
-2523174237.386436
 42
0.0
 10
-2609262545.103713
 20
-2523174237.382991
 42
0.0
 10
-2609262545.097574
 20
-2523174237.378538
 42
0.0
 10
-2609262545.092816
 20
-2523174237.375175
 42
0.0
 10
-2609262545.087152
 20
-2523174237.371247
 42
0.0
 10
-2609262545.226581
 20
-2523174236.822964
 42
0.0
 10
-2609262545.278763
 20
-2523174236.836248
 42
0.0
 10
-2609262545.311297
 20
-2523174236.843593
 42
0.0
 10
-2609262545.347628
 20
-2523174236.852947
 42
0.0
 10
-2609262545.376283
 20
-2523174236.86144
 42
0.0
 10
-2609262545.429585
 20
-2523174236.8798
 42
0.0
 10
-2609262545.44289
 20
-2523174236.8847
 42
0.0
 10
-2609262545.476939
 20
-2523174236.89724
 42
0.0
 10
-2609262545.483313
 20
-2523174236.900006
 42
-0.2142855132728395
 10
-2609262545.499252
 20
-2523174236.906921
 42
0.0
 10
-2609262545.512105
 20
-2523174236.912497
 42
0.0
 10
-2609262545.557199
 20
-2523174236.933801
 42
0.0
 10
-2609262545.587399
 20
-2523174236.948031
 42
0.0
 10
-2609262545.617891
 20
-2523174236.963762
 42
0.0
 10
-2609262545.669682
 20
-2523174236.993883
 42
0.0
 10
-2609262545.69971
 20
-2523174237.01259
 42
0.0
 10
-2609262545.727272
 20
-2523174237.032188
 42
0.0
 10
-2609262545.748606
 20
-2523174237.047357
 42
0.0
 10
-2609262545.79494
 20
-2523174237.080304
 42
0.0
 10
-2609262545.81836
 20
-2523174237.098378
 42
0.0
 10
-2609262545.84334
 20
-2523174237.119292
 42
0.0
 10
-2609262545.873721
 20
-2523174237.146577
 42
0.0
 10
-2609262545.889754
 20
-2523174237.161543
 42
0.0
 10
-2609262545.904266
 20
-2523174237.175091
 42
0.0
 10
-2609262545.924893
 20
-2523174237.19564
 42
0.0
 10
-2609262545.940017
 20
-2523174237.211879
 42
0.0
 10
-2609262545.954101
 20
-2523174237.227
 42
0.0
 10
-2609262545.970497
 20
-2523174237.244603
 42
0.0
 10
-2609262545.984071
 20
-2523174237.260371
 42
0.0
 10
-2609262546.001032
 20
-2523174237.28116
 42
0.0
 10
-2609262546.016349
 20
-2523174237.299935
 42
0.0
 10
-2609262546.035817
 20
-2523174237.323795
 42
0.0
 10
-2609262546.042923
 20
-2523174237.333301
 42
0.0
 10
-2609262546.049122
 20
-2523174237.342274
 42
0.0
 10
-2609262546.060338
 20
-2523174237.358504
 42
0.0
 10
-2609262546.067798
 20
-2523174237.369302
 42
0.0
 10
-2609262546.082759
 20
-2523174237.391113
 42
0.0
 10
-2609262546.085606
 20
-2523174237.395553
 42
0.0
 10
-2609262546.090169
 20
-2523174237.40267
 42
0.0
 10
-2609262546.09644
 20
-2523174237.412451
 42
0.0
 10
-2609262546.101358
 20
-2523174237.420122
 42
0.0
 10
-2609262546.108252
 20
-2523174237.430875
 42
0.0
 10
-2609262546.11441
 20
-2523174237.440479
 42
0.0
 10
-2609262546.120023
 20
-2523174237.44958
 42
0.0
 10
-2609262546.125154
 20
-2523174237.458683
 42
0.0
 10
-2609262546.132412
 20
-2523174237.47156
 42
0.0
 10
-2609262546.13897
 20
-2523174237.483195
 42
0.0
 10
-2609262546.145278
 20
-2523174237.494774
 42
0.0
 10
-2609262546.148783
 20
-2523174237.501647
 42
0.0
 10
-2609262546.152092
 20
-2523174237.508132
 42
0.0
 10
-2609262546.16129
 20
-2523174237.526164
 42
0.0
 10
-2609262546.165393
 20
-2523174237.53421
 42
0.0
 10
-2609262546.171257
 20
-2523174237.545708
 42
0.0
 10
-2609262546.175208
 20
-2523174237.554752
 42
0.0
 10
-2609262546.18073
 20
-2523174237.56739
 42
0.0
 10
-2609262546.18333
 20
-2523174237.573343
 42
0.0
 10
-2609262546.186411
 20
-2523174237.580395
 42
0.0
 10
-2609262546.188885
 20
-2523174237.586059
 42
0.0
 10
-2609262546.190709
 20
-2523174237.590234
 42
0.0
 10
-2609262546.192349
 20
-2523174237.59399
 42
0.0
 10
-2609262546.193241
 20
-2523174237.596031
 42
0.0
 10
-2609262546.194277
 20
-2523174237.598399
 42
0.0
 10
-2609262546.195934
 20
-2523174237.602195
 42
0.0
 10
-2609262546.196921
 20
-2523174237.604816
 42
-0.0006061351737932
 10
-2609262546.196921
 20
-2523174237.604867
 42
0.0
 10
-2609262546.172903
 20
-2523174237.60931
 42
0.0
 10
-2609262546.158295
 20
-2523174237.611844
 42
0.0
 10
-2609262546.140705
 20
-2523174237.614711
 42
0.0
 10
-2609262546.122488
 20
-2523174237.617471
 42
0.0
 10
-2609262546.106201
 20
-2523174237.619758
 42
0.0
 10
-2609262546.076217
 20
-2523174237.623528
 42
0.0
 10
-2609262546.045738
 20
-2523174237.626777
 42
0.0
 10
-2609262546.02655
 20
-2523174237.628523
 42
0.0
 10
-2609262546.006251
 20
-2523174237.63012
 42
0.0
 10
-2609262545.986743
 20
-2523174237.631409
 42
0.0
 10
-2609262545.973198
 20
-2523174237.632166
 42
0.0
 10
-2609262545.944
 20
-2523174237.633409
 42
0.0
 10
-2609262545.917559
 20
-2523174237.634077
 42
0.0
 10
-2609262545.865748
 20
-2523174237.63413
 42
0.0
 10
-2609262545.806913
 20
-2523174237.63217
 42
0.0
 10
-2609262545.755781
 20
-2523174237.628716
 42
0.0
 10
-2609262545.703592
 20
-2523174237.623502
 42
0.0
 97
        0
 92
       24
 93
        4
 72
     1
 10
-2609262545.614865
 20
-2523174237.193283
 11
-2609262545.335405
 21
-2523174237.193283
 72
     1
 10
-2609262545.335405
 20
-2523174237.193283
 11
-2609262545.335405
 21
-2523174237.317136
 72
     1
 10
-2609262545.335405
 20
-2523174237.317134
 11
-2609262545.614865
 21
-2523174237.317134
 72
     1
 10
-2609262545.614865
 20
-2523174237.317134
 11
-2609262545.614865
 21
-2523174237.193283
 97
        0
 92
        9
 93
        4
 72
     1
 10
-2609262545.089179
 20
-2523174236.969041
 11
-2609262544.808592
 21
-2523174236.969041
 72
     1
 10
-2609262544.808592
 20
-2523174236.969041
 11
-2609262544.808592
 21
-2523174237.092846
 72
     1
 10
-2609262544.808592
 20
-2523174237.092846
 11
-2609262545.08918
 21
-2523174237.092846
 72
     1
 10
-2609262545.089179
 20
-2523174237.092846
 11
-2609262545.089179
 21
-2523174236.969041
 97
        0
 75
     0
 76
     1
 52
14.0
 41
0.005
 77
     0
 78
     2
 53
14.0
 43
-2609262596.863161
 44
-2523174272.248928
 45
-0.0084491222038184
 46
0.0338875782401892
 79
     2
 49
0.0254
 49
-0.009525
 53
104.0
 43
-2609262596.863161
 44
-2523174272.248928
 45
-0.0338875782401892
 46
-0.0084491222038184
 79
     2
 49
0.0254
 49
-0.009525
 47
2.021807709431783
 98
        1
 10
-2609262545.711127
 20
-2523174237.357735
1001
ACAD
1010
0.0
1020
0.0
1030
0.0
  0
CIRCLE
  5
86B7D
330
86B76
100
AcDbEntity
  8
Kontur 25
 62
     7
 48
0.001
100
AcDbCircle
 10
-2609262545.498979
 20
-2523174236.885723
 30
0.0
 40
0.0212
1001
AcDbBlockRepETag
1070
     1
1071
      463
1005
0
  0
CIRCLE
  5
86B7E
330
86B76
100
AcDbEntity
  8
Kontur 25
 62
     7
 48
0.001
100
AcDbCircle
 10
-2609262544.481959
 20
-2523174236.885723
 30
0.0
 40
0.0212
1001
AcDbBlockRepETag
1070
     1
1071
      464
1005
0
  0
CIRCLE
  5
86B7F
330
86B76
100
AcDbEntity
  8
Kontur 25
 62
     7
 48
0.001
100
AcDbCircle
 10
-2609262543.762818
 20
-2523174237.604865
 30
0.0
 40
0.0212
1001
AcDbBlockRepETag
1070
     1
1071
      465
1005
0
  0
MTEXT
  5
86B80
102
{ACAD_XDICTIONARY
360
86B81
102
}
330
86B76
100
AcDbEntity
  8
Text
 62
     7
 48
0.001
100
AcDbMText
 10
-2609262545.597365
 20
-2523174237.210783
 30
0.0
 40
0.07
 41
0.2442197817189632
 71
     1
 72
     5
  1
+0,35
 73
     1
 44
1.0
1001
AcDbBlockRepETag
1070
     1
1071
      466
1005
0
1001
AcadAnnotative
1000
AnnotativeData
1002
{
1070
     1
1070
     0
1002
}
1001
ACAD
1000
MTEXTBEGIN
1070
    73
1070
     1
1070
    44
1040
1.0
1070
    74
1070
     0
1000
MTEXTEND
  0
MTEXT
  5
86B84
102
{ACAD_XDICTIONARY
360
86B85
102
}
330
86B76
100
AcDbEntity
  8
Text
 62
     7
 48
0.001
100
AcDbMText
 10
-2609262544.405423
 20
-2523174237.234441
 30
0.0
 40
0.07
 41
0.2434557980900409
 71
     1
 72
     5
  1
+0,49
 73
     1
 44
1.0
1001
AcDbBlockRepETag
1070
     1
1071
      467
1005
0
1001
AcadAnnotative
1000
AnnotativeData
1002
{
1070
     1
1070
     0
1002
}
1001
ACAD
1000
MTEXTBEGIN
1070
    73
1070
     1
1070
    44
1040
1.0
1070
    74
1070
     0
1000
MTEXTEND
  0
MTEXT
  5
86B88
102
{ACAD_XDICTIONARY
360
86B89
102
}
330
86B76
100
AcDbEntity
  8
Text
 62
     7
 48
0.001
100
AcDbMText
 10
-2609262545.071679
 20
-2523174236.986541
 30
0.0
 40
0.07
 41
0.2434557980900409
 71
     1
 72
     5
  1
+0,40
 73
     1
 44
1.0
1001
AcDbBlockRepETag
1070
     1
1071
      468
1005
0
1001
AcadAnnotative
1000
AnnotativeData
1002
{
1070
     1
1070
     0
1002
}
1001
ACAD
1000
MTEXTBEGIN
1070
    73
1070
     1
1070
    44
1040
1.0
1070
    74
1070
     0
1000
MTEXTEND
  0
HATCH
  5
86B8C
330
86B76
100
AcDbEntity
  8
Schraffur
 62
     7
 48
0.001
370
     5
100
AcDbHatch
 10
0.0
 20
0.0
 30
0.0
210
0.0
220
0.0
230
1.0
  2
ANGLE
 70
     0
 71
     0
 91
        2
 92
        7
 72
     0
 73
     1
 93
       42
 10
-2609262544.893805
 20
-2523174238.856064
 10
-2609262544.901884
 20
-2523174238.861522
 10
-2609262544.915405
 20
-2523174238.870252
 10
-2609262544.933339
 20
-2523174238.88101
 10
-2609262544.946527
 20
-2523174238.888313
 10
-2609262544.971163
 20
-2523174238.900609
 10
-2609262544.993061
 20
-2523174238.910104
 10
-2609262545.013698
 20
-2523174238.917838
 10
-2609262545.043216
 20
-2523174238.926873
 10
-2609262545.063325
 20
-2523174238.931729
 10
-2609262545.088154
 20
-2523174238.936515
 10
-2609262545.113005
 20
-2523174238.940222
 10
-2609262545.138854
 20
-2523174238.94318
 10
-2609262545.168324
 20
-2523174238.945561
 10
-2609262545.208115
 20
-2523174238.94701
 10
-2609262545.240632
 20
-2523174238.946559
 10
-2609262545.279403
 20
-2523174238.943293
 10
-2609262545.28473
 20
-2523174238.942535
 10
-2609262545.297313
 20
-2523174238.963929
 10
-2609262545.499535
 20
-2523174239.320269
 10
-2609262545.477564
 20
-2523174239.329792
 10
-2609262545.463642
 20
-2523174239.33578
 10
-2609262545.44094
 20
-2523174239.344298
 10
-2609262545.422931
 20
-2523174239.350765
 10
-2609262545.40066
 20
-2523174239.358424
 10
-2609262545.366024
 20
-2523174239.369292
 10
-2609262545.334965
 20
-2523174239.378193
 10
-2609262545.307228
 20
-2523174239.385307
 10
-2609262545.27989
 20
-2523174239.391703
 10
-2609262545.247011
 20
-2523174239.398937
 10
-2609262545.217424
 20
-2523174239.404144
 10
-2609262545.172907
 20
-2523174239.411408
 10
-2609262545.135431
 20
-2523174239.416168
 10
-2609262545.085671
 20
-2523174239.420725
 10
-2609262545.052415
 20
-2523174239.422683
 10
-2609262545.019558
 20
-2523174239.423785
 10
-2609262544.976006
 20
-2523174239.424143
 10
-2609262544.928605
 20
-2523174239.422738
 10
-2609262544.880466
 20
-2523174239.419632
 10
-2609262544.848701
 20
-2523174239.416558
 10
-2609262544.813902
 20
-2523174239.412312
 10
-2609262544.754376
 20
-2523174239.404346
 97
        0
 92
       24
 93
        4
 72
     1
 10
-2609262545.261181
 20
-2523174238.983873
 11
-2609262544.980595
 21
-2523174238.983873
 72
     1
 10
-2609262544.980595
 20
-2523174238.983873
 11
-2609262544.980595
 21
-2523174239.107678
 72
     1
 10
-2609262544.980595
 20
-2523174239.107678
 11
-2609262545.261181
 21
-2523174239.107678
 72
     1
 10
-2609262545.261181
 20
-2523174239.107678
 11
-2609262545.261181
 21
-2523174238.983873
 97
        0
 75
     0
 76
     1
 52
0.0
 41
0.005
 77
     0
 78
     2
 53
0.0
 43
-2609262596.863161
 44
-2523174274.01164
 45
0.0
 46
0.034925
 79
     2
 49
0.0254
 49
-0.009525
 53
90.0
 43
-2609262596.863161
 44
-2523174274.01164
 45
-0.034925
 46
0.0
 79
     2
 49
0.0254
 49
-0.009525
 47
3.465709045234028
 98
        2
 10
-2609262545.088965
 20
-2523174239.179467
 10
-2609262545.211572
 20
-2523174238.52402
1001
ACAD
1010
0.0
1020
0.0
1030
0.0
  0
HATCH
  5
86B8D
330
86B76
100
AcDbEntity
  8
Schraffur
 62
     7
 48
0.001
370
     5
100
AcDbHatch
 10
0.0
 20
0.0
 30
0.0
210
0.0
220
0.0
230
1.0
  2
ANGLE
 70
     0
 71
     0
 91
        2
 92
        7
 72
     1
 73
     1
 93
      130
 10
-2609262544.162596
 20
-2523174239.128933
 42
0.0
 10
-2609262544.137616
 20
-2523174239.10802
 42
0.0
 10
-2609262544.107235
 20
-2523174239.080734
 42
0.0
 10
-2609262544.091204
 20
-2523174239.065768
 42
0.0
 10
-2609262544.076691
 20
-2523174239.052219
 42
0.0
 10
-2609262544.056065
 20
-2523174239.03167
 42
0.0
 10
-2609262544.04094
 20
-2523174239.015431
 42
0.0
 10
-2609262544.026856
 20
-2523174239.000311
 42
0.0
 10
-2609262544.010459
 20
-2523174238.982707
 42
0.0
 10
-2609262543.996886
 20
-2523174238.96694
 42
0.0
 10
-2609262543.979925
 20
-2523174238.94615
 42
0.0
 10
-2609262543.964608
 20
-2523174238.927377
 42
0.0
 10
-2609262543.945141
 20
-2523174238.903515
 42
0.0
 10
-2609262543.938034
 20
-2523174238.894009
 42
0.0
 10
-2609262543.931834
 20
-2523174238.885037
 42
0.0
 10
-2609262543.920619
 20
-2523174238.868806
 42
0.0
 10
-2609262543.913159
 20
-2523174238.85801
 42
0.0
 10
-2609262543.898199
 20
-2523174238.836198
 42
0.0
 10
-2609262543.895352
 20
-2523174238.831757
 42
0.0
 10
-2609262543.890788
 20
-2523174238.82464
 42
0.0
 10
-2609262543.884517
 20
-2523174238.814859
 42
0.0
 10
-2609262543.879599
 20
-2523174238.807189
 42
0.0
 10
-2609262543.872704
 20
-2523174238.796435
 42
0.0
 10
-2609262543.866547
 20
-2523174238.786833
 42
0.0
 10
-2609262543.860934
 20
-2523174238.77773
 42
0.0
 10
-2609262543.855803
 20
-2523174238.768627
 42
0.0
 10
-2609262543.848545
 20
-2523174238.755751
 42
0.0
 10
-2609262543.841988
 20
-2523174238.744117
 42
0.0
 10
-2609262543.835679
 20
-2523174238.732537
 42
0.0
 10
-2609262543.832173
 20
-2523174238.725664
 42
0.0
 10
-2609262543.828866
 20
-2523174238.719179
 42
0.0
 10
-2609262543.819668
 20
-2523174238.701147
 42
0.0
 10
-2609262543.815564
 20
-2523174238.6931
 42
0.0
 10
-2609262543.809701
 20
-2523174238.681604
 42
0.0
 10
-2609262543.805749
 20
-2523174238.67256
 42
0.0
 10
-2609262543.800227
 20
-2523174238.659921
 42
0.0
 10
-2609262543.797627
 20
-2523174238.653968
 42
0.0
 10
-2609262543.794546
 20
-2523174238.646916
 42
0.0
 10
-2609262543.792072
 20
-2523174238.641252
 42
0.0
 10
-2609262543.790248
 20
-2523174238.637077
 42
0.0
 10
-2609262543.788607
 20
-2523174238.633322
 42
0.0
 10
-2609262543.787715
 20
-2523174238.63128
 42
0.0
 10
-2609262543.786681
 20
-2523174238.628911
 42
0.0
 10
-2609262543.785023
 20
-2523174238.625116
 42
0.0
 10
-2609262543.784018
 20
-2523174238.622447
 42
0.0
 10
-2609262543.808054
 20
-2523174238.618
 42
0.0
 10
-2609262543.822663
 20
-2523174238.615467
 42
0.0
 10
-2609262543.840252
 20
-2523174238.612599
 42
0.0
 10
-2609262543.858469
 20
-2523174238.60984
 42
0.0
 10
-2609262543.874756
 20
-2523174238.607552
 42
0.0
 10
-2609262543.90474
 20
-2523174238.603782
 42
0.0
 10
-2609262543.93522
 20
-2523174238.600533
 42
0.0
 10
-2609262543.954406
 20
-2523174238.598788
 42
0.0
 10
-2609262543.974706
 20
-2523174238.597193
 42
0.0
 10
-2609262543.994214
 20
-2523174238.595901
 42
0.0
 10
-2609262544.007759
 20
-2523174238.595145
 42
0.0
 10
-2609262544.036957
 20
-2523174238.593902
 42
0.0
 10
-2609262544.063398
 20
-2523174238.593233
 42
0.0
 10
-2609262544.115209
 20
-2523174238.593181
 42
0.0
 10
-2609262544.174044
 20
-2523174238.595141
 42
0.0
 10
-2609262544.225176
 20
-2523174238.598594
 42
0.0
 10
-2609262544.277364
 20
-2523174238.603809
 42
0.0
 10
-2609262544.327012
 20
-2523174238.61037
 42
0.0
 10
-2609262544.39264
 20
-2523174238.621468
 42
0.0
 10
-2609262544.426725
 20
-2523174238.62834
 42
0.0
 10
-2609262544.434684
 20
-2523174238.630055
 42
0.0
 10
-2609262544.441624
 20
-2523174238.631777
 42
0.0
 10
-2609262544.465341
 20
-2523174238.635875
 42
0.0
 10
-2609262544.476742
 20
-2523174238.638767
 42
0.0
 10
-2609262544.49353
 20
-2523174238.643026
 42
0.0
 10
-2609262544.514717
 20
-2523174238.648627
 42
0.0
 10
-2609262544.533175
 20
-2523174238.653743
 42
0.0
 10
-2609262544.553967
 20
-2523174238.659819
 42
0.0
 10
-2609262544.566649
 20
-2523174238.664478
 42
0.0
 10
-2609262544.596754
 20
-2523174238.676262
 42
0.0
 10
-2609262544.610354
 20
-2523174238.681964
 42
0.0
 10
-2609262544.627856
 20
-2523174238.689301
 42
0.0
 10
-2609262544.642134
 20
-2523174238.695875
 42
0.0
 10
-2609262544.659709
 20
-2523174238.704166
 42
0.0
 10
-2609262544.679771
 20
-2523174238.714006
 42
0.0
 10
-2609262544.687994
 20
-2523174238.718208
 42
0.0
 10
-2609262544.699595
 20
-2523174238.724314
 42
0.0
 10
-2609262544.718097
 20
-2523174238.734516
 42
0.0
 10
-2609262544.729722
 20
-2523174238.740927
 42
0.0
 10
-2609262544.737363
 20
-2523174238.745311
 42
0.0
 10
-2609262544.746992
 20
-2523174238.751056
 42
0.0
 10
-2609262544.755326
 20
-2523174238.756095
 42
0.0
 10
-2609262544.762505
 20
-2523174238.76072
 42
0.0
 10
-2609262544.768192
 20
-2523174238.764382
 42
0.0
 10
-2609262544.774609
 20
-2523174238.768515
 42
0.0
 10
-2609262544.779133
 20
-2523174238.771429
 42
0.0
 10
-2609262544.784846
 20
-2523174238.775299
 42
0.0
 10
-2609262544.791099
 20
-2523174238.779643
 42
0.0
 10
-2609262544.798706
 20
-2523174238.785049
 42
0.0
 10
-2609262544.805855
 20
-2523174238.790312
 42
0.0
 10
-2609262544.811009
 20
-2523174238.794108
 42
0.0
 10
-2609262544.815914
 20
-2523174238.797719
 42
0.0
 10
-2609262544.822183
 20
-2523174238.802524
 42
0.0
 10
-2609262544.827693
 20
-2523174238.806745
 42
0.0
 10
-2609262544.833029
 20
-2523174238.810833
 42
0.0
 10
-2609262544.842744
 20
-2523174238.818293
 42
0.0
 10
-2609262544.846928
 20
-2523174238.82152
 42
0.0
 10
-2609262544.852171
 20
-2523174238.825546
 42
0.0
 10
-2609262544.857281
 20
-2523174238.829447
 42
0.0
 10
-2609262544.86216
 20
-2523174238.833143
 42
0.0
 10
-2609262544.866641
 20
-2523174238.836508
 42
0.0
 10
-2609262544.872568
 20
-2523174238.840875
 42
0.0
 10
-2609262544.877244
 20
-2523174238.844319
 42
0.0
 10
-2609262544.883383
 20
-2523174238.848773
 42
0.0
 10
-2609262544.888141
 20
-2523174238.852135
 42
0.0
 10
-2609262544.893805
 20
-2523174238.856064
 42
0.0
 10
-2609262544.754376
 20
-2523174239.404346
 42
0.0
 10
-2609262544.702194
 20
-2523174239.391063
 42
0.0
 10
-2609262544.66966
 20
-2523174239.383717
 42
0.0
 10
-2609262544.633329
 20
-2523174239.374363
 42
0.0
 10
-2609262544.604674
 20
-2523174239.365871
 42
0.0
 10
-2609262544.551372
 20
-2523174239.347511
 42
0.0
 10
-2609262544.538067
 20
-2523174239.342611
 42
0.0
 10
-2609262544.504018
 20
-2523174239.33007
 42
0.0
 10
-2609262544.498391
 20
-2523174239.327629
 42
-0.2433783636870991
 10
-2609262544.480518
 20
-2523174239.319874
 42
0.0
 10
-2609262544.468853
 20
-2523174239.314813
 42
0.0
 10
-2609262544.423758
 20
-2523174239.29351
 42
0.0
 10
-2609262544.393557
 20
-2523174239.27928
 42
0.0
 10
-2609262544.363065
 20
-2523174239.263549
 42
0.0
 10
-2609262544.311275
 20
-2523174239.233427
 42
0.0
 10
-2609262544.281247
 20
-2523174239.214721
 42
0.0
 10
-2609262544.253685
 20
-2523174239.195122
 42
0.0
 10
-2609262544.232352
 20
-2523174239.179954
 42
0.0
 10
-2609262544.186016
 20
-2523174239.147007
 42
0.0
 97
        0
 92
       24
 93
        4
 72
     1
 10
-2609262544.499924
 20
-2523174238.797792
 11
-2609262544.220464
 21
-2523174238.797792
 72
     1
 10
-2609262544.220464
 20
-2523174238.797792
 11
-2609262544.220464
 21
-2523174238.921643
 72
     1
 10
-2609262544.220464
 20
-2523174238.921643
 11
-2609262544.499924
 21
-2523174238.921643
 72
     1
 10
-2609262544.499924
 20
-2523174238.921643
 11
-2609262544.499924
 21
-2523174238.797792
 97
        0
 75
     0
 76
     1
 52
14.0
 41
0.005
 77
     0
 78
     2
 53
14.0
 43
-2609262596.863161
 44
-2523174272.248928
 45
-0.0084491222038184
 46
0.0338875782401892
 79
     2
 49
0.0254
 49
-0.009525
 53
104.0
 43
-2609262596.863161
 44
-2523174272.248928
 45
-0.0338875782401892
 46
-0.0084491222038184
 79
     2
 49
0.0254
 49
-0.009525
 47
3.206899638788689
 98
        1
 10
-2609262544.528899
 20
-2523174239.129624
1001
ACAD
1010
0.0
1020
0.0
1030
0.0
  0
MTEXT
  5
86B8E
102
{ACAD_XDICTIONARY
360
86B8F
102
}
330
86B76
100
AcDbEntity
  8
Text
 62
     7
 48
0.001
100
AcDbMText
 10
-2609262544.482423
 20
-2523174238.815292
 30
0.0
 40
0.07
 41
0.2442197817189632
 71
     1
 72
     5
  1
+0,35
 73
     1
 44
1.0
1001
AcDbBlockRepETag
1070
     1
1071
      474
1005
0
1001
AcadAnnotative
1000
AnnotativeData
1002
{
1070
     1
1070
     0
1002
}
1001
ACAD
1000
MTEXTBEGIN
1070
    73
1070
     1
1070
    44
1040
1.0
1070
    74
1070
     0
1000
MTEXTEND
  0
HATCH
  5
86B92
330
86B76
100
AcDbEntity
  8
Schraffur
 62
     7
 48
0.001
370
     5
100
AcDbHatch
 10
0.0
 20
0.0
 30
0.0
210
0.0
220
0.0
230
1.0
  2
ANGLE
 70
     0
 71
     0
 91
        2
 92
        7
 72
     0
 73
     1
 93
       82
 10
-2609262545.692224
 20
-2523174238.625859
 10
-2609262545.727148
 20
-2523174238.616277
 10
-2609262545.744285
 20
-2523174238.61219
 10
-2609262545.759812
 20
-2523174238.608778
 10
-2609262545.77783
 20
-2523174238.605169
 10
-2609262545.790839
 20
-2523174238.602793
 10
-2609262545.814743
 20
-2523174238.59892
 10
-2609262545.834149
 20
-2523174238.596245
 10
-2609262545.854632
 20
-2523174238.593872
 10
-2609262545.874791
 20
-2523174238.591984
 10
-2609262545.890468
 20
-2523174238.590824
 10
-2609262545.905111
 20
-2523174238.589978
 10
-2609262545.923447
 20
-2523174238.589247
 10
-2609262545.93471
 20
-2523174238.588977
 10
-2609262545.950715
 20
-2523174238.58883
 10
-2609262545.970377
 20
-2523174238.589024
 10
-2609262545.98842
 20
-2523174238.58957
 10
-2609262546.008134
 20
-2523174238.590569
 10
-2609262546.031418
 20
-2523174238.59229
 10
-2609262546.052731
 20
-2523174238.594383
 10
-2609262546.063105
 20
-2523174238.595581
 10
-2609262546.077974
 20
-2523174238.597506
 10
-2609262546.092383
 20
-2523174238.599604
 10
-2609262546.106919
 20
-2523174238.601956
 10
-2609262546.116299
 20
-2523174238.6036
 10
-2609262546.133888
 20
-2523174238.60695
 10
-2609262546.148849
 20
-2523174238.610077
 10
-2609262546.161705
 20
-2523174238.61297
 10
-2609262546.173705
 20
-2523174238.615845
 10
-2609262546.1969
 20
-2523174238.621884
 10
-2609262546.192355
 20
-2523174238.634837
 10
-2609262546.180949
 20
-2523174238.660527
 10
-2609262546.161441
 20
-2523174238.700987
 10
-2609262546.138749
 20
-2523174238.744226
 10
-2609262546.116811
 20
-2523174238.781888
 10
-2609262546.094202
 20
-2523174238.81896
 10
-2609262546.076529
 20
-2523174238.845881
 10
-2609262546.045324
 20
-2523174238.891056
 10
-2609262546.023777
 20
-2523174238.919019
 10
-2609262546.004624
 20
-2523174238.941842
 10
-2609262545.970759
 20
-2523174238.982201
 10
-2609262545.937089
 20
-2523174239.018608
 10
-2609262545.872065
 20
-2523174239.082301
 10
-2609262545.85006
 20
-2523174239.102557
 10
-2609262545.830676
 20
-2523174239.118253
 10
-2609262545.800504
 20
-2523174239.142687
 10
-2609262545.774633
 20
-2523174239.162842
 10
-2609262545.752986
 20
-2523174239.179212
 10
-2609262545.718789
 20
-2523174239.202454
 10
-2609262545.690566
 20
-2523174239.220572
 10
-2609262545.662343
 20
-2523174239.23869
 10
-2609262545.632173
 20
-2523174239.255638
 10
-2609262545.611313
 20
-2523174239.267357
 10
-2609262545.589369
 20
-2523174239.27902
 10
-2609262545.561934
 20
-2523174239.292988
 10
-2609262545.537522
 20
-2523174239.304476
 10
-2609262545.499237
 20
-2523174239.318858
 10
-2609262545.385348
 20
-2523174239.119056
 10
-2609262545.297313
 20
-2523174238.963929
 10
-2609262545.28473
 20
-2523174238.942535
 10
-2609262545.314841
 20
-2523174238.93636
 10
-2609262545.333687
 20
-2523174238.930793
 10
-2609262545.356408
 20
-2523174238.922015
 10
-2609262545.375961
 20
-2523174238.912105
 10
-2609262545.395278
 20
-2523174238.901739
 10
-2609262545.417799
 20
-2523174238.886813
 10
-2609262545.436579
 20
-2523174238.872885
 10
-2609262545.454738
 20
-2523174238.857541
 10
-2609262545.47015
 20
-2523174238.842611
 10
-2609262545.48448
 20
-2523174238.826606
 10
-2609262545.498655
 20
-2523174238.808368
 10
-2609262545.520884
 20
-2523174238.774787
 10
-2609262545.531903
 20
-2523174238.757196
 10
-2609262545.548529
 20
-2523174238.730499
 10
-2609262545.564834
 20
-2523174238.707783
 10
-2609262545.572404
 20
-2523174238.697004
 10
-2609262545.582728
 20
-2523174238.685768
 10
-2609262545.59374
 20
-2523174238.674991
 10
-2609262545.606359
 20
-2523174238.665359
 10
-2609262545.620584
 20
-2523174238.655731
 10
-2609262545.643815
 20
-2523174238.643745
 10
-2609262545.664691
 20
-2523174238.634803
 97
        0
 92
       24
 93
        4
 72
     1
 10
-2609262545.927149
 20
-2523174238.730462
 11
-2609262545.646561
 21
-2523174238.730462
 72
     1
 10
-2609262545.646561
 20
-2523174238.730462
 11
-2609262545.646561
 21
-2523174238.854267
 72
     1
 10
-2609262545.646561
 20
-2523174238.854267
 11
-2609262545.927149
 21
-2523174238.854267
 72
     1
 10
-2609262545.927149
 20
-2523174238.854267
 11
-2609262545.927149
 21
-2523174238.730462
 97
        0
 75
     0
 76
     1
 52
329.0
 41
0.005
 77
     0
 78
     2
 53
329.0
 43
-2609262596.863161
 44
-2523174272.248928
 45
0.0179877047662337
 46
0.0299365679770213
 79
     2
 49
0.0254
 49
-0.009525
 53
59.00000000000003
 43
-2609262596.863161
 44
-2523174272.248928
 45
-0.0299365679770213
 46
0.0179877047662337
 79
     2
 49
0.0254
 49
-0.009525
 47
3.206899638788689
 98
        1
 10
-2609262545.738753
 20
-2523174238.831382
1001
ACAD
1010
0.0
1020
0.0
1030
0.0
  0
MTEXT
  5
86B93
102
{ACAD_XDICTIONARY
360
86B94
102
}
330
86B76
100
AcDbEntity
  8
Text
 62
     7
 48
0.001
100
AcDbMText
 10
-2609262545.909649
 20
-2523174238.747962
 30
0.0
 40
0.07
 41
0.2434557980900409
 71
     1
 72
     5
  1
+0,49
 73
     1
 44
1.0
1001
AcDbBlockRepETag
1070
     1
1071
      475
1005
0
1001
AcadAnnotative
1000
AnnotativeData
1002
{
1070
     1
1070
     0
1002
}
1001
ACAD
1000
MTEXTBEGIN
1070
    73
1070
     1
1070
    44
1040
1.0
1070
    74
1070
     0
1000
MTEXTEND
  0
CIRCLE
  5
86B97
330
86B76
100
AcDbEntity
  8
Kontur 09
 62
     7
 48
0.001
100
AcDbCircle
 10
-2609262543.853649
 20
-2523174237.570656
 30
0.0
 40
0.0165
1001
AcDbBlockRepETag
1070
     1
1071
      476
1005
0
  0
CIRCLE
  5
86B98
330
86B76
100
AcDbEntity
  8
Kontur 09
 62
     7
 48
0.001
100
AcDbCircle
 10
-2609262544.723821
 20
-2523174237.232331
 30
0.0
 40
0.0165
1001
AcDbBlockRepETag
1070
     1
1071
      477
1005
0
  0
CIRCLE
  5
86B99
330
86B76
100
AcDbEntity
  8
Kontur 09
 62
     7
 48
0.001
100
AcDbCircle
 10
-2609262545.164226
 20
-2523174236.865454
 30
0.0
 40
0.0165
1001
AcDbBlockRepETag
1070
     1
1071
      478
1005
0
  0
CIRCLE
  5
86B9A
330
86B76
100
AcDbEntity
  8
Kontur 09
 62
     7
 48
0.001
100
AcDbCircle
 10
-2609262545.515907
 20
-2523174237.540305
 30
0.0
 40
0.0165
1001
AcDbBlockRepETag
1070
     1
1071
      480
1005
0
  0
CIRCLE
  5
86B9B
330
86B76
100
AcDbEntity
  8
Kontur 09
 62
     7
 48
0.001
100
AcDbCircle
 10
-2609262545.791609
 20
-2523174237.141383
 30
0.0
 40
0.0165
1001
AcDbBlockRepETag
1070
     1
1071
      481
1005
0
  0
CIRCLE
  5
86B9C
330
86B76
100
AcDbEntity
  8
Kontur 09
 62
     7
 48
0.001
100
AcDbCircle
 10
-2609262545.262843
 20
-2523174236.883211
 30
0.0
 40
0.0165
1001
AcDbBlockRepETag
1070
     1
1071
      482
1005
0
  0
LWPOLYLINE
  5
86B9D
330
86B76
100
AcDbEntity
  8
Kontur 09
 62
     7
 48
0.001
100
AcDbPolyline
 90
       42
 70
   129
 43
0.0
 10
-2609262545.087152
 20
-2523174237.371247
 10
-2609262545.079034
 20
-2523174237.366158
 10
-2609262545.065513
 20
-2523174237.357427
 10
-2609262545.047581
 20
-2523174237.346669
 10
-2609262545.034392
 20
-2523174237.339368
 10
-2609262545.009757
 20
-2523174237.327071
 10
-2609262544.987858
 20
-2523174237.317576
 10
-2609262544.967221
 20
-2523174237.309842
 10
-2609262544.937702
 20
-2523174237.300807
 10
-2609262544.917593
 20
-2523174237.295951
 10
-2609262544.892765
 20
-2523174237.291164
 10
-2609262544.867914
 20
-2523174237.287458
 10
-2609262544.842065
 20
-2523174237.2845
 10
-2609262544.812594
 20
-2523174237.28212
 10
-2609262544.772804
 20
-2523174237.280671
 10
-2609262544.740286
 20
-2523174237.281121
 10
-2609262544.701516
 20
-2523174237.284387
 10
-2609262544.696189
 20
-2523174237.285145
 10
-2609262544.683605
 20
-2523174237.263752
 10
-2609262544.481384
 20
-2523174236.907411
 10
-2609262544.503355
 20
-2523174236.897887
 10
-2609262544.517277
 20
-2523174236.891899
 10
-2609262544.539979
 20
-2523174236.883382
 10
-2609262544.557988
 20
-2523174236.876915
 10
-2609262544.580259
 20
-2523174236.869257
 10
-2609262544.614896
 20
-2523174236.858388
 10
-2609262544.645954
 20
-2523174236.849488
 10
-2609262544.673692
 20
-2523174236.842373
 10
-2609262544.701028
 20
-2523174236.835977
 10
-2609262544.733908
 20
-2523174236.828742
 10
-2609262544.763494
 20
-2523174236.823536
 10
-2609262544.808012
 20
-2523174236.816272
 10
-2609262544.845488
 20
-2523174236.811512
 10
-2609262544.895248
 20
-2523174236.806954
 10
-2609262544.928504
 20
-2523174236.804996
 10
-2609262544.961361
 20
-2523174236.803896
 10
-2609262545.004912
 20
-2523174236.803538
 10
-2609262545.052315
 20
-2523174236.804942
 10
-2609262545.100453
 20
-2523174236.808048
 10
-2609262545.13222
 20
-2523174236.811123
 10
-2609262545.191703
 20
-2523174236.818224
 10
-2609262545.226581
 20
-2523174236.822964
1001
AcDbBlockRepETag
1070
     1
1071
      489
1005
0
  0
CIRCLE
  5
86B9E
330
86B76
100
AcDbEntity
  8
Kontur 09
 62
     7
 48
0.001
100
AcDbCircle
 10
-2609262545.661478
 20
-2523174238.690894
 30
0.0
 40
0.0165
1001
AcDbBlockRepETag
1070
     1
1071
      490
1005
0
  0
CIRCLE
  5
86B9F
330
86B76
100
AcDbEntity
  8
Kontur 09
 62
     7
 48
0.001
100
AcDbCircle
 10
-2609262545.364055
 20
-2523174238.972942
 30
0.0
 40
0.0165
1001
AcDbBlockRepETag
1070
     1
1071
      491
1005
0
  0
CIRCLE
  5
86BA0
330
86B76
100
AcDbEntity
  8
Kontur 09
 62
     7
 48
0.001
100
AcDbCircle
 10
-2609262545.521132
 20
-2523174239.256981
 30
0.0
 40
0.0165
1001
AcDbBlockRepETag
1070
     1
1071
      492
1005
0
  0
CIRCLE
  5
86BA1
330
86B76
100
AcDbEntity
  8
Kontur 09
 62
     7
 48
0.001
100
AcDbCircle
 10
-2609262545.257098
 20
-2523174238.99535
 30
0.0
 40
0.0165
1001
AcDbBlockRepETag
1070
     1
1071
      493
1005
0
  0
CIRCLE
  5
86BA2
330
86B76
100
AcDbEntity
  8
Kontur 09
 62
     7
 48
0.001
100
AcDbCircle
 10
-2609262544.925636
 20
-2523174238.933768
 30
0.0
 40
0.0165
1001
AcDbBlockRepETag
1070
     1
1071
      494
1005
0
  0
CIRCLE
  5
86BA3
330
86B76
100
AcDbEntity
  8
Kontur 09
 62
     7
 48
0.001
100
AcDbCircle
 10
-2609262544.816693
 20
-2523174239.362226
 30
0.0
 40
0.0165
1001
AcDbBlockRepETag
1070
     1
1071
      495
1005
0
  0
CIRCLE
  5
86BA4
330
86B76
100
AcDbEntity
  8
Kontur 09
 62
     7
 48
0.001
100
AcDbCircle
 10
-2609262545.42806
 20
-2523174239.295727
 30
0.0
 40
0.0165
1001
AcDbBlockRepETag
1070
     1
1071
      496
1005
0
  0
CIRCLE
  5
86BA5
330
86B76
100
AcDbEntity
  8
Kontur 09
 62
     7
 48
0.001
100
AcDbCircle
 10
-2609262544.837071
 20
-2523174238.876827
 30
0.0
 40
0.0165
1001
AcDbBlockRepETag
1070
     1
1071
      497
1005
0
  0
CIRCLE
  5
86BA6
330
86B76
100
AcDbEntity
  8
Kontur 09
 62
     7
 48
0.001
100
AcDbCircle
 10
-2609262544.465012
 20
-2523174238.687375
 30
0.0
 40
0.0165
1001
AcDbBlockRepETag
1070
     1
1071
      498
1005
0
  0
CIRCLE
  5
86BA7
330
86B76
100
AcDbEntity
  8
Kontur 09
 62
     7
 48
0.001
100
AcDbCircle
 10
-2609262543.855577
 20
-2523174238.661754
 30
0.0
 40
0.0165
1001
AcDbBlockRepETag
1070
     1
1071
      499
1005
0
  0
CIRCLE
  5
86BA8
330
86B76
100
AcDbEntity
  8
Kontur 09
 62
     7
 48
0.001
100
AcDbCircle
 10
-2609262544.189309
 20
-2523174239.086298
 30
0.0
 40
0.0165
1001
AcDbBlockRepETag
1070
     1
1071
      500
1005
0
  0
CIRCLE
  5
86BA9
330
86B76
100
AcDbEntity
  8
Kontur 09
 62
     7
 48
0.001
100
AcDbCircle
 10
-2609262544.718076
 20
-2523174239.344469
 30
0.0
 40
0.0165
1001
AcDbBlockRepETag
1070
     1
1071
      501
1005
0
  0
CIRCLE
  5
86BAA
330
86B76
100
AcDbEntity
  8
Kontur 09
 62
     7
 48
0.001
100
AcDbCircle
 10
-2609262545.902702
 20
-2523174238.982974
 30
0.0
 40
0.0165
1001
AcDbBlockRepETag
1070
     1
1071
      502
1005
0
  0
LWPOLYLINE
  5
86BAB
330
86B76
100
AcDbEntity
  8
Kontur 09
 62
     7
 48
0.001
100
AcDbPolyline
 90
       42
 70
   129
 43
0.0
 10
-2609262544.893805
 20
-2523174238.856064
 10
-2609262544.901884
 20
-2523174238.861522
 10
-2609262544.915405
 20
-2523174238.870252
 10
-2609262544.933339
 20
-2523174238.88101
 10
-2609262544.946527
 20
-2523174238.888313
 10
-2609262544.971163
 20
-2523174238.900609
 10
-2609262544.993061
 20
-2523174238.910104
 10
-2609262545.013698
 20
-2523174238.917838
 10
-2609262545.043216
 20
-2523174238.926873
 10
-2609262545.063325
 20
-2523174238.931729
 10
-2609262545.088154
 20
-2523174238.936515
 10
-2609262545.113005
 20
-2523174238.940222
 10
-2609262545.138854
 20
-2523174238.94318
 10
-2609262545.168324
 20
-2523174238.945561
 10
-2609262545.208115
 20
-2523174238.94701
 10
-2609262545.240632
 20
-2523174238.946559
 10
-2609262545.279403
 20
-2523174238.943293
 10
-2609262545.28473
 20
-2523174238.942535
 10
-2609262545.297313
 20
-2523174238.963929
 10
-2609262545.499535
 20
-2523174239.320269
 10
-2609262545.477564
 20
-2523174239.329792
 10
-2609262545.463642
 20
-2523174239.33578
 10
-2609262545.44094
 20
-2523174239.344298
 10
-2609262545.422931
 20
-2523174239.350765
 10
-2609262545.40066
 20
-2523174239.358424
 10
-2609262545.366024
 20
-2523174239.369292
 10
-2609262545.334965
 20
-2523174239.378193
 10
-2609262545.307228
 20
-2523174239.385307
 10
-2609262545.27989
 20
-2523174239.391703
 10
-2609262545.247011
 20
-2523174239.398937
 10
-2609262545.217424
 20
-2523174239.404144
 10
-2609262545.172907
 20
-2523174239.411408
 10
-2609262545.135431
 20
-2523174239.416168
 10
-2609262545.085671
 20
-2523174239.420725
 10
-2609262545.052415
 20
-2523174239.422683
 10
-2609262545.019558
 20
-2523174239.423785
 10
-2609262544.976006
 20
-2523174239.424143
 10
-2609262544.928605
 20
-2523174239.422738
 10
-2609262544.880466
 20
-2523174239.419632
 10
-2609262544.848701
 20
-2523174239.416558
 10
-2609262544.813902
 20
-2523174239.412312
 10
-2609262544.754376
 20
-2523174239.404346
1001
AcDbBlockRepETag
1070
     1
1071
      503
1005
0
  0
MTEXT
  5
86BAC
102
{ACAD_XDICTIONARY
360
86BAD
102
}
330
86B76
100
AcDbEntity
  8
Text
 62
     7
 48
0.001
100
AcDbMText
 10
-2609262545.243681
 20
-2523174239.001373
 30
0.0
 40
0.07
 41
0.2434557980900409
 71
     1
 72
     5
  1
+0,40
 73
     1
 44
1.0
1001
AcDbBlockRepETag
1070
     1
1071
      504
1005
0
1001
AcadAnnotative
1000
AnnotativeData
1002
{
1070
     1
1070
     0
1002
}
1001
ACAD
1000
MTEXTBEGIN
1070
    73
1070
     1
1070
    44
1040
1.0
1070
    74
1070
     0
1000
MTEXTEND
  0
LWPOLYLINE
  5
86BB0
330
86B76
100
AcDbEntity
  8
Kontur 09
 62
     7
 48
0.001
100
AcDbPolyline
 90
       81
 70
   129
 43
0.0
 10
-2609262546.1969
 20
-2523174238.621884
 10
-2609262546.173705
 20
-2523174238.615845
 10
-2609262546.161705
 20
-2523174238.61297
 10
-2609262546.148849
 20
-2523174238.610077
 10
-2609262546.133888
 20
-2523174238.60695
 10
-2609262546.116299
 20
-2523174238.6036
 10
-2609262546.106919
 20
-2523174238.601956
 10
-2609262546.092383
 20
-2523174238.599604
 10
-2609262546.077974
 20
-2523174238.597506
 10
-2609262546.063105
 20
-2523174238.595581
 10
-2609262546.052731
 20
-2523174238.594383
 10
-2609262546.031418
 20
-2523174238.59229
 10
-2609262546.008134
 20
-2523174238.590569
 10
-2609262545.98842
 20
-2523174238.58957
 10
-2609262545.970377
 20
-2523174238.589024
 10
-2609262545.950715
 20
-2523174238.58883
 10
-2609262545.93471
 20
-2523174238.588977
 10
-2609262545.923447
 20
-2523174238.589247
 10
-2609262545.905111
 20
-2523174238.589978
 10
-2609262545.890468
 20
-2523174238.590824
 10
-2609262545.874791
 20
-2523174238.591984
 10
-2609262545.854632
 20
-2523174238.593872
 10
-2609262545.834149
 20
-2523174238.596245
 10
-2609262545.814743
 20
-2523174238.59892
 10
-2609262545.790839
 20
-2523174238.602793
 10
-2609262545.77783
 20
-2523174238.605169
 10
-2609262545.759812
 20
-2523174238.608778
 10
-2609262545.744285
 20
-2523174238.61219
 10
-2609262545.727148
 20
-2523174238.616277
 10
-2609262545.692224
 20
-2523174238.625859
 10
-2609262545.664691
 20
-2523174238.634803
 10
-2609262545.643815
 20
-2523174238.643745
 10
-2609262545.620584
 20
-2523174238.655731
 10
-2609262545.606359
 20
-2523174238.665359
 10
-2609262545.59374
 20
-2523174238.674991
 10
-2609262545.582728
 20
-2523174238.685768
 10
-2609262545.572404
 20
-2523174238.697004
 10
-2609262545.564834
 20
-2523174238.707783
 10
-2609262545.548529
 20
-2523174238.730499
 10
-2609262545.531903
 20
-2523174238.757196
 10
-2609262545.520884
 20
-2523174238.774787
 10
-2609262545.498655
 20
-2523174238.808368
 10
-2609262545.48448
 20
-2523174238.826606
 10
-2609262545.47015
 20
-2523174238.842611
 10
-2609262545.454738
 20
-2523174238.857541
 10
-2609262545.436579
 20
-2523174238.872885
 10
-2609262545.417799
 20
-2523174238.886813
 10
-2609262545.395278
 20
-2523174238.901739
 10
-2609262545.375961
 20
-2523174238.912105
 10
-2609262545.356408
 20
-2523174238.922015
 10
-2609262545.333687
 20
-2523174238.930793
 10
-2609262545.314841
 20
-2523174238.93636
 10
-2609262545.28473
 20
-2523174238.942535
 10
-2609262545.499237
 20
-2523174239.318858
 10
-2609262545.537522
 20
-2523174239.304476
 10
-2609262545.561934
 20
-2523174239.292988
 10
-2609262545.589369
 20
-2523174239.27902
 10
-2609262545.611313
 20
-2523174239.267357
 10
-2609262545.632173
 20
-2523174239.255638
 10
-2609262545.662343
 20
-2523174239.23869
 10
-2609262545.690566
 20
-2523174239.220572
 10
-2609262545.718789
 20
-2523174239.202454
 10
-2609262545.752986
 20
-2523174239.179212
 10
-2609262545.774633
 20
-2523174239.162842
 10
-2609262545.800504
 20
-2523174239.142687
 10
-2609262545.830676
 20
-2523174239.118253
 10
-2609262545.85006
 20
-2523174239.102557
 10
-2609262545.872065
 20
-2523174239.082301
 10
-2609262545.937089
 20
-2523174239.018608
 10
-2609262545.970759
 20
-2523174238.982201
 10
-2609262546.004624
 20
-2523174238.941842
 10
-2609262546.023777
 20
-2523174238.919019
 10
-2609262546.045324
 20
-2523174238.891056
 10
-2609262546.076529
 20
-2523174238.845881
 10
-2609262546.094202
 20
-2523174238.81896
 10
-2609262546.116811
 20
-2523174238.781888
 10
-2609262546.138749
 20
-2523174238.744226
 10
-2609262546.161441
 20
-2523174238.700987
 10
-2609262546.180949
 20
-2523174238.660527
 10
-2609262546.192355
 20
-2523174238.634837
 10
-2609262546.1969
 20
-2523174238.621884
1001
AcDbBlockRepETag
1070
     1
1071
      505
1005
0
  0
LWPOLYLINE
  5
86BB1
330
86B76
100
AcDbEntity
  8
Kontur 09
 62
     7
 48
0.001
100
AcDbPolyline
 90
      130
 70
   129
 43
0.0
 10
-2609262544.893805
 20
-2523174238.856064
 10
-2609262544.888141
 20
-2523174238.852135
 10
-2609262544.883383
 20
-2523174238.848773
 10
-2609262544.877244
 20
-2523174238.844319
 10
-2609262544.872568
 20
-2523174238.840875
 10
-2609262544.866641
 20
-2523174238.836508
 10
-2609262544.86216
 20
-2523174238.833143
 10
-2609262544.857281
 20
-2523174238.829447
 10
-2609262544.852171
 20
-2523174238.825546
 10
-2609262544.846928
 20
-2523174238.82152
 10
-2609262544.842744
 20
-2523174238.818293
 10
-2609262544.833029
 20
-2523174238.810833
 10
-2609262544.827693
 20
-2523174238.806745
 10
-2609262544.822183
 20
-2523174238.802524
 10
-2609262544.815914
 20
-2523174238.797719
 10
-2609262544.811009
 20
-2523174238.794108
 10
-2609262544.805855
 20
-2523174238.790312
 10
-2609262544.798706
 20
-2523174238.785049
 10
-2609262544.791099
 20
-2523174238.779643
 10
-2609262544.784846
 20
-2523174238.775299
 10
-2609262544.779133
 20
-2523174238.771429
 10
-2609262544.774609
 20
-2523174238.768515
 10
-2609262544.768192
 20
-2523174238.764382
 10
-2609262544.762505
 20
-2523174238.76072
 10
-2609262544.755326
 20
-2523174238.756095
 10
-2609262544.746992
 20
-2523174238.751056
 10
-2609262544.737363
 20
-2523174238.745311
 10
-2609262544.729722
 20
-2523174238.740927
 10
-2609262544.718097
 20
-2523174238.734516
 10
-2609262544.699595
 20
-2523174238.724314
 10
-2609262544.687994
 20
-2523174238.718208
 10
-2609262544.679771
 20
-2523174238.714006
 10
-2609262544.659709
 20
-2523174238.704166
 10
-2609262544.642134
 20
-2523174238.695875
 10
-2609262544.627856
 20
-2523174238.689301
 10
-2609262544.610354
 20
-2523174238.681964
 10
-2609262544.596754
 20
-2523174238.676262
 10
-2609262544.566649
 20
-2523174238.664478
 10
-2609262544.553967
 20
-2523174238.659819
 10
-2609262544.533175
 20
-2523174238.653743
 10
-2609262544.514717
 20
-2523174238.648627
 10
-2609262544.49353
 20
-2523174238.643026
 10
-2609262544.476742
 20
-2523174238.638767
 10
-2609262544.465341
 20
-2523174238.635875
 10
-2609262544.441624
 20
-2523174238.631777
 10
-2609262544.434684
 20
-2523174238.630055
 10
-2609262544.426725
 20
-2523174238.62834
 10
-2609262544.39264
 20
-2523174238.621468
 10
-2609262544.327012
 20
-2523174238.61037
 10
-2609262544.277364
 20
-2523174238.603809
 10
-2609262544.225176
 20
-2523174238.598594
 10
-2609262544.174044
 20
-2523174238.595141
 10
-2609262544.115209
 20
-2523174238.593181
 10
-2609262544.063398
 20
-2523174238.593233
 10
-2609262544.036957
 20
-2523174238.593902
 10
-2609262544.007759
 20
-2523174238.595145
 10
-2609262543.994214
 20
-2523174238.595901
 10
-2609262543.974706
 20
-2523174238.597193
 10
-2609262543.954406
 20
-2523174238.598788
 10
-2609262543.93522
 20
-2523174238.600533
 10
-2609262543.90474
 20
-2523174238.603782
 10
-2609262543.874756
 20
-2523174238.607552
 10
-2609262543.858469
 20
-2523174238.60984
 10
-2609262543.840252
 20
-2523174238.612599
 10
-2609262543.822663
 20
-2523174238.615467
 10
-2609262543.808054
 20
-2523174238.618
 10
-2609262543.784018
 20
-2523174238.622447
 10
-2609262543.785023
 20
-2523174238.625116
 10
-2609262543.786681
 20
-2523174238.628911
 10
-2609262543.787715
 20
-2523174238.63128
 10
-2609262543.788607
 20
-2523174238.633322
 10
-2609262543.790248
 20
-2523174238.637077
 10
-2609262543.792072
 20
-2523174238.641252
 10
-2609262543.794546
 20
-2523174238.646916
 10
-2609262543.797627
 20
-2523174238.653968
 10
-2609262543.800227
 20
-2523174238.659921
 10
-2609262543.805749
 20
-2523174238.67256
 10
-2609262543.809701
 20
-2523174238.681604
 10
-2609262543.815564
 20
-2523174238.6931
 10
-2609262543.819668
 20
-2523174238.701147
 10
-2609262543.828866
 20
-2523174238.719179
 10
-2609262543.832173
 20
-2523174238.725664
 10
-2609262543.835679
 20
-2523174238.732537
 10
-2609262543.841988
 20
-2523174238.744117
 10
-2609262543.848545
 20
-2523174238.755751
 10
-2609262543.855803
 20
-2523174238.768627
 10
-2609262543.860934
 20
-2523174238.77773
 10
-2609262543.866547
 20
-2523174238.786833
 10
-2609262543.872704
 20
-2523174238.796435
 10
-2609262543.879599
 20
-2523174238.807189
 10
-2609262543.884517
 20
-2523174238.814859
 10
-2609262543.890788
 20
-2523174238.82464
 10
-2609262543.895352
 20
-2523174238.831757
 10
-2609262543.898199
 20
-2523174238.836198
 10
-2609262543.913159
 20
-2523174238.85801
 10
-2609262543.920619
 20
-2523174238.868806
 10
-2609262543.931834
 20
-2523174238.885037
 10
-2609262543.938034
 20
-2523174238.894009
 10
-2609262543.945141
 20
-2523174238.903515
 10
-2609262543.964608
 20
-2523174238.927377
 10
-2609262543.979925
 20
-2523174238.94615
 10
-2609262543.996886
 20
-2523174238.96694
 10
-2609262544.010459
 20
-2523174238.982707
 10
-2609262544.026856
 20
-2523174239.000311
 10
-2609262544.04094
 20
-2523174239.015431
 10
-2609262544.056065
 20
-2523174239.03167
 10
-2609262544.076691
 20
-2523174239.052219
 10
-2609262544.091204
 20
-2523174239.065768
 10
-2609262544.107235
 20
-2523174239.080734
 10
-2609262544.137616
 20
-2523174239.10802
 10
-2609262544.162596
 20
-2523174239.128933
 10
-2609262544.186016
 20
-2523174239.147007
 10
-2609262544.232352
 20
-2523174239.179954
 10
-2609262544.253685
 20
-2523174239.195122
 10
-2609262544.281247
 20
-2523174239.214721
 10
-2609262544.311275
 20
-2523174239.233427
 10
-2609262544.363065
 20
-2523174239.263549
 10
-2609262544.393557
 20
-2523174239.27928
 10
-2609262544.423758
 20
-2523174239.29351
 10
-2609262544.468853
 20
-2523174239.314813
 10
-2609262544.504018
 20
-2523174239.33007
 10
-2609262544.538067
 20
-2523174239.342611
 10
-2609262544.551372
 20
-2523174239.347511
 10
-2609262544.604674
 20
-2523174239.365871
 10
-2609262544.633329
 20
-2523174239.374363
 10
-2609262544.66966
 20
-2523174239.383717
 10
-2609262544.702194
 20
-2523174239.391063
 10
-2609262544.754376
 20
-2523174239.404346
 10
-2609262544.893372
 20
-2523174238.857768
 10
-2609262544.893805
 20
-2523174238.856064
1001
AcDbBlockRepETag
1070
     1
1071
      506
1005
0
  0
CIRCLE
  5
86BB2
330
86B76
100
AcDbEntity
  8
Kontur 09
 62
     7
 48
0.001
100
AcDbCircle
 10
-2609262546.127308
 20
-2523174238.656656
 30
0.0
 40
0.0165
1001
AcDbBlockRepETag
1070
     1
1071
      507
1005
0
  0
CIRCLE
  5
86BB3
330
86B76
100
AcDbEntity
  8
Kontur 09
 62
     7
 48
0.001
100
AcDbCircle
 10
-2609262544.319479
 20
-2523174237.536416
 30
0.0
 40
0.0165
1001
AcDbBlockRepETag
1070
     1
1071
      508
1005
0
  0
CIRCLE
  5
86BB4
330
86B76
100
AcDbEntity
  8
Kontur 09
 62
     7
 48
0.001
100
AcDbCircle
 10
-2609262544.616902
 20
-2523174237.254368
 30
0.0
 40
0.0165
1001
AcDbBlockRepETag
1070
     1
1071
      509
1005
0
  0
CIRCLE
  5
86BB5
330
86B76
100
AcDbEntity
  8
Kontur 09
 62
     7
 48
0.001
100
AcDbCircle
 10
-2609262544.459824
 20
-2523174236.97033
 30
0.0
 40
0.0165
1001
AcDbBlockRepETag
1070
     1
1071
      510
1005
0
  0
CIRCLE
  5
86BB6
330
86B76
100
AcDbEntity
  8
Kontur 09
 62
     7
 48
0.001
100
AcDbCircle
 10
-2609262544.723859
 20
-2523174237.231961
 30
0.0
 40
0.0165
1001
AcDbBlockRepETag
1070
     1
1071
      511
1005
0
  0
CIRCLE
  5
86BB7
330
86B76
100
AcDbEntity
  8
Kontur 09
 62
     7
 48
0.001
100
AcDbCircle
 10
-2609262544.552897
 20
-2523174236.931583
 30
0.0
 40
0.0165
1001
AcDbBlockRepETag
1070
     1
1071
      512
1005
0
  0
CIRCLE
  5
86BB8
330
86B76
100
AcDbEntity
  8
Kontur 09
 62
     7
 48
0.001
100
AcDbCircle
 10
-2609262545.515945
 20
-2523174237.539935
 30
0.0
 40
0.0165
1001
AcDbBlockRepETag
1070
     1
1071
      513
1005
0
  0
CIRCLE
  5
86BB9
330
86B76
100
AcDbEntity
  8
Kontur 09
 62
     7
 48
0.001
100
AcDbCircle
 10
-2609262546.12538
 20
-2523174237.565556
 30
0.0
 40
0.0165
1001
AcDbBlockRepETag
1070
     1
1071
      514
1005
0
  0
CIRCLE
  5
86BBA
330
86B76
100
AcDbEntity
  8
Kontur 09
 62
     7
 48
0.001
100
AcDbCircle
 10
-2609262545.791648
 20
-2523174237.141012
 30
0.0
 40
0.0165
1001
AcDbBlockRepETag
1070
     1
1071
      515
1005
0
  0
CIRCLE
  5
86BBB
330
86B76
100
AcDbEntity
  8
Kontur 09
 62
     7
 48
0.001
100
AcDbCircle
 10
-2609262544.078256
 20
-2523174237.244337
 30
0.0
 40
0.0165
1001
AcDbBlockRepETag
1070
     1
1071
      516
1005
0
  0
LWPOLYLINE
  5
86BBC
330
86B76
100
AcDbEntity
  8
Kontur 09
 62
     7
 48
0.001
100
AcDbPolyline
 90
       81
 70
   129
 43
0.0
 10
-2609262543.784057
 20
-2523174237.605428
 10
-2609262543.807254
 20
-2523174237.611466
 10
-2609262543.819252
 20
-2523174237.61434
 10
-2609262543.832107
 20
-2523174237.617233
 10
-2609262543.847068
 20
-2523174237.620361
 10
-2609262543.864657
 20
-2523174237.623711
 10
-2609262543.874037
 20
-2523174237.625354
 10
-2609262543.888574
 20
-2523174237.627706
 10
-2609262543.902983
 20
-2523174237.629805
 10
-2609262543.917852
 20
-2523174237.631729
 10
-2609262543.928226
 20
-2523174237.632928
 10
-2609262543.94954
 20
-2523174237.635021
 10
-2609262543.972823
 20
-2523174237.636742
 10
-2609262543.992537
 20
-2523174237.63774
 10
-2609262544.010579
 20
-2523174237.638286
 10
-2609262544.030242
 20
-2523174237.638482
 10
-2609262544.046247
 20
-2523174237.638334
 10
-2609262544.057509
 20
-2523174237.638065
 10
-2609262544.075846
 20
-2523174237.637333
 10
-2609262544.090489
 20
-2523174237.636488
 10
-2609262544.106166
 20
-2523174237.635326
 10
-2609262544.126325
 20
-2523174237.633439
 10
-2609262544.146809
 20
-2523174237.631065
 10
-2609262544.166214
 20
-2523174237.628391
 10
-2609262544.190118
 20
-2523174237.624518
 10
-2609262544.203127
 20
-2523174237.622142
 10
-2609262544.221146
 20
-2523174237.618532
 10
-2609262544.236672
 20
-2523174237.615122
 10
-2609262544.253808
 20
-2523174237.611034
 10
-2609262544.288733
 20
-2523174237.601452
 10
-2609262544.316266
 20
-2523174237.592507
 10
-2609262544.337142
 20
-2523174237.583565
 10
-2609262544.360373
 20
-2523174237.571581
 10
-2609262544.374598
 20
-2523174237.561951
 10
-2609262544.387217
 20
-2523174237.552319
 10
-2609262544.398229
 20
-2523174237.541543
 10
-2609262544.408554
 20
-2523174237.530307
 10
-2609262544.416123
 20
-2523174237.519527
 10
-2609262544.432429
 20
-2523174237.496812
 10
-2609262544.449054
 20
-2523174237.470115
 10
-2609262544.460073
 20
-2523174237.452523
 10
-2609262544.482302
 20
-2523174237.418943
 10
-2609262544.496477
 20
-2523174237.400704
 10
-2609262544.510807
 20
-2523174237.384699
 10
-2609262544.526219
 20
-2523174237.369769
 10
-2609262544.544379
 20
-2523174237.354425
 10
-2609262544.563158
 20
-2523174237.340498
 10
-2609262544.585679
 20
-2523174237.325572
 10
-2609262544.604997
 20
-2523174237.315207
 10
-2609262544.624549
 20
-2523174237.305295
 10
-2609262544.64727
 20
-2523174237.296518
 10
-2609262544.666116
 20
-2523174237.29095
 10
-2609262544.696227
 20
-2523174237.284775
 10
-2609262544.481384
 20
-2523174236.907411
 10
-2609262544.443435
 20
-2523174236.922834
 10
-2609262544.419022
 20
-2523174236.934324
 10
-2609262544.391588
 20
-2523174236.948291
 10
-2609262544.369644
 20
-2523174236.959953
 10
-2609262544.348784
 20
-2523174236.971672
 10
-2609262544.318613
 20
-2523174236.98862
 10
-2609262544.290391
 20
-2523174237.006739
 10
-2609262544.262167
 20
-2523174237.024856
 10
-2609262544.227971
 20
-2523174237.048098
 10
-2609262544.206324
 20
-2523174237.064468
 10
-2609262544.180453
 20
-2523174237.084625
 10
-2609262544.150281
 20
-2523174237.109057
 10
-2609262544.130897
 20
-2523174237.124754
 10
-2609262544.108891
 20
-2523174237.145008
 10
-2609262544.043869
 20
-2523174237.208702
 10
-2609262544.010199
 20
-2523174237.245109
 10
-2609262543.976333
 20
-2523174237.285469
 10
-2609262543.957182
 20
-2523174237.308293
 10
-2609262543.935634
 20
-2523174237.336255
 10
-2609262543.904428
 20
-2523174237.38143
 10
-2609262543.886754
 20
-2523174237.40835
 10
-2609262543.864146
 20
-2523174237.445424
 10
-2609262543.842207
 20
-2523174237.483085
 10
-2609262543.819517
 20
-2523174237.526323
 10
-2609262543.800007
 20
-2523174237.566784
 10
-2609262543.788601
 20
-2523174237.592473
 10
-2609262543.784057
 20
-2523174237.605428
1001
AcDbBlockRepETag
1070
     1
1071
      517
1005
0
  0
LWPOLYLINE
  5
86BBD
330
86B76
100
AcDbEntity
  8
Kontur 09
 62
     7
 48
0.001
100
AcDbPolyline
 90
      130
 70
   129
 43
0.0
 10
-2609262545.087152
 20
-2523174237.371247
 10
-2609262545.092816
 20
-2523174237.375175
 10
-2609262545.097574
 20
-2523174237.378538
 10
-2609262545.103713
 20
-2523174237.382991
 10
-2609262545.108388
 20
-2523174237.386436
 10
-2609262545.114316
 20
-2523174237.390803
 10
-2609262545.118797
 20
-2523174237.394168
 10
-2609262545.123675
 20
-2523174237.397864
 10
-2609262545.128786
 20
-2523174237.401765
 10
-2609262545.134029
 20
-2523174237.405791
 10
-2609262545.138213
 20
-2523174237.409017
 10
-2609262545.147929
 20
-2523174237.416477
 10
-2609262545.153264
 20
-2523174237.420566
 10
-2609262545.158774
 20
-2523174237.424787
 10
-2609262545.165043
 20
-2523174237.429592
 10
-2609262545.169948
 20
-2523174237.433203
 10
-2609262545.175102
 20
-2523174237.436998
 10
-2609262545.182251
 20
-2523174237.442262
 10
-2609262545.189858
 20
-2523174237.447668
 10
-2609262545.196112
 20
-2523174237.452012
 10
-2609262545.201824
 20
-2523174237.455882
 10
-2609262545.206349
 20
-2523174237.458796
 10
-2609262545.212765
 20
-2523174237.462928
 10
-2609262545.218452
 20
-2523174237.466593
 10
-2609262545.225631
 20
-2523174237.471216
 10
-2609262545.233965
 20
-2523174237.476255
 10
-2609262545.243594
 20
-2523174237.481999
 10
-2609262545.251235
 20
-2523174237.486385
 10
-2609262545.262859
 20
-2523174237.492795
 10
-2609262545.281362
 20
-2523174237.502997
 10
-2609262545.292962
 20
-2523174237.509103
 10
-2609262545.301187
 20
-2523174237.513304
 10
-2609262545.321248
 20
-2523174237.523145
 10
-2609262545.338823
 20
-2523174237.531435
 10
-2609262545.353101
 20
-2523174237.53801
 10
-2609262545.370602
 20
-2523174237.545347
 10
-2609262545.384203
 20
-2523174237.551049
 10
-2609262545.414308
 20
-2523174237.562832
 10
-2609262545.426989
 20
-2523174237.567491
 10
-2609262545.447782
 20
-2523174237.573567
 10
-2609262545.46624
 20
-2523174237.578684
 10
-2609262545.487426
 20
-2523174237.584286
 10
-2609262545.504215
 20
-2523174237.588543
 10
-2609262545.515616
 20
-2523174237.591435
 10
-2609262545.539333
 20
-2523174237.595535
 10
-2609262545.546274
 20
-2523174237.597255
 10
-2609262545.554232
 20
-2523174237.598971
 10
-2609262545.588317
 20
-2523174237.605843
 10
-2609262545.653945
 20
-2523174237.616943
 10
-2609262545.703592
 20
-2523174237.623502
 10
-2609262545.755781
 20
-2523174237.628716
 10
-2609262545.806913
 20
-2523174237.63217
 10
-2609262545.865748
 20
-2523174237.63413
 10
-2609262545.917559
 20
-2523174237.634077
 10
-2609262545.944
 20
-2523174237.633409
 10
-2609262545.973198
 20
-2523174237.632166
 10
-2609262545.986743
 20
-2523174237.631409
 10
-2609262546.006251
 20
-2523174237.63012
 10
-2609262546.02655
 20
-2523174237.628523
 10
-2609262546.045738
 20
-2523174237.626777
 10
-2609262546.076217
 20
-2523174237.623528
 10
-2609262546.106201
 20
-2523174237.619758
 10
-2609262546.122488
 20
-2523174237.617471
 10
-2609262546.140705
 20
-2523174237.614711
 10
-2609262546.158295
 20
-2523174237.611844
 10
-2609262546.172903
 20
-2523174237.60931
 10
-2609262546.196939
 20
-2523174237.604865
 10
-2609262546.195934
 20
-2523174237.602195
 10
-2609262546.194277
 20
-2523174237.598399
 10
-2609262546.193241
 20
-2523174237.596031
 10
-2609262546.192349
 20
-2523174237.59399
 10
-2609262546.190709
 20
-2523174237.590234
 10
-2609262546.188885
 20
-2523174237.586059
 10
-2609262546.186411
 20
-2523174237.580395
 10
-2609262546.18333
 20
-2523174237.573343
 10
-2609262546.18073
 20
-2523174237.56739
 10
-2609262546.175208
 20
-2523174237.554752
 10
-2609262546.171257
 20
-2523174237.545708
 10
-2609262546.165393
 20
-2523174237.53421
 10
-2609262546.16129
 20
-2523174237.526164
 10
-2609262546.152092
 20
-2523174237.508132
 10
-2609262546.148783
 20
-2523174237.501647
 10
-2609262546.145278
 20
-2523174237.494774
 10
-2609262546.13897
 20
-2523174237.483195
 10
-2609262546.132412
 20
-2523174237.47156
 10
-2609262546.125154
 20
-2523174237.458683
 10
-2609262546.120023
 20
-2523174237.44958
 10
-2609262546.11441
 20
-2523174237.440479
 10
-2609262546.108252
 20
-2523174237.430875
 10
-2609262546.101358
 20
-2523174237.420122
 10
-2609262546.09644
 20
-2523174237.412451
 10
-2609262546.090169
 20
-2523174237.40267
 10
-2609262546.085606
 20
-2523174237.395553
 10
-2609262546.082759
 20
-2523174237.391113
 10
-2609262546.067798
 20
-2523174237.369302
 10
-2609262546.060338
 20
-2523174237.358504
 10
-2609262546.049122
 20
-2523174237.342274
 10
-2609262546.042923
 20
-2523174237.333301
 10
-2609262546.035817
 20
-2523174237.323795
 10
-2609262546.016349
 20
-2523174237.299935
 10
-2609262546.001032
 20
-2523174237.28116
 10
-2609262545.984071
 20
-2523174237.260371
 10
-2609262545.970497
 20
-2523174237.244603
 10
-2609262545.954101
 20
-2523174237.227
 10
-2609262545.940017
 20
-2523174237.211879
 10
-2609262545.924893
 20
-2523174237.19564
 10
-2609262545.904266
 20
-2523174237.175091
 10
-2609262545.889754
 20
-2523174237.161543
 10
-2609262545.873721
 20
-2523174237.146577
 10
-2609262545.84334
 20
-2523174237.119292
 10
-2609262545.81836
 20
-2523174237.098378
 10
-2609262545.79494
 20
-2523174237.080304
 10
-2609262545.748606
 20
-2523174237.047357
 10
-2609262545.727272
 20
-2523174237.032188
 10
-2609262545.69971
 20
-2523174237.01259
 10
-2609262545.669682
 20
-2523174236.993883
 10
-2609262545.617891
 20
-2523174236.963762
 10
-2609262545.587399
 20
-2523174236.948031
 10
-2609262545.557199
 20
-2523174236.933801
 10
-2609262545.512105
 20
-2523174236.912497
 10
-2609262545.476939
 20
-2523174236.89724
 10
-2609262545.44289
 20
-2523174236.8847
 10
-2609262545.429585
 20
-2523174236.8798
 10
-2609262545.376283
 20
-2523174236.86144
 10
-2609262545.347628
 20
-2523174236.852947
 10
-2609262545.311297
 20
-2523174236.843593
 10
-2609262545.278763
 20
-2523174236.836248
 10
-2609262545.226581
 20
-2523174236.822964
 10
-2609262545.087585
 20
-2523174237.369544
 10
-2609262545.087152
 20
-2523174237.371247
1001
AcDbBlockRepETag
1070
     1
1071
      518
1005
0
  0
CIRCLE
  5
86BBE
330
86B76
100
AcDbEntity
  8
Kontur 25
 62
     7
 48
0.001
100
AcDbCircle
 10
-2609262544.99047
 20
-2523174238.113373
 30
0.0
 40
1.504999999999999
  0
CIRCLE
  5
86BBF
330
86B76
100
AcDbEntity
  8
Kontur 25
 62
     7
 48
0.001
100
AcDbCircle
 10
-2609262544.99047
 20
-2523174238.113373
 30
0.0
 40
1.462599999999999
  0
DIMENSION
  5
86BC0
330
86B76
100
AcDbEntity
  8
Bemaßung
 62
     7
 48
0.001
100
AcDbDimension
  2
*D3
 10
-2609262543.485469
 20
-2523174236.059577
 30
0.0
 11
-2609262544.990469
 21
-2523174236.059577
 31
0.0
 70
   129
  1
Ø 3,00
 71
     5
 42
3.009999752044676
  3
100$0
100
AcDbAlignedDimension
 13
-2609262546.495469
 23
-2523174236.693961
 33
0.0
 14
-2609262543.485469
 24
-2523174236.693961
 34
0.0
1001
ACAD_DSTYLE_DIMINSPECT
1070
   396
1000
100%
1070
   395
1000

1070
   394
1070
    33
1070
   393
1070
     0
1001
ACAD
1000
DSTYLE
1002
{
1070
    40
1040
0.001
1002
}
  0
CIRCLE
  5
86BC1
330
86B76
100
AcDbEntity
  8
Kontur 25
 62
     7
 48
0.001
100
AcDbCircle
 10
-2609262546.218121
 20
-2523174237.604865
 30
0.0
 40
0.0211999999999971
  0
CIRCLE
  5
86BC2
330
86B76
100
AcDbEntity
  8
Kontur 09
 62
     7
 48
0.001
100
AcDbCircle
 10
-2609262545.124882
 20
-2523174237.352388
 30
0.0
 40
0.0165
1001
AcDbBlockRepETag
1070
     1
1071
      482
1005
0
  0
CIRCLE
  5
86BC3
330
86B76
100
AcDbEntity
  8
Kontur 09
 62
     7
 48
0.001
100
AcDbCircle
 10
-2609262545.066824
 20
-2523174237.297783
 30
0.0
 40
0.0165
1001
AcDbBlockRepETag
1070
     1
1071
      482
1005
0
  0
MTEXT
  5
86BC4
330
86B76
100
AcDbEntity
  8
Text
 62
     7
 48
0.001
100
AcDbMText
 10
-2609262542.564233
 20
-2523174241.455409
 30
0.0
 40
0.1
 41
0.4586934184016119
 71
     1
 72
     5
  1
{\fTahoma|b1|i0|c0|p34;\LDraufsicht}
  7
100
 73
     1
 44
1.0
1001
ACAD
1000
MTEXTBEGIN
1070
    73
1070
     1
1070
    44
1040
1.0
1070
    74
1070
     0
1000
MTEXTEND
  0
MTEXT
  5
86BC5
102
{ACAD_XDICTIONARY
360
86CBE
102
}
330
86B76
100
AcDbEntity
  8
Text
  6
Continuous
 62
     7
 48
0.001
370
     0
100
AcDbMText
 10
-2609262545.643321
 20
-2523174236.147296
 30
0.0
 40
0.1
 41
2.035443013723823
 71
     1
 72
     5
  1
Ger\U+00E4tedurchmesser
  7
100
 73
     1
 44
1.0
1001
ACAD
1000
MTEXTBEGIN
1070
    73
1070
     1
1070
    44
1040
1.0
1070
    74
1070
     0
1000
MTEXTEND
  0
ARC
  5
86BC6
330
86B76
100
AcDbEntity
  8
dünne Linie
 62
     7
 48
0.001
100
AcDbCircle
 10
-2609262544.99047
 20
-2523174238.113373
 30
0.0
 40
1.425
100
AcDbArc
 50
201.9789522809071
 51
338.0210477190928
  0
ARC
  5
86BC7
330
86B76
100
AcDbEntity
  8
dünne Linie
 62
     7
 48
0.001
100
AcDbCircle
 10
-2609262544.99047
 20
-2523174238.113373
 30
0.0
 40
1.425
100
AcDbArc
 50
21.97895228090713
 51
158.0210477190929
  0
ARC
  5
86BC8
330
86B76
100
AcDbEntity
  8
dünne Linie
 62
     7
 48
0.001
100
AcDbCircle
 10
-2609262544.99047
 20
-2523174238.113373
 30
0.0
 40
1.391299999999999
100
AcDbArc
 50
201.9536161047891
 51
338.046383895211
  0
ARC
  5
86BC9
330
86B76
100
AcDbEntity
  8
dünne Linie
 62
     7
 48
0.001
100
AcDbCircle
 10
-2609262544.99047
 20
-2523174238.113373
 30
0.0
 40
1.391299999999999
100
AcDbArc
 50
21.95361610478904
 51
158.0463838952109
  0
LINE
  5
86BCA
330
86B76
100
AcDbEntity
  8
dünne Linie
 62
     7
 48
0.001
100
AcDbLine
 10
-2609262545.517398
 20
-2523174236.875226
 30
0.0
 11
-2609262545.534907
 21
-2523174236.832955
 31
0.0
  0
LINE
  5
86BCB
330
86B76
100
AcDbEntity
  8
dünne Linie
 62
     7
 48
0.001
100
AcDbLine
 10
-2609262545.493378
 20
-2523174236.865277
 30
0.0
 11
-2609262545.510886
 21
-2523174236.823005
 31
0.0
  0
LINE
  5
86BCC
330
86B76
100
AcDbEntity
  8
dünne Linie
 62
     7
 48
0.001
100
AcDbLine
 10
-2609262544.463541
 20
-2523174236.875226
 30
0.0
 11
-2609262544.446032
 21
-2523174236.832955
 31
0.0
  0
LINE
  5
86BCD
330
86B76
100
AcDbEntity
  8
dünne Linie
 62
     7
 48
0.001
100
AcDbLine
 10
-2609262544.487561
 20
-2523174236.865277
 30
0.0
 11
-2609262544.470052
 21
-2523174236.823005
 31
0.0
  0
LINE
  5
86BCE
330
86B76
100
AcDbEntity
  8
dünne Linie
 62
     7
 48
0.001
100
AcDbLine
 10
-2609262543.752322
 20
-2523174238.640303
 30
0.0
 11
-2609262543.71005
 21
-2523174238.657811
 31
0.0
  0
LINE
  5
86BCF
330
86B76
100
AcDbEntity
  8
dünne Linie
 62
     7
 48
0.001
100
AcDbLine
 10
-2609262543.742372
 20
-2523174238.616281
 30
0.0
 11
-2609262543.669021
 21
-2523174238.646664
 31
0.0
  0
LINE
  5
86BD0
330
86B76
100
AcDbEntity
  8
dünne Linie
 62
     7
 48
0.001
100
AcDbLine
 10
-2609262543.752322
 20
-2523174237.586445
 30
0.0
 11
-2609262543.71005
 21
-2523174237.568936
 31
0.0
  0
LINE
  5
86BD1
330
86B76
100
AcDbEntity
  8
dünne Linie
 62
     7
 48
0.001
100
AcDbLine
 10
-2609262546.270832
 20
-2523174238.65779
 30
0.0
 11
-2609262546.228617
 21
-2523174238.640303
 31
0.0
  0
LINE
  5
86BD2
330
86B76
100
AcDbEntity
  8
dünne Linie
 62
     7
 48
0.001
100
AcDbLine
 10
-2609262543.742372
 20
-2523174237.610465
 30
0.0
 11
-2609262543.669021
 21
-2523174237.580083
 31
0.0
  0
LINE
  5
86BD3
330
86B76
100
AcDbEntity
  8
dünne Linie
 62
     7
 48
0.001
100
AcDbLine
 10
-2609262545.517398
 20
-2523174239.351522
 30
0.0
 11
-2609262545.534907
 21
-2523174239.393792
 31
0.0
  0
LINE
  5
86BD4
330
86B76
100
AcDbEntity
  8
dünne Linie
 62
     7
 48
0.001
100
AcDbLine
 10
-2609262545.493378
 20
-2523174239.361472
 30
0.0
 11
-2609262545.510886
 21
-2523174239.403742
 31
0.0
  0
LINE
  5
86BD5
330
86B76
100
AcDbEntity
  8
dünne Linie
 62
     7
 48
0.001
100
AcDbLine
 10
-2609262544.463541
 20
-2523174239.351522
 30
0.0
 11
-2609262544.446032
 21
-2523174239.393792
 31
0.0
  0
LINE
  5
86BD6
330
86B76
100
AcDbEntity
  8
dünne Linie
 62
     7
 48
0.001
100
AcDbLine
 10
-2609262544.487561
 20
-2523174239.361472
 30
0.0
 11
-2609262544.470052
 21
-2523174239.403742
 31
0.0
  0
CIRCLE
  5
86BD7
102
{ACAD_REACTORS
330
86BDE
102
}
330
86B76
100
AcDbEntity
  8
Sicherheitsbereich
 62
     7
 48
0.001
100
AcDbCircle
 10
-2609262544.99047
 20
-2523174238.113373
 30
0.0
 40
3.504999999999999
  0
MTEXT
  5
86BD8
102
{ACAD_XDICTIONARY
360
86BD9
102
}
330
86B76
100
AcDbEntity
  8
Text
  6
Continuous
 62
     7
 48
0.001
370
     0
100
AcDbMText
 10
-2609262545.564311
 20
-2523174235.086198
 30
0.0
 40
0.1
 41
2.035443013723823
 71
     1
 72
     5
  1
Fallschutzbereich \Pmin. 2,00m umlaufend,\PUntergrund beachten!
  7
100
 73
     1
 44
1.0
1001
AcDbBlockRepETag
1070
     1
1071
      467
1005
0
1001
AcadAnnotative
1000
AnnotativeData
1002
{
1070
     1
1070
     0
1002
}
1001
ACAD
1000
MTEXTBEGIN
1070
    73
1070
     1
1070
    44
1040
1.0
1070
    74
1070
     0
1000
MTEXTEND
  0
DIMENSION
  5
86BDC
102
{ACAD_XDICTIONARY
360
86BDD
102
}
102
{ACAD_REACTORS
330
86BDE
102
}
330
86B76
100
AcDbEntity
  8
Bemaßung
 62
     7
 48
0.001
100
AcDbDimension
  2
*D5
 10
-2609262541.485469
 20
-2523174238.514189
 30
0.0
 11
-2609262542.48547
 21
-2523174238.514189
 31
0.0
 70
   128
  1
SB = min. 2,00m
 71
     5
 42
2.0
  3
100
100
AcDbAlignedDimension
 13
-2609262543.485469
 23
-2523174238.113373
 33
0.0
 14
-2609262541.485469
 24
-2523174238.113373
 34
0.0
100
AcDbRotatedDimension
1001
ACAD
1000
DSTYLE
1002
{
1070
    40
1040
0.001
1002
}
  0
DIMENSION
  5
86BDF
330
86B76
100
AcDbEntity
  8
Bemaßung
 62
     7
 48
0.001
100
AcDbDimension
  2
*D4
 10
-2609262541.485469
 20
-2523174242.053675
 30
0.0
 11
-2609262544.990469
 21
-2523174242.053675
 31
0.0
 70
   128
  1
Sicherheitsbereich Ø min. 7,00m
 71
     5
 42
7.009999752044677
  3
100
100
AcDbAlignedDimension
 13
-2609262548.495469
 23
-2523174238.113373
 33
0.0
 14
-2609262541.485469
 24
-2523174238.121707
 34
0.0
100
AcDbRotatedDimension
1001
ACAD
1000
DSTYLE
1002
{
1070
    40
1040
0.001
1002
}
  0
LINE
  5
86BE0
330
86B76
100
AcDbEntity
  8
dünne Linie
 62
     7
 48
0.001
100
AcDbLine
 10
-2609262546.228617
 20
-2523174238.640303
 30
0.0
 11
-2609262546.270888
 21
-2523174238.657811
 31
0.0
  0
LINE
  5
86BE1
330
86B76
100
AcDbEntity
  8
dünne Linie
 62
     7
 48
0.001
100
AcDbLine
 10
-2609262546.238567
 20
-2523174238.616281
 30
0.0
 11
-2609262546.311918
 21
-2523174238.646664
 31
0.0
  0
LINE
  5
86BE2
330
86B76
100
AcDbEntity
  8
dünne Linie
 62
     7
 48
0.001
100
AcDbLine
 10
-2609262546.228617
 20
-2523174237.586445
 30
0.0
 11
-2609262546.270888
 21
-2523174237.568936
 31
0.0
  0
LINE
  5
86BE3
330
86B76
100
AcDbEntity
  8
dünne Linie
 62
     7
 48
0.001
100
AcDbLine
 10
-2609262546.238567
 20
-2523174237.610465
 30
0.0
 11
-2609262546.311918
 21
-2523174237.580083
 31
0.0
  0
LINE
  5
86BE4
330
86B76
100
AcDbEntity
  8
Kontur 25
 62
     7
 48
0.001
100
AcDbLine
 10
-2609262543.485469
 20
-2523174238.128374
 30
0.0
 11
-2609262543.485544
 21
-2523174238.128374
 31
0.0
  0
LINE
  5
86BE5
330
86B76
100
AcDbEntity
  8
Kontur 25
 62
     7
 48
0.001
100
AcDbLine
 10
-2609262544.960469
 20
-2523174236.65085
 30
0.0
 11
-2609262544.960469
 21
-2523174239.575897
 31
0.0
  0
LINE
  5
86BE6
330
86B76
100
AcDbEntity
  8
Kontur 18
 62
     7
 48
0.001
100
AcDbLine
 10
-2609262546.495395
 20
-2523174238.128374
 30
0.0
 11
-2609262546.495469
 21
-2523174238.128374
 31
0.0
  0
LINE
  5
86BE7
330
86B76
100
AcDbEntity
  8
Kontur 25
 62
     7
 48
0.001
100
AcDbLine
 10
-2609262543.485469
 20
-2523174238.098374
 30
0.0
 11
-2609262543.485544
 21
-2523174238.098374
 31
0.0
  0
LINE
  5
86BE8
330
86B76
100
AcDbEntity
  8
Kontur 25
 62
     7
 48
0.001
100
AcDbLine
 10
-2609262545.020469
 20
-2523174236.65085
 30
0.0
 11
-2609262545.020469
 21
-2523174239.575897
 31
0.0
  0
LINE
  5
86BE9
330
86B76
100
AcDbEntity
  8
Kontur 18
 62
     7
 48
0.001
100
AcDbLine
 10
-2609262546.495395
 20
-2523174238.098374
 30
0.0
 11
-2609262546.495469
 21
-2523174238.098374
 31
0.0
  0
LINE
  5
86BEA
330
86B76
100
AcDbEntity
  8
Kontur 25
 62
     7
 48
0.001
100
AcDbLine
 10
-2609262545.761843
 20
-2523174239.361024
 30
0.0
 11
-2609262545.020469
 21
-2523174239.361024
 31
0.0
  0
LINE
  5
86BEB
330
86B76
100
AcDbEntity
  8
Kontur 25
 62
     7
 48
0.001
100
AcDbLine
 10
-2609262544.960469
 20
-2523174239.361024
 30
0.0
 11
-2609262544.219096
 21
-2523174239.361024
 31
0.0
  0
LINE
  5
86BEC
330
86B76
100
AcDbEntity
  8
Kontur 25
 62
     7
 48
0.001
100
AcDbLine
 10
-2609262545.815563
 20
-2523174239.321024
 30
0.0
 11
-2609262545.020469
 21
-2523174239.321024
 31
0.0
  0
LINE
  5
86BED
330
86B76
100
AcDbEntity
  8
Kontur 25
 62
     7
 48
0.001
100
AcDbLine
 10
-2609262544.960469
 20
-2523174239.321024
 30
0.0
 11
-2609262544.172743
 21
-2523174239.321024
 31
0.0
  0
LINE
  5
86BEE
330
86B76
100
AcDbEntity
  8
Kontur 25
 62
     7
 48
0.001
100
AcDbLine
 10
-2609262546.356169
 20
-2523174238.641884
 30
0.0
 11
-2609262545.020469
 21
-2523174238.641884
 31
0.0
  0
LINE
  5
86BEF
330
86B76
100
AcDbEntity
  8
Kontur 25
 62
     7
 48
0.001
100
AcDbLine
 10
-2609262544.960469
 20
-2523174238.641884
 30
0.0
 11
-2609262543.626697
 21
-2523174238.641884
 31
0.0
  0
LINE
  5
86BF0
330
86B76
100
AcDbEntity
  8
Kontur 25
 62
     7
 48
0.001
100
AcDbLine
 10
-2609262546.369076
 20
-2523174238.601884
 30
0.0
 11
-2609262545.020469
 21
-2523174238.601884
 31
0.0
  0
LINE
  5
86BF1
330
86B76
100
AcDbEntity
  8
Kontur 25
 62
     7
 48
0.001
100
AcDbLine
 10
-2609262544.960469
 20
-2523174238.601884
 30
0.0
 11
-2609262543.611862
 21
-2523174238.601884
 31
0.0
  0
LINE
  5
86BF2
330
86B76
100
AcDbEntity
  8
Kontur 25
 62
     7
 48
0.001
100
AcDbLine
 10
-2609262546.356169
 20
-2523174237.584865
 30
0.0
 11
-2609262545.020469
 21
-2523174237.584865
 31
0.0
  0
LINE
  5
86BF3
330
86B76
100
AcDbEntity
  8
Kontur 25
 62
     7
 48
0.001
100
AcDbLine
 10
-2609262544.960469
 20
-2523174237.584865
 30
0.0
 11
-2609262543.624769
 21
-2523174237.584865
 31
0.0
  0
LINE
  5
86BF4
330
86B76
100
AcDbEntity
  8
Kontur 25
 62
     7
 48
0.001
100
AcDbLine
 10
-2609262546.369076
 20
-2523174237.624864
 30
0.0
 11
-2609262545.020469
 21
-2523174237.624864
 31
0.0
  0
LINE
  5
86BF5
330
86B76
100
AcDbEntity
  8
Kontur 25
 62
     7
 48
0.001
100
AcDbLine
 10
-2609262544.960469
 20
-2523174237.624864
 30
0.0
 11
-2609262543.611862
 21
-2523174237.624864
 31
0.0
  0
LINE
  5
86BF6
330
86B76
100
AcDbEntity
  8
Kontur 25
 62
     7
 48
0.001
100
AcDbLine
 10
-2609262545.761843
 20
-2523174236.865723
 30
0.0
 11
-2609262545.020469
 21
-2523174236.865723
 31
0.0
  0
LINE
  5
86BF7
330
86B76
100
AcDbEntity
  8
Kontur 25
 62
     7
 48
0.001
100
AcDbLine
 10
-2609262544.960469
 20
-2523174236.865723
 30
0.0
 11
-2609262544.219096
 21
-2523174236.865723
 31
0.0
  0
LINE
  5
86BF8
330
86B76
100
AcDbEntity
  8
Kontur 25
 62
     7
 48
0.001
100
AcDbLine
 10
-2609262545.815563
 20
-2523174236.905723
 30
0.0
 11
-2609262545.020469
 21
-2523174236.905723
 31
0.0
  0
LINE
  5
86BF9
330
86B76
100
AcDbEntity
  8
Kontur 25
 62
     7
 48
0.001
100
AcDbLine
 10
-2609262544.960469
 20
-2523174236.905723
 30
0.0
 11
-2609262544.165377
 21
-2523174236.905723
 31
0.0
  0
MTEXT
  5
86BFA
102
{ACAD_XDICTIONARY
360
86BFB
102
}
330
86B76
100
AcDbEntity
  8
Text
  6
Continuous
 62
     7
 48
0.001
370
     0
100
AcDbMText
 10
-2609262545.713974
 20
-2523174240.152297
 30
0.0
 40
0.1
 41
2.035443013723823
 71
     1
 72
     5
  1
Sicherheitsbereich mit Anforderung an den Fallschutz\PFreie Fallh\U+00F6he max. 0,49m
  7
100
 73
     1
 44
1.0
1001
AcDbBlockRepETag
1070
     1
1071
      467
1005
0
1001
AcadAnnotative
1000
AnnotativeData
1002
{
1070
     1
1070
     0
1002
}
1001
ACAD
1000
MTEXTBEGIN
1070
    73
1070
     1
1070
    44
1040
1.0
1070
    74
1070
     0
1000
MTEXTEND
  0
MTEXT
  5
86BFE
102
{ACAD_XDICTIONARY
360
86BFF
102
}
330
86B76
100
AcDbEntity
  8
Text
  6
Continuous
 62
     7
 48
0.001
370
     0
100
AcDbMText
 10
-2609262547.383618
 20
-2523174237.516864
 30
0.0
 40
0.1
 41
2.035443013723823
 71
     1
 72
     5
  1
Dach
  7
100
 73
     1
 44
1.0
1001
AcDbBlockRepETag
1070
     1
1071
      272
1005
0
1001
AcadAnnotative
1000
AnnotativeData
1002
{
1070
     1
1070
     0
1002
}
1001
ACAD
1000
MTEXTBEGIN
1070
    73
1070
     1
1070
    44
1040
1.0
1070
    74
1070
     0
1000
MTEXTEND
  0
LINE
  5
86C02
330
86B76
100
AcDbEntity
  8
dünne Linie
 62
     7
 48
0.001
100
AcDbLine
 10
-2609262546.462565
 20
-2523174237.80039
 30
0.0
 11
-2609262546.985396
 21
-2523174237.623445
 31
0.0
  0
MTEXT
  5
86C03
102
{ACAD_XDICTIONARY
360
86C04
102
}
330
86B76
100
AcDbEntity
  8
Text
  6
Continuous
 62
     7
 48
0.001
370
     0
100
AcDbMText
 10
-2609262543.376096
 20
-2523174237.022688
 30
0.0
 40
0.1
 41
2.035443013723823
 71
     1
 72
     5
  1
Sitzplatten aus HPL
  7
100
 73
     1
 44
1.0
1001
AcDbBlockRepETag
1070
     1
1071
      391
1005
0
1001
AcadAnnotative
1000
AnnotativeData
1002
{
1070
     1
1070
     0
1002
}
1001
ACAD
1000
MTEXTBEGIN
1070
    73
1070
     1
1070
    44
1040
1.0
1070
    74
1070
     0
1000
MTEXTEND
  0
LINE
  5
86C07
330
86B76
100
AcDbEntity
  8
dünne Linie
 62
     7
 48
0.001
100
AcDbLine
 10
-2609262543.977914
 20
-2523174237.454397
 30
0.0
 11
-2609262543.529133
 21
-2523174237.140849
 31
0.0
  0
MTEXT
  5
86C08
102
{ACAD_XDICTIONARY
360
86C09
102
}
330
86B76
100
AcDbEntity
  8
Text
  6
Continuous
 62
     7
 48
0.001
370
     0
100
AcDbMText
 10
-2609262547.260865
 20
-2523174239.485707
 30
0.0
 40
0.1
 41
2.035443013723823
 71
     1
 72
     5
  1
Sitzplatten aus HPL
  7
100
 73
     1
 44
1.0
1001
AcDbBlockRepETag
1070
     1
1071
      391
1005
0
1001
AcadAnnotative
1000
AnnotativeData
1002
{
1070
     1
1070
     0
1002
}
1001
ACAD
1000
MTEXTBEGIN
1070
    73
1070
     1
1070
    44
1040
1.0
1070
    74
1070
     0
1000
MTEXTEND
  0
LINE
  5
86C0C
330
86B76
100
AcDbEntity
  8
dünne Linie
 62
     7
 48
0.001
100
AcDbLine
 10
-2609262546.134226
 20
-2523174239.42041
 30
0.0
 11
-2609262545.685445
 21
-2523174239.106861
 31
0.0
  0
MTEXT
  5
86C0D
330
86B76
100
AcDbEntity
  8
Text
 62
     7
 48
0.001
100
AcDbMText
 10
-2609262543.122726
 20
-2523174237.961722
 30
0.0
 40
0.075
 41
0.7050147217507475
 71
     1
 72
     5
  1
Zugang
 73
     1
 44
1.0
1001
ACAD
1000
MTEXTBEGIN
1070
    73
1070
     1
1070
    44
1040
1.0
1070
    74
1070
     0
1000
MTEXTEND
  0
LINE
  5
86C0E
330
86B76
100
AcDbEntity
  8
Kontur 18
 62
     7
 48
0.001
100
AcDbLine
 10
-2609262542.695482
 20
-2523174238.144163
 30
0.0
 11
-2609262543.209982
 21
-2523174238.144163
 31
0.0
  0
LINE
  5
86C0F
330
86B76
100
AcDbEntity
  8
Kontur 18
 62
     7
 48
0.001
100
AcDbLine
 10
-2609262543.209982
 20
-2523174238.144163
 30
0.0
 11
-2609262543.153961
 21
-2523174238.121819
 31
0.0
  0
LINE
  5
86C10
330
86B76
100
AcDbEntity
  8
Kontur 18
 62
     7
 48
0.001
100
AcDbLine
 10
-2609262543.153961
 20
-2523174238.121819
 30
0.0
 11
-2609262543.153961
 21
-2523174238.144163
 31
0.0
  0
LINE
  5
86C11
330
86B76
100
AcDbEntity
  8
Kontur 18
 62
     7
 48
0.001
100
AcDbLine
 10
-2609262543.209982
 20
-2523174238.144163
 30
0.0
 11
-2609262543.153961
 21
-2523174238.166505
 31
0.0
  0
LINE
  5
86C12
330
86B76
100
AcDbEntity
  8
Kontur 18
 62
     7
 48
0.001
100
AcDbLine
 10
-2609262543.153961
 20
-2523174238.166505
 30
0.0
 11
-2609262543.153961
 21
-2523174238.144163
 31
0.0
  0
MTEXT
  5
86C13
330
86B76
100
AcDbEntity
  8
Text
 62
     7
 48
0.001
100
AcDbMText
 10
-2609262547.320084
 20
-2523174237.961722
 30
0.0
 40
0.075
 41
0.7050147217507475
 71
     1
 72
     5
  1
Zugang
 73
     1
 44
1.0
1001
ACAD
1000
MTEXTBEGIN
1070
    73
1070
     1
1070
    44
1040
1.0
1070
    74
1070
     0
1000
MTEXTEND
  0
LINE
  5
86C14
330
86B76
100
AcDbEntity
  8
Kontur 18
 62
     7
 48
0.001
100
AcDbLine
 10
-2609262547.407339
 20
-2523174238.144163
 30
0.0
 11
-2609262546.892839
 21
-2523174238.144163
 31
0.0
  0
LINE
  5
86C15
330
86B76
100
AcDbEntity
  8
Kontur 18
 62
     7
 48
0.001
100
AcDbLine
 10
-2609262546.892839
 20
-2523174238.144163
 30
0.0
 11
-2609262546.948859
 21
-2523174238.166505
 31
0.0
  0
LINE
  5
86C16
330
86B76
100
AcDbEntity
  8
Kontur 18
 62
     7
 48
0.001
100
AcDbLine
 10
-2609262546.948859
 20
-2523174238.166505
 30
0.0
 11
-2609262546.948859
 21
-2523174238.144163
 31
0.0
  0
LINE
  5
86C17
330
86B76
100
AcDbEntity
  8
Kontur 18
 62
     7
 48
0.001
100
AcDbLine
 10
-2609262546.892839
 20
-2523174238.144163
 30
0.0
 11
-2609262546.948859
 21
-2523174238.121819
 31
0.0
  0
LINE
  5
86C18
330
86B76
100
AcDbEntity
  8
Kontur 18
 62
     7
 48
0.001
100
AcDbLine
 10
-2609262546.948859
 20
-2523174238.121819
 30
0.0
 11
-2609262546.948859
 21
-2523174238.144163
 31
0.0
  0
ENDBLK
  5
86B78
330
86B76
100
AcDbEntity
  8
0
 62
     7
100
AcDbBlockEnd
  0
BLOCK
  5
86D2C
330
86D2B
100
AcDbEntity
  8
0
 62
     7
100
AcDbBlockBegin
  2
*D8
 70
     1
 10
0.0
 20
0.0
 30
0.0
  3
*D8
  1

  0
LINE
  5
86D2D
330
86D2B
100
AcDbEntity
  8
Bemaßung
 62
     0
 48
0.001
370
    -2
100
AcDbLine
 10
-2609262542.461716
 20
-2523174238.503455
 30
0.0
 11
-2609262542.461716
 21
-2523174237.87907
 31
0.0
  0
LINE
  5
86D2E
330
86D2B
100
AcDbEntity
  8
Bemaßung
 62
     0
 48
0.001
370
    -2
100
AcDbLine
 10
-2609262539.451716
 20
-2523174238.503455
 30
0.0
 11
-2609262539.451716
 21
-2523174237.87907
 31
0.0
  0
LINE
  5
86D2F
330
86D2B
100
AcDbEntity
  8
Bemaßung
 62
     0
 48
0.001
370
    -2
100
AcDbLine
 10
-2609262542.361717
 20
-2523174237.89907
 30
0.0
 11
-2609262539.551716
 21
-2523174237.89907
 31
0.0
  0
SOLID
  5
86D30
330
86D2B
100
AcDbEntity
  8
Bemaßung
 62
     0
 48
0.001
100
AcDbTrace
 10
-2609262542.361717
 20
-2523174237.882404
 30
0.0
 11
-2609262542.361717
 21
-2523174237.915737
 31
0.0
 12
-2609262542.461716
 22
-2523174237.89907
 32
0.0
 13
-2609262542.461716
 23
-2523174237.89907
 33
0.0
  0
SOLID
  5
86D31
330
86D2B
100
AcDbEntity
  8
Bemaßung
 62
     0
 48
0.001
100
AcDbTrace
 10
-2609262539.551716
 20
-2523174237.882404
 30
0.0
 11
-2609262539.551716
 21
-2523174237.915737
 31
0.0
 12
-2609262539.451716
 22
-2523174237.89907
 32
0.0
 13
-2609262539.451716
 23
-2523174237.89907
 33
0.0
  0
MTEXT
  5
86D32
102
{ACAD_XDICTIONARY
360
86DB5
102
}
330
86D2B
100
AcDbEntity
  8
Bemaßung
 62
     0
 48
0.001
100
AcDbMText
 10
-2609262540.956716
 20
-2523174237.813557
 30
0.0
 40
0.1
 41
0.0
 71
     5
 72
     1
  1
\U+00D8 3,00
 73
     1
 44
1.0
1001
ACAD
1000
MTEXTBEGIN
1070
    73
1070
     1
1070
    44
1040
1.0
1070
    74
1070
     0
1000
MTEXTEND
  0
POINT
  5
86D33
330
86D2B
100
AcDbEntity
  8
Defpoints
 62
     0
 48
0.001
100
AcDbPoint
 10
-2609262542.461716
 20
-2523174238.533455
 30
0.0
  0
POINT
  5
86D34
330
86D2B
100
AcDbEntity
  8
Defpoints
 62
     0
 48
0.001
100
AcDbPoint
 10
-2609262539.451716
 20
-2523174238.533455
 30
0.0
  0
POINT
  5
86D35
330
86D2B
100
AcDbEntity
  8
Defpoints
 62
     0
 48
0.001
100
AcDbPoint
 10
-2609262539.451716
 20
-2523174237.89907
 30
0.0
  0
ENDBLK
  5
86D36
330
86D2B
100
AcDbEntity
  8
0
 62
     7
100
AcDbBlockEnd
  0
BLOCK
  5
86D38
330
86D37
100
AcDbEntity
  8
0
 62
     7
100
AcDbBlockBegin
  2
*D9
 70
     1
 10
0.0
 20
0.0
 30
0.0
  3
*D9
  1

  0
LINE
  5
86D39
330
86D37
100
AcDbEntity
  8
Bemaßung
 62
     0
 48
0.001
370
    -2
100
AcDbLine
 10
-2609262544.461716
 20
-2523174239.982867
 30
0.0
 11
-2609262544.461716
 21
-2523174243.913169
 31
0.0
  0
LINE
  5
86D3A
330
86D37
100
AcDbEntity
  8
Bemaßung
 62
     0
 48
0.001
370
    -2
100
AcDbLine
 10
-2609262537.451716
 20
-2523174239.991201
 30
0.0
 11
-2609262537.451716
 21
-2523174243.913169
 31
0.0
  0
LINE
  5
86D3B
330
86D37
100
AcDbEntity
  8
Bemaßung
 62
     0
 48
0.001
370
    -2
100
AcDbLine
 10
-2609262544.361716
 20
-2523174243.893169
 30
0.0
 11
-2609262537.551716
 21
-2523174243.893169
 31
0.0
  0
SOLID
  5
86D3C
330
86D37
100
AcDbEntity
  8
Bemaßung
 62
     0
 48
0.001
100
AcDbTrace
 10
-2609262544.361716
 20
-2523174243.876502
 30
0.0
 11
-2609262544.361716
 21
-2523174243.909835
 31
0.0
 12
-2609262544.461716
 22
-2523174243.893169
 32
0.0
 13
-2609262544.461716
 23
-2523174243.893169
 33
0.0
  0
SOLID
  5
86D3D
330
86D37
100
AcDbEntity
  8
Bemaßung
 62
     0
 48
0.001
100
AcDbTrace
 10
-2609262537.551716
 20
-2523174243.876502
 30
0.0
 11
-2609262537.551716
 21
-2523174243.909835
 31
0.0
 12
-2609262537.451716
 22
-2523174243.893169
 32
0.0
 13
-2609262537.451716
 23
-2523174243.893169
 33
0.0
  0
MTEXT
  5
86D3E
102
{ACAD_XDICTIONARY
360
86DB7
102
}
330
86D37
100
AcDbEntity
  8
Bemaßung
 62
     0
 48
0.001
100
AcDbMText
 10
-2609262540.956716
 20
-2523174243.807655
 30
0.0
 40
0.1
 41
0.0
 71
     5
 72
     1
  1
Sicherheitsbereich \U+00D8 min. 7,00m
 73
     1
 44
1.0
1001
ACAD
1000
MTEXTBEGIN
1070
    73
1070
     1
1070
    44
1040
1.0
1070
    74
1070
     0
1000
MTEXTEND
  0
POINT
  5
86D3F
330
86D37
100
AcDbEntity
  8
Defpoints
 62
     0
 48
0.001
100
AcDbPoint
 10
-2609262544.461716
 20
-2523174239.952867
 30
0.0
  0
POINT
  5
86D40
330
86D37
100
AcDbEntity
  8
Defpoints
 62
     0
 48
0.001
100
AcDbPoint
 10
-2609262537.451716
 20
-2523174239.9612
 30
0.0
  0
POINT
  5
86D41
330
86D37
100
AcDbEntity
  8
Defpoints
 62
     0
 48
0.001
100
AcDbPoint
 10
-2609262537.451716
 20
-2523174243.893169
 30
0.0
  0
ENDBLK
  5
86D42
330
86D37
100
AcDbEntity
  8
0
 62
     7
100
AcDbBlockEnd
  0
BLOCK
  5
86D44
330
86D43
100
AcDbEntity
  8
0
 62
     7
100
AcDbBlockBegin
  2
*D10
 70
     1
 10
0.0
 20
0.0
 30
0.0
  3
*D10
  1

  0
LINE
  5
86D45
330
86D43
100
AcDbEntity
  8
Bemaßung
 62
     0
 48
0.001
370
    -2
100
AcDbLine
 10
-2609262539.451716
 20
-2523174239.982867
 30
0.0
 11
-2609262539.451716
 21
-2523174240.373682
 31
0.0
  0
LINE
  5
86D46
330
86D43
100
AcDbEntity
  8
Bemaßung
 62
     0
 48
0.001
370
    -2
100
AcDbLine
 10
-2609262537.451716
 20
-2523174239.982867
 30
0.0
 11
-2609262537.451716
 21
-2523174240.373682
 31
0.0
  0
LINE
  5
86D47
330
86D43
100
AcDbEntity
  8
Bemaßung
 62
     0
 48
0.001
370
    -2
100
AcDbLine
 10
-2609262539.351716
 20
-2523174240.353682
 30
0.0
 11
-2609262537.551716
 21
-2523174240.353682
 31
0.0
  0
SOLID
  5
86D48
330
86D43
100
AcDbEntity
  8
Bemaßung
 62
     0
 48
0.001
100
AcDbTrace
 10
-2609262539.351716
 20
-2523174240.337015
 30
0.0
 11
-2609262539.351716
 21
-2523174240.370349
 31
0.0
 12
-2609262539.451716
 22
-2523174240.353682
 32
0.0
 13
-2609262539.451716
 23
-2523174240.353682
 33
0.0
  0
SOLID
  5
86D49
330
86D43
100
AcDbEntity
  8
Bemaßung
 62
     0
 48
0.001
100
AcDbTrace
 10
-2609262537.551716
 20
-2523174240.337015
 30
0.0
 11
-2609262537.551716
 21
-2523174240.370349
 31
0.0
 12
-2609262537.451716
 22
-2523174240.353682
 32
0.0
 13
-2609262537.451716
 23
-2523174240.353682
 33
0.0
  0
MTEXT
  5
86D4A
330
86D43
100
AcDbEntity
  8
Bemaßung
 62
     0
 48
0.001
100
AcDbMText
 10
-2609262538.451716
 20
-2523174240.270217
 30
0.0
 40
0.1
 41
0.0
 71
     5
 72
     1
  1
SB = min. 2,00m
 73
     1
 44
1.0
1001
ACAD
1000
MTEXTBEGIN
1070
    73
1070
     1
1070
    44
1040
1.0
1070
    74
1070
     0
1000
MTEXTEND
  0
POINT
  5
86D4B
330
86D43
100
AcDbEntity
  8
Defpoints
 62
     0
 48
0.001
100
AcDbPoint
 10
-2609262539.451716
 20
-2523174239.952867
 30
0.0
  0
POINT
  5
86D4C
330
86D43
100
AcDbEntity
  8
Defpoints
 62
     0
 48
0.001
100
AcDbPoint
 10
-2609262537.451716
 20
-2523174239.952867
 30
0.0
  0
POINT
  5
86D4D
330
86D43
100
AcDbEntity
  8
Defpoints
 62
     0
 48
0.001
100
AcDbPoint
 10
-2609262537.451716
 20
-2523174240.353682
 30
0.0
  0
ENDBLK
  5
86D4E
330
86D43
100
AcDbEntity
  8
0
 62
     7
100
AcDbBlockEnd
  0
ENDSEC
  0
SECTION
  2
ENTITIES
  0
3DSOLID
  5
86950
330
23
100
AcDbEntity
  8
Kontur 25
100
AcDbModelerGeometry
 70
     1
  1
koo lk n o          
  1
ni ^ *+0;:,4 ^ *+0\^ [ nf ^ LR mmoqoqoqjkoo QK o  
  1
n fqfffffffffffffffj:rooh n:rono 
  1
=0;& {n {m {rn {rn |
  1
-:9@)+r:&:r>++-6= {rn {rn {rn {o {rn {rn |
  1
3*2/ {l {rn {k {o |
  1
-:9@)+r:&:r>++-6= {rn {rn {rn {m {rn {rn |
  1
,7:33 {j {rn {rn {i {rn {m |
  1
-:9@)+r:&:r>++-6= {rn {rn {rn {k {rn {rn |
  1
9><: {h {g {f {k {rn {no 90-(>-; ,6183: |
  1
92:,7r:&:r>++-6= {rn {nn {rn {i |
  1
9><: {nm {nl {nk {k {rn {nj -:):-,:; ,6183: |
  1
300/ {rn {ni {nh {i |
  1
<01:r,*-9><: {rn nmnnijqkkjjjlihlfk rlfjgkqiihhlhlnmhnh o o o n mnqnffffffffffffff o o n V V o n mnqnffffffffffffff 90-(>-; V V V V |
  1
-:9@)+r:&:r>++-6= {rn {rn {h {i {rn {rn |
  1
92:,7r:&:r>++-6= {rn {ng {rn {g |
  1
9><: {nf {rn {mo {k {rn {mn 90-(>-; ,6183: |
  1
300/ {rn {rn {mm {g |
  1
/3>1:r,*-9><: {rn nmnnijqkkjjjlihlfk rlfjgkqiihhlhlnmhnh o o o n nooo o o 90-(>-;@) V V V V |
  1
300/ {rn {rn {ml {i |
  1
<0:;8: {rn {nh {nh {mk {mj 90-(>-; {f {rn |
  1
-:9@)+r:&:r>++-6= {rn {rn {nm {g {rn {rn |
  1
92:,7r:&:r>++-6= {rn {mi {rn {nl |
  1
300/ {rn {rn {mk {nl |
  1
/3>1:r,*-9><: {rn nmnnijqkkjjjlihlfk rlfjgkqiihhlhlnmhnh mkoo o o n nooo o o 90-(>-;@) V V V V |
  1
<0:;8: {rn {mm {mm {ml {mh -:):-,:; {nk {rn |
  1
<0:;8: {rn {ml {ml {mm {mh 90-(>-; {ni {rn |
  1
<0:;8: {rn {mk {mk {nh {mj -:):-,:; {mo {rn |
  1
:;8: {rn {mg {mg {nh {mf 90-(>-; |
  1
-:9@)+r:&:r>++-6= {rn {rn {nf {nl {rn {rn |
  1
:;8: {rn {lo {lo {ml {ln 90-(>-; |
  1
):-+:' {rn {mj {lm |
  1
:336/,:r<*-): {rn nmnnijqkkjjjlihlfk rlfjgkqiihhlhlnmhnh mkoo ro ro rn mnqnffffffffffffff o o n V V |
  1
):-+:' {rn {mh {ll |
  1
:336/,:r<*-): {rn nmnnijqkkjjjlihlfk rlfjgkqiihhlhlnmhnh o o o n mnqnffffffffffffff o o n V V |
  1
/061+ {rn nmnngiqikjjjljkmgn rlfjgkqiihhlhlnmhnh mkoo |
  1
/061+ {rn nmnngiqikjjjljkmgn rlfjgkqiihhlhlnmhnh o |
1001
AcDbBlockRepETag
1070
     1
1071
      470
1005
0
1001
ACAD_OBJECT_CHANGE_GUID
1070
     1
1071
1741878315
1070
-30661
1070
 18093
1070
   169
1070
   173
1070
   215
1070
   151
1070
   200
1070
     9
1070
    16
1070
   112
  0
3DSOLID
  5
86957
330
23
100
AcDbEntity
  8
Kontur 25
100
AcDbModelerGeometry
 70
     1
  1
koo lk n o          
  1
ni ^ *+0;:,4 ^ *+0\^ [ nf ^ LR mmoqoqoqjkoo QK o  
  1
n fqfffffffffffffffj:rooh n:rono 
  1
=0;& {n {m {rn {rn |
  1
-:9@)+r:&:r>++-6= {rn {rn {rn {o {rn {rn |
  1
3*2/ {l {rn {k {o |
  1
-:9@)+r:&:r>++-6= {rn {rn {rn {m {rn {rn |
  1
,7:33 {j {rn {rn {i {rn {m |
  1
-:9@)+r:&:r>++-6= {rn {rn {rn {k {rn {rn |
  1
9><: {h {g {f {k {rn {no 90-(>-; ,6183: |
  1
92:,7r:&:r>++-6= {rn {nn {rn {i |
  1
9><: {nm {nl {nk {k {rn {nj -:):-,:; ,6183: |
  1
300/ {rn {ni {nh {i |
  1
<01:r,*-9><: {rn nmnggkqjgiflmihmh rkololqgofnnjlgonjn o o o n mnqnffffffffffffff o o n V V o n mnqnffffffffffffff 90-(>-; V V V V |
  1
-:9@)+r:&:r>++-6= {rn {rn {h {i {rn {rn |
  1
92:,7r:&:r>++-6= {rn {ng {rn {g |
  1
9><: {nf {rn {mo {k {rn {mn 90-(>-; ,6183: |
  1
300/ {rn {rn {mm {g |
  1
/3>1:r,*-9><: {rn nmnggkqjgiflmihmh rkololqgofnnjlgonjn o o o n nooo o o 90-(>-;@) V V V V |
  1
300/ {rn {rn {ml {i |
  1
<0:;8: {rn {nh {nh {mk {mj 90-(>-; {f {rn |
  1
-:9@)+r:&:r>++-6= {rn {rn {nm {g {rn {rn |
  1
92:,7r:&:r>++-6= {rn {mi {rn {nl |
  1
300/ {rn {rn {mk {nl |
  1
/3>1:r,*-9><: {rn nmnggkqjgiflmihmh rkololqgofnnjlgonjn mkoo o o n nooo o o 90-(>-;@) V V V V |
  1
<0:;8: {rn {mm {mm {ml {mh -:):-,:; {nk {rn |
  1
<0:;8: {rn {ml {ml {mm {mh 90-(>-; {ni {rn |
  1
<0:;8: {rn {mk {mk {nh {mj -:):-,:; {mo {rn |
  1
:;8: {rn {mg {mg {nh {mf 90-(>-; |
  1
-:9@)+r:&:r>++-6= {rn {rn {nf {nl {rn {rn |
  1
:;8: {rn {lo {lo {ml {ln 90-(>-; |
  1
):-+:' {rn {mj {lm |
  1
:336/,:r<*-): {rn nmnggkqjgiflmihmh rkololqgofnnjlgonjn mkoo ro ro rn mnqnffffffffffffff o o n V V |
  1
):-+:' {rn {mh {ll |
  1
:336/,:r<*-): {rn nmnggkqjgiflmihmh rkololqgofnnjlgonjn o o o n mnqnffffffffffffff o o n V V |
  1
/061+ {rn nmnfojqhgiflmjknjh rkololqgofnnjlgonjn mkoo |
  1
/061+ {rn nmnfojqhgiflmjknjh rkololqgofnnjlgonjn o |
1001
AcDbBlockRepETag
1070
     1
1071
      471
1005
0
1001
ACAD_OBJECT_CHANGE_GUID
1070
     1
1071
-78529736
1070
-25086
1070
 16609
1070
   184
1070
   173
1070
   251
1070
    28
1070
   133
1070
   193
1070
   225
1070
    69
  0
3DSOLID
  5
8695E
330
23
100
AcDbEntity
  8
Kontur 25
100
AcDbModelerGeometry
 70
     1
  1
koo lk n o          
  1
ni ^ *+0;:,4 ^ *+0\^ [ nf ^ LR mmoqoqoqjkoo QK o  
  1
n fqfffffffffffffffj:rooh n:rono 
  1
=0;& {n {m {rn {rn |
  1
-:9@)+r:&:r>++-6= {rn {rn {rn {o {rn {rn |
  1
3*2/ {l {rn {k {o |
  1
-:9@)+r:&:r>++-6= {rn {rn {rn {m {rn {rn |
  1
,7:33 {j {rn {rn {i {rn {m |
  1
-:9@)+r:&:r>++-6= {rn {rn {rn {k {rn {rn |
  1
9><: {h {g {f {k {rn {no 90-(>-; ,6183: |
  1
92:,7r:&:r>++-6= {rn {nn {rn {i |
  1
9><: {nm {nl {nk {k {rn {nj -:):-,:; ,6183: |
  1
300/ {rn {ni {nh {i |
  1
<01:r,*-9><: {rn nmmfonqioikmmonlng rkololqgofnnjlgonjn o o o n mnqnffffffffffffff o o n V V o n mnqnffffffffffffff 90-(>-; V V V V |
  1
-:9@)+r:&:r>++-6= {rn {rn {h {i {rn {rn |
  1
92:,7r:&:r>++-6= {rn {ng {rn {g |
  1
9><: {nf {rn {mo {k {rn {mn 90-(>-; ,6183: |
  1
300/ {rn {rn {mm {g |
  1
/3>1:r,*-9><: {rn nmmfonqioikmmonlng rkololqgofnnjlgonjn o o o n nooo o o 90-(>-;@) V V V V |
  1
300/ {rn {rn {ml {i |
  1
<0:;8: {rn {nh {nh {mk {mj 90-(>-; {f {rn |
  1
-:9@)+r:&:r>++-6= {rn {rn {nm {g {rn {rn |
  1
92:,7r:&:r>++-6= {rn {mi {rn {nl |
  1
300/ {rn {rn {mk {nl |
  1
/3>1:r,*-9><: {rn nmmfonqioikmmonlng rkololqgofnnjlgonjn mkoo o o n nooo o o 90-(>-;@) V V V V |
  1
<0:;8: {rn {mm {mm {ml {mh -:):-,:; {nk {rn |
  1
<0:;8: {rn {ml {ml {mm {mh 90-(>-; {ni {rn |
  1
<0:;8: {rn {mk {mk {nh {mj -:):-,:; {mo {rn |
  1
:;8: {rn {mg {mg {nh {mf 90-(>-; |
  1
-:9@)+r:&:r>++-6= {rn {rn {nf {nl {rn {rn |
  1
:;8: {rn {lo {lo {ml {ln 90-(>-; |
  1
):-+:' {rn {mj {lm |
  1
:336/,:r<*-): {rn nmmfonqioikmmonlng rkololqgofnnjlgonjn mkoo ro ro rn mnqnffffffffffffff o o n V V |
  1
):-+:' {rn {mh {ll |
  1
:336/,:r<*-): {rn nmmfonqioikmmonlng rkololqgofnnjlgonjn o o o n mnqnffffffffffffff o o n V V |
  1
/061+ {rn nmmfmmqgoikmngmff rkololqgofnnjlgonjn mkoo |
  1
/061+ {rn nmmfmmqgoikmngmff rkololqgofnnjlgonjn o |
1001
AcDbBlockRepETag
1070
     1
1071
      472
1005
0
1001
ACAD_OBJECT_CHANGE_GUID
1070
     1
1071
677412837
1070
 20812
1070
 17608
1070
   171
1070
     4
1070
   225
1070
    71
1070
     5
1070
   209
1070
   108
1070
   109
  0
3DSOLID
  5
86964
330
23
100
AcDbEntity
  8
Kontur 25
100
AcDbModelerGeometry
 70
     1
  1
koo lk n o          
  1
ni ^ *+0;:,4 ^ *+0\^ [ nf ^ LR mmoqoqoqjkoo QK o  
  1
n fqfffffffffffffffj:rooh n:rono 
  1
=0;& {n {m {rn {rn |
  1
-:9@)+r:&:r>++-6= {rn {rn {rn {o {rn {rn |
  1
3*2/ {l {rn {k {o |
  1
-:9@)+r:&:r>++-6= {rn {rn {rn {m {rn {rn |
  1
,7:33 {j {rn {rn {i {rn {m |
  1
-:9@)+r:&:r>++-6= {rn {rn {rn {k {rn {rn |
  1
9><: {h {g {f {k {rn {no 90-(>-; ,6183: |
  1
92:,7r:&:r>++-6= {rn {nn {rn {i |
  1
9><: {nm {nl {nk {k {rn {nj -:):-,:; ,6183: |
  1
300/ {rn {ni {nh {i |
  1
<01:r,*-9><: {rn nmlimoqhkhhffjgggg rlfjgkqiihhlhlnmhnh o o o n mnqnffffffffffffff o o n V V o n mnqnffffffffffffff 90-(>-; V V V V |
  1
-:9@)+r:&:r>++-6= {rn {rn {h {i {rn {rn |
  1
92:,7r:&:r>++-6= {rn {ng {rn {g |
  1
9><: {nf {rn {mo {k {rn {mn 90-(>-; ,6183: |
  1
300/ {rn {rn {mm {g |
  1
/3>1:r,*-9><: {rn nmlimoqhkhhffjgggg rlfjgkqiihhlhlnmhnh o o o n nooo o o 90-(>-;@) V V V V |
  1
300/ {rn {rn {ml {i |
  1
<0:;8: {rn {nh {nh {mk {mj 90-(>-; {f {rn |
  1
-:9@)+r:&:r>++-6= {rn {rn {nm {g {rn {rn |
  1
92:,7r:&:r>++-6= {rn {mi {rn {nl |
  1
300/ {rn {rn {mk {nl |
  1
/3>1:r,*-9><: {rn nmlimoqhkhhffjgggg rlfjgkqiihhlhlnmhnh mkoo o o n nooo o o 90-(>-;@) V V V V |
  1
<0:;8: {rn {mm {mm {ml {mh -:):-,:; {nk {rn |
  1
<0:;8: {rn {ml {ml {mm {mh 90-(>-; {ni {rn |
  1
<0:;8: {rn {mk {mk {nh {mj -:):-,:; {mo {rn |
  1
:;8: {rn {mg {mg {nh {mf 90-(>-; |
  1
-:9@)+r:&:r>++-6= {rn {rn {nf {nl {rn {rn |
  1
:;8: {rn {lo {lo {ml {ln 90-(>-; |
  1
):-+:' {rn {mj {lm |
  1
:336/,:r<*-): {rn nmlimoqhkhhffjgggg rlfjgkqiihhlhlnmhnh mkoo ro ro rn mnqnffffffffffffff o o n V V |
  1
):-+:' {rn {mh {ll |
  1
:336/,:r<*-): {rn nmlimoqhkhhffjgggg rlfjgkqiihhlhlnmhnh o o o n mnqnffffffffffffff o o n V V |
  1
/061+ {rn nmliknqfkhhffkjhhj rlfjgkqiihhlhlnmhnh mkoo |
  1
/061+ {rn nmliknqfkhhffkjhhj rlfjgkqiihhlhlnmhnh o |
1001
AcDbBlockRepETag
1070
     1
1071
      473
1005
0
1001
ACAD_OBJECT_CHANGE_GUID
1070
     1
1071
-1105398517
1070
 24310
1070
 20331
1070
   162
1070
   222
1070
   253
1070
   215
1070
    21
1070
   106
1070
   230
1070
   177
  0
INSERT
  5
86D58
330
23
100
AcDbEntity
  8
Text
 62
     7
100
AcDbBlockReference
  2
Eigentum
 10
-2609262541.385106
 20
-2523174240.68953
 30
0.0
 41
0.1280383583326318
 42
0.1280383583326318
 43
0.1280383583326318
  0
INSERT
  5
86D59
330
23
100
AcDbEntity
  8
ESF_Spielgeraet
 62
     7
100
AcDbBlockReference
  2
12-1020-XXE-9-000 Gernerationenkarussell
 10
2.799875736236572
 20
5.75524091720581
 30
0.0
  0
VIEWPORT
  5
31D0B
102
{ACAD_XDICTIONARY
360
31D0C
102
}
330
31D04
100
AcDbEntity
 67
     1
  8
0
100
AcDbViewport
 10
483.282452401171
 20
349.7422830377499
 30
0.0
 40
1593.145427720032
 41
733.7515219152199
 68
     1
 69
     1
 12
483.282452401171
 22
349.7422830377499
 13
0.0
 23
0.0
 14
10.0
 24
10.0
 15
10.0
 25
10.0
 16
0.0
 26
0.0
 36
1.0
 17
0.0
 27
0.0
 37
0.0
 42
50.0
 43
0.0
 44
0.0
 45
733.7515219152199
 50
0.0
 51
0.0
 72
  1000
 90
   557088
  1

281
     0
 71
     1
 74
     0
110
0.0
120
0.0
130
0.0
111
1.0
121
0.0
131
0.0
112
0.0
122
1.0
132
0.0
 79
     0
146
0.0
1001
GENIUS_GENOBJ-N-SDF_13
1002
{
1000
OWNER
1000
GEN
1002
}
1001
GENIUS_GENODEF_13
1002
{
1000
HIER
1070
     0
1002
}
1002
{
1000
MANEDIT
1070
     0
1002
}
1002
{
1000
NOSEL
1070
     0
1002
}
1002
{
1000
BEHIND
1070
     0
1002
}
1002
{
1000
OTHER
1070
     0
1002
}
1002
{
1000
REACTOR
1002
}
1001
GENIUS_GENSCREG_15
1000
PF
1040
1.0
1000
DF
1040
1.0
1000
MIN
1011
-313.2902614588449
1021
-17.13347791986007
1031
0.0
1000
MAX
1011
1279.855166261187
1021
716.6180439953598
1031
0.0
1000
FLAGS
1070
     4
  0
VIEWPORT
  5
31D0F
102
{ACAD_XDICTIONARY
360
31D10
102
}
330
31D04
100
AcDbEntity
 67
     1
  8
Bemaßung
100
AcDbViewport
 10
416.7762314517068
 20
293.3561253583834
 30
0.0
 40
832.0298757025367
 41
585.2003349322959
 68
     2
 69
     2
 12
0.6081051326059708
 22
11.61366432708467
 13
0.0
 23
0.0
 14
10.0
 24
10.0
 15
10.0
 25
10.0
 16
0.0
 26
0.0
 36
121.097421126282
 17
-394.7731158432434
 27
-119.1469778502139
 37
0.0
 42
50.0
 43
0.0
 44
0.0
 45
58.52003427387774
 50
0.0
 51
0.0
 72
  1000
 90
   819296
  1

281
     0
 71
     1
 74
     0
110
0.0
120
0.0
130
0.0
111
1.0
121
0.0
131
0.0
112
0.0
122
1.0
132
0.0
 79
     0
146
0.0
1001
GENIUS_GENOBJ-N-SDF_13
1002
{
1000
OWNER
1000
GEN
1002
}
1001
GENIUS_GENODEF_13
1002
{
1000
HIER
1070
     0
1002
}
1002
{
1000
MANEDIT
1070
     0
1002
}
1002
{
1000
NOSEL
1070
     0
1002
}
1002
{
1000
BEHIND
1070
     0
1002
}
1002
{
1000
OTHER
1070
     0
1002
}
1002
{
1000
REACTOR
1002
}
1001
GENIUS_GENSCREG_15
1000
PF
1040
0.0
1000
DF
1040
0.0
1000
MIN
1011
0.7612936004385347
1021
0.7559578922354149
1031
0.0
1000
MAX
1011
832.7911693029752
1021
585.9562928245313
1031
0.0
1000
FLAGS
1070
     4
  0
ENDSEC
  0
SECTION
  2
OBJECTS
  0
DICTIONARY
  5
C
330
0
100
AcDbDictionary
281
     1
  3
ACAD_2007HEADERVARS_RT
350
86D67
  3
ACAD_BACKGROUND
350
A3CD
  3
ACAD_CIP_PREVIOUS_PRODUCT_INFO
350
31BFC
  3
ACAD_COLOR
350
1C
  3
ACAD_DETAILVIEWSTYLE
350
31BF3
  3
ACAD_FIELDLIST
350
535E2
  3
ACAD_GROUP
350
D
  3
ACAD_IMAGE_DICT
350
6518
  3
ACAD_IMAGE_VARS
350
651A
  3
ACAD_LAYOUT
350
1A
  3
ACAD_MATERIAL
350
1B
  3
ACAD_MLEADERSTYLE
350
252D
  3
ACAD_MLINESTYLE
350
17
  3
ACAD_PDFDEFINITIONS
350
22688
  3
ACAD_PLOTSETTINGS
350
19
  3
ACAD_PLOTSTYLENAME
350
E
  3
ACAD_SCALELIST
350
250B
  3
ACAD_SECTIONVIEWSTYLE
350
31BF1
  3
ACAD_TABLESTYLE
350
1D
  3
ACAD_VISUALSTYLE
350
1D92
  3
ACAD_WIPEOUT_VARS
350
10CEB
  3
AcadDim
350
1AFF
  3
ACDB_RECOMPOSE_DATA
350
86D65
  3
AcDbVariableDictionary
350
86D5A
  3
AcmDictionary
350
535AD
  3
AEC_PROPERTY_SET_DEFS
350
5E76
  3
AMG
350
53586
  3
AMGSNAPSETTINGS
350
535F5
  3
DWGPROPS
350
86D66
  0
DICTIONARY
  5
592E
330
8
100
AcDbDictionary
280
     1
281
     1
  0
DICTIONARY
  5
48
330
2
100
AcDbDictionary
280
     1
281
     1
  3
ACAD_LAYERFILTERS
360
5B6B
  3
ACAD_LAYERSTATES
360
67
  3
ACLYDICTIONARY
360
5B6A
  0
DICTIONARY
  5
253B
330
10
100
AcDbDictionary
280
     1
281
     1
  3
ADSK_XREC_LAYER_RECONCILED
360
253C
  0
DICTIONARY
  5
2549
330
3F
100
AcDbDictionary
280
     1
281
     1
  3
ADSK_XREC_LAYER_RECONCILED
360
254A
  0
DICTIONARY
  5
32AF4
330
32AF3
100
AcDbDictionary
280
     1
281
     1
  0
DICTIONARY
  5
517C9
330
517C8
100
AcDbDictionary
280
     1
281
     1
  0
DICTIONARY
  5
86871
330
86870
100
AcDbDictionary
280
     1
281
     1
  0
DICTIONARY
  5
86873
330
86872
100
AcDbDictionary
280
     1
281
     1
  0
DICTIONARY
  5
86875
330
86874
100
AcDbDictionary
280
     1
281
     1
  0
DICTIONARY
  5
1FDD
330
23
100
AcDbDictionary
280
     1
281
     1
  3
ACAD_SORTENTS
360
1FDE
  0
DICTIONARY
  5
51991
330
5198F
100
AcDbDictionary
280
     1
281
     1
  3
ACAD_SORTENTS
360
51992
  0
DICTIONARY
  5
86CAE
330
51990
100
AcDbDictionary
280
     1
281
     1
  3
ACAD_MTEXT_RT
360
86DAC
  0
DICTIONARY
  5
86CBC
330
86B72
100
AcDbDictionary
280
     1
281
     1
  3
ACAD_MTEXT_RT
360
86DB2
  0
DICTIONARY
  5
86CBA
330
86B60
100
AcDbDictionary
280
     1
281
     1
  3
ACAD_MTEXT_RT
360
86DB1
  0
DICTIONARY
  5
86B81
330
86B80
100
AcDbDictionary
280
     1
281
     1
  3
AcDbContextDataManager
360
86B82
  0
DICTIONARY
  5
86B85
330
86B84
100
AcDbDictionary
280
     1
281
     1
  3
AcDbContextDataManager
360
86B86
  0
DICTIONARY
  5
86B89
330
86B88
100
AcDbDictionary
280
     1
281
     1
  3
AcDbContextDataManager
360
86B8A
  0
DICTIONARY
  5
86B8F
330
86B8E
100
AcDbDictionary
280
     1
281
     1
  3
AcDbContextDataManager
360
86B90
  0
DICTIONARY
  5
86B94
330
86B93
100
AcDbDictionary
280
     1
281
     1
  3
AcDbContextDataManager
360
86B95
  0
DICTIONARY
  5
86BAD
330
86BAC
100
AcDbDictionary
280
     1
281
     1
  3
AcDbContextDataManager
360
86BAE
  0
DICTIONARY
  5
86CBE
330
86BC5
100
AcDbDictionary
280
     1
281
     1
  3
ACAD_MTEXT_RT
360
86DB3
  0
DICTIONARY
  5
86BD9
330
86BD8
100
AcDbDictionary
280
     1
281
     1
  3
AcDbContextDataManager
360
86BDA
  0
DICTIONARY
  5
86BDD
330
86BDC
100
AcDbDictionary
280
     1
281
     1
  3
ACAD_DIMASSOC
360
86BDE
  0
DICTIONARY
  5
86BFB
330
86BFA
100
AcDbDictionary
280
     1
281
     1
  3
ACAD_MTEXT_RT
360
86DB4
  3
AcDbContextDataManager
360
86BFC
  0
DICTIONARY
  5
86BFF
330
86BFE
100
AcDbDictionary
280
     1
281
     1
  3
AcDbContextDataManager
360
86C00
  0
DICTIONARY
  5
86C04
330
86C03
100
AcDbDictionary
280
     1
281
     1
  3
AcDbContextDataManager
360
86C05
  0
DICTIONARY
  5
86C09
330
86C08
100
AcDbDictionary
280
     1
281
     1
  3
AcDbContextDataManager
360
86C0A
  0
DICTIONARY
  5
86DB5
330
86D32
100
AcDbDictionary
280
     1
281
     1
  3
ACAD_MTEXT_RT
360
86DB6
  0
DICTIONARY
  5
86DB7
330
86D3E
100
AcDbDictionary
280
     1
281
     1
  3
ACAD_MTEXT_RT
360
86DB8
  0
DICTIONARY
  5
31D0C
330
31D0B
100
AcDbDictionary
280
     1
281
     1
  3
ACAD_XREC_ROUNDTRIP
360
86DAA
  3
ASDK_XREC_ANNOTATION_SCALE_INFO
360
31D0D
  0
DICTIONARY
  5
31D10
330
31D0F
100
AcDbDictionary
280
     1
281
     1
  3
ACAD_XREC_ROUNDTRIP
360
86DAB
  3
ASDK_XREC_ANNOTATION_SCALE_INFO
360
31D11
  0
DICTIONARY
  5
86D67
102
{ACAD_REACTORS
330
C
102
}
330
C
100
AcDbDictionary
281
     1
  3
DIMJOGANG
350
86D68
  3
DIMLTEX1
350
86D6A
  3
DIMLTEX2
350
86D6B
  3
DIMLTYPE
350
86D69
  3
INTERFEREVPVS
350
86D6C
  0
DICTIONARY
  5
A3CD
102
{ACAD_REACTORS
330
C
102
}
330
C
100
AcDbDictionary
281
     1
  0
XRECORD
  5
31BFC
102
{ACAD_REACTORS
330
C
102
}
330
C
100
AcDbXrecord
280
     1
300
AMECH_PP
300
2015
300
PDSP_F_S
  0
DICTIONARY
  5
1C
102
{ACAD_REACTORS
330
C
102
}
330
C
100
AcDbDictionary
281
     1
  3
RAL CLASSIC$RAL 5010
350
53758
  3
RAL CLASSIC$RAL 5012
350
53759
  3
RAL CLASSIC$RAL 5013
350
5375A
  3
RAL CLASSIC$RAL 5018
350
5375B
  0
DICTIONARY
  5
31BF3
102
{ACAD_REACTORS
330
C
102
}
330
C
100
AcDbDictionary
281
     1
  3
Imperial24
350
5795B
  3
Metric50
350
31BF4
  0
FIELDLIST
  5
535E2
102
{ACAD_REACTORS
330
C
102
}
330
C
100
AcDbIdSet
 90
        6
330
86D1A
330
86D1B
330
86D1C
330
86D20
330
86D21
330
86D22
100
AcDbFieldList
  0
DICTIONARY
  5
D
102
{ACAD_REACTORS
330
C
102
}
330
C
100
AcDbDictionary
281
     1
  0
DICTIONARY
  5
6518
102
{ACAD_REACTORS
330
C
102
}
330
C
100
AcDbDictionary
281
     1
  0
RASTERVARIABLES
  5
651A
102
{ACAD_REACTORS
330
C
102
}
330
C
100
AcDbRasterVariables
 90
        0
 70
     3
 71
     1
 72
     1
  0
DICTIONARY
  5
1A
102
{ACAD_REACTORS
330
C
102
}
330
C
100
AcDbDictionary
281
     1
  3
Layout1
350
31D05
  3
Model
350
26
  0
DICTIONARY
  5
1B
102
{ACAD_REACTORS
330
C
102
}
330
C
100
AcDbDictionary
281
     1
  3
ByBlock
350
1D90
  3
ByLayer
350
1D8F
  3
Global
350
1D91
  0
DICTIONARY
  5
252D
102
{ACAD_REACTORS
330
C
102
}
330
C
100
AcDbDictionary
281
     1
  3
Standard
350
252E
  0
DICTIONARY
  5
17
102
{ACAD_REACTORS
330
C
102
}
330
C
100
AcDbDictionary
281
     1
  3
Standard
350
18
  0
DICTIONARY
  5
22688
102
{ACAD_REACTORS
330
C
102
}
330
C
100
AcDbDictionary
281
     1
  0
DICTIONARY
  5
19
102
{ACAD_REACTORS
330
C
102
}
330
C
100
AcDbDictionary
281
     1
  0
ACDBDICTIONARYWDFLT
  5
E
102
{ACAD_REACTORS
330
C
102
}
330
C
100
AcDbDictionary
281
     1
  3
Normal
350
F
100
AcDbDictionaryWithDefault
340
F
  0
DICTIONARY
  5
250B
102
{ACAD_REACTORS
330
C
102
}
330
C
100
AcDbDictionary
281
     1
  3
A0
350
250C
  0
DICTIONARY
  5
31BF1
102
{ACAD_REACTORS
330
C
102
}
330
C
100
AcDbDictionary
281
     1
  3
Imperial24
350
57953
  3
Metric50
350
31BF2
  0
DICTIONARY
  5
1D
102
{ACAD_REACTORS
330
C
102
}
330
C
100
AcDbDictionary
281
     1
  3
Standard
350
1E
  0
DICTIONARY
  5
1D92
102
{ACAD_REACTORS
330
C
102
}
330
C
100
AcDbDictionary
281
     1
  3
2dWireframe
350
1D98
  3
3D Hidden
350
1D9A
  3
3dWireframe
350
1D99
  3
Basic
350
1D97
  3
Brighten
350
1D9E
  3
ColorChange
350
1DA2
  3
Conceptual
350
1D9B
  3
Dim
350
1D9D
  3
EdgeColorOff
350
58CB
  3
Facepattern
350
1DA1
  3
Flat
350
1D93
  3
FlatWithEdges
350
1D94
  3
Gouraud
350
1D95
  3
GouraudWithEdges
350
1D96
  3
Hidden
350
A3B8
  3
JitterOff
350
58C9
  3
Linepattern
350
1DA0
  3
OverhangOff
350
58CA
  3
Realistic
350
1D9C
  3
Shaded
350
A3BD
  3
Shaded with edges
350
A3BC
  3
Shades of Gray
350
A3B9
  3
Sketchy
350
A3BA
  3
Thicken
350
1D9F
  3
Wireframe
350
A3B7
  3
X-Ray
350
A3BB
  0
WIPEOUTVARIABLES
  5
10CEB
102
{ACAD_REACTORS
330
C
102
}
330
C
100
AcDbWipeoutVariables
 70
     1
  0
XRECORD
  5
1AFF
102
{ACAD_REACTORS
330
C
102
}
330
C
100
AcDbXrecord
280
     1
 90
   990106
  3

 60
     0
 61
     0
 62
     1
 63
     3
 64
     0
 65
     0
 66
     0
 67
     3
 68
     1
 69
     0
 70
     0
 71
     0
 72
     0
 40
0.0
170
     0
  0
XRECORD
  5
86D65
102
{ACAD_REACTORS
330
C
102
}
330
C
100
AcDbXrecord
280
     1
 90
        1
330
1E
  0
DICTIONARY
  5
86D5A
102
{ACAD_REACTORS
330
C
102
}
330
C
100
AcDbDictionary
281
     1
  3
CANNOSCALE
350
86D5F
  3
CMLEADERSTYLE
350
86D5C
  3
CTABLESTYLE
350
86D5B
  3
CVIEWDETAILSTYLE
350
86D5D
  3
CVIEWSECTIONSTYLE
350
86D5E
  3
DIMASSOC
350
86D62
  3
INDEXCTL
350
86D61
  3
SORTENTS
350
86D60
  3
XCLIPFRAME
350
86D63
  0
DICTIONARY
  5
535AD
102
{ACAD_REACTORS
330
C
102
}
330
C
100
AcDbDictionary
281
     1
  3
AcmStdDictionary
350
535B6
  0
DICTIONARY
  5
5E76
102
{ACAD_REACTORS
330
C
102
}
330
C
100
AcDbDictionary
281
     1
  0
DICTIONARY
  5
53586
102
{ACAD_REACTORS
330
C
102
}
330
C
100
AcDbDictionary
281
     1
  0
DICTIONARY
  5
535F5
102
{ACAD_REACTORS
330
C
102
}
330
C
100
AcDbDictionary
281
     1
  0
XRECORD
  5
86D66
102
{ACAD_REACTORS
330
C
102
}
330
C
100
AcDbXrecord
280
     1
  1
DWGPROPS COOKIE
  2

  3

  4

  6

  7

  8
jmeurer
  9

300
=
301
=
302
=
303
=
304
=
305
=
306
=
307
=
308
=
309
=
 40
4.59568074074074
 41
2453325.357163981
 42
2458164.4300361
  1

 90
        0
  0
DICTIONARY
  5
5B6B
102
{ACAD_REACTORS
330
48
102
}
330
48
100
AcDbDictionary
281
     1
  0
DICTIONARY
  5
67
102
{ACAD_REACTORS
330
48
102
}
330
48
100
AcDbDictionary
281
     1
  0
DICTIONARY
  5
5B6A
102
{ACAD_REACTORS
330
48
102
}
330
48
100
AcDbDictionary
281
     1
1001
ACAD
1000
<All
  0
XRECORD
  5
253C
102
{ACAD_REACTORS
330
253B
102
}
330
253B
100
AcDbXrecord
280
     1
290
     1
  0
XRECORD
  5
254A
102
{ACAD_REACTORS
330
2549
102
}
330
2549
100
AcDbXrecord
280
     1
290
     1
  0
SORTENTSTABLE
  5
1FDE
102
{ACAD_REACTORS
330
1FDD
102
}
330
1FDD
100
AcDbSortentsTable
330
23
  0
SORTENTSTABLE
  5
51992
102
{ACAD_REACTORS
330
51991
102
}
330
51991
100
AcDbSortentsTable
330
5198F
  0
XRECORD
  5
86DAC
102
{ACAD_REACTORS
330
86CAE
102
}
330
86CAE
100
AcDbXrecord
280
     1
 40
6950541.0
  1
{\fTahoma|b0|i0|c0|p34;\LDiese Zeichnung ist Eigentum der Firma:\P\lESF Emsland Spiel- und Freizeitgeräte GmbH & Co. KG\PThyssenstraße 7, 49744 Geeste\PTel: 05937/ 97189-0 ; Fax: 05937/ 97189-90\PAlle Rechte sind bei den Autoren.\PDiese Unterlage dar
  1
f nicht ohne Zustimmung der o. g. Firma in den Ausschreibungen verwendet werden.\PDer nicht autorisierte Nachbau ist kostenpflichtig.}
  0
XRECORD
  5
86DB2
102
{ACAD_REACTORS
330
86CBC
102
}
330
86CBC
100
AcDbXrecord
280
     1
 40
3882.0
  1
Ø 3,00
  0
XRECORD
  5
86DB1
102
{ACAD_REACTORS
330
86CBA
102
}
330
86CBA
100
AcDbXrecord
280
     1
 40
51990.0
  1
Sicherheitsbereich Ø min. 7,00m
  0
DICTIONARY
  5
86B82
102
{ACAD_REACTORS
330
86B81
102
}
330
86B81
100
AcDbDictionary
281
     1
  3
ACDB_ANNOTATIONSCALES
350
86B83
  0
DICTIONARY
  5
86B86
102
{ACAD_REACTORS
330
86B85
102
}
330
86B85
100
AcDbDictionary
281
     1
  3
ACDB_ANNOTATIONSCALES
350
86B87
  0
DICTIONARY
  5
86B8A
102
{ACAD_REACTORS
330
86B89
102
}
330
86B89
100
AcDbDictionary
281
     1
  3
ACDB_ANNOTATIONSCALES
350
86B8B
  0
DICTIONARY
  5
86B90
102
{ACAD_REACTORS
330
86B8F
102
}
330
86B8F
100
AcDbDictionary
281
     1
  3
ACDB_ANNOTATIONSCALES
350
86B91
  0
DICTIONARY
  5
86B95
102
{ACAD_REACTORS
330
86B94
102
}
330
86B94
100
AcDbDictionary
281
     1
  3
ACDB_ANNOTATIONSCALES
350
86B96
  0
DICTIONARY
  5
86BAE
102
{ACAD_REACTORS
330
86BAD
102
}
330
86BAD
100
AcDbDictionary
281
     1
  3
ACDB_ANNOTATIONSCALES
350
86BAF
  0
XRECORD
  5
86DB3
102
{ACAD_REACTORS
330
86CBE
102
}
330
86CBE
100
AcDbXrecord
280
     1
 40
27455.0
  1
Gerätedurchmesser
  0
DICTIONARY
  5
86BDA
102
{ACAD_REACTORS
330
86BD9
102
}
330
86BD9
100
AcDbDictionary
281
     1
  3
ACDB_ANNOTATIONSCALES
350
86BDB
  0
DIMASSOC
  5
86BDE
102
{ACAD_REACTORS
330
86BDD
102
}
330
86BDD
100
AcDbDimAssoc
330
86BDC
 90
        2
 70
     0
 71
     0
  1
AcDbOsnapPointRef
 72
     5
331
86BD7
 73
     2
 91
        0
 40
0.0
 10
0.0
 20
0.0
 30
0.0
 75
     0
  0
XRECORD
  5
86DB4
102
{ACAD_REACTORS
330
86BFB
102
}
330
86BFB
100
AcDbXrecord
280
     1
 40
308644.0
  1
Sicherheitsbereich mit Anforderung an den Fallschutz\PFreie Fallhöhe max. 0,49m
  0
DICTIONARY
  5
86BFC
102
{ACAD_REACTORS
330
86BFB
102
}
330
86BFB
100
AcDbDictionary
281
     1
  3
ACDB_ANNOTATIONSCALES
350
86BFD
  0
DICTIONARY
  5
86C00
102
{ACAD_REACTORS
330
86BFF
102
}
330
86BFF
100
AcDbDictionary
281
     1
  3
ACDB_ANNOTATIONSCALES
350
86C01
  0
DICTIONARY
  5
86C05
102
{ACAD_REACTORS
330
86C04
102
}
330
86C04
100
AcDbDictionary
281
     1
  3
ACDB_ANNOTATIONSCALES
350
86C06
  0
DICTIONARY
  5
86C0A
102
{ACAD_REACTORS
330
86C09
102
}
330
86C09
100
AcDbDictionary
281
     1
  3
ACDB_ANNOTATIONSCALES
350
86C0B
  0
XRECORD
  5
86DB6
102
{ACAD_REACTORS
330
86DB5
102
}
330
86DB5
100
AcDbXrecord
280
     1
 40
3882.0
  1
Ø 3,00
  0
XRECORD
  5
86DB8
102
{ACAD_REACTORS
330
86DB7
102
}
330
86DB7
100
AcDbXrecord
280
     1
 40
51990.0
  1
Sicherheitsbereich Ø min. 7,00m
  0
XRECORD
  5
86DAA
102
{ACAD_REACTORS
330
31D0C
102
}
330
31D0C
100
AcDbXrecord
280
     1
102
SHADEPLOT
 70
     0
  0
XRECORD
  5
31D0D
102
{ACAD_REACTORS
330
31D0C
102
}
330
31D0C
100
AcDbXrecord
280
     1
 90
        1
340
250C
  0
XRECORD
  5
86DAB
102
{ACAD_REACTORS
330
31D10
102
}
330
31D10
100
AcDbXrecord
280
     1
102
SHADEPLOT
 70
     0
  0
XRECORD
  5
31D11
102
{ACAD_REACTORS
330
31D10
102
}
330
31D10
100
AcDbXrecord
280
     1
 90
        1
340
250C
  0
XRECORD
  5
86D68
102
{ACAD_REACTORS
330
86D67
102
}
330
86D67
100
AcDbXrecord
280
     1
 40
1.570796326794896
  0
XRECORD
  5
86D6A
102
{ACAD_REACTORS
330
86D67
102
}
330
86D67
100
AcDbXrecord
280
     1
340
14
  0
XRECORD
  5
86D6B
102
{ACAD_REACTORS
330
86D67
102
}
330
86D67
100
AcDbXrecord
280
     1
340
14
  0
XRECORD
  5
86D69
102
{ACAD_REACTORS
330
86D67
102
}
330
86D67
100
AcDbXrecord
280
     1
340
14
  0
XRECORD
  5
86D6C
102
{ACAD_REACTORS
330
86D67
102
}
330
86D67
100
AcDbXrecord
280
     1
340
1D99
  0
DBCOLOR
  5
53758
102
{ACAD_REACTORS
330
1C
102
}
330
1C
100
AcDbColor
  0
DBCOLOR
  5
53759
102
{ACAD_REACTORS
330
1C
102
}
330
1C
100
AcDbColor
  0
DBCOLOR
  5
5375A
102
{ACAD_REACTORS
330
1C
102
}
330
1C
100
AcDbColor
  0
DBCOLOR
  5
5375B
102
{ACAD_REACTORS
330
1C
102
}
330
1C
100
AcDbColor
  0
ACDBDETAILVIEWSTYLE
  5
5795B
102
{ACAD_XDICTIONARY
360
86DAF
102
}
102
{ACAD_REACTORS
330
31BF3
330
86D14
102
}
330
31BF3
100
AcDbModelDocViewStyle
 70
     0
  3
Imperial24
290
     0
100
AcDbDetailViewStyle
 70
     0
 71
     0
 90
        3
 71
     1
340
57949
 40
0.24
340
0
 40
0.24
300

 40
0.36
280
     3
 71
     2
340
16
 90
       25
 71
     3
340
57949
 40
0.24
 90
        1
 40
0.75
 90
        1
300
%<\AcVar ViewType \f "%tc1">% %<\AcVar ViewDetailId>%\PVARIA %<\AcVar ViewScale \f "%sn">%
 71
     4
340
16
 90
       25
340
16
 90
       25
280
     0
  0
ACDBDETAILVIEWSTYLE
  5
31BF4
102
{ACAD_XDICTIONARY
360
86DA6
102
}
102
{ACAD_REACTORS
330
31BF3
330
86D15
102
}
330
31BF3
100
AcDbModelDocViewStyle
 70
     0
  3
Metric50
290
     0
100
AcDbDetailViewStyle
 70
     0
 71
     0
 90
        3
 71
     1
340
11
 40
5.0
340
0
 40
5.0
300

 40
0.0
280
     1
 71
     2
340
16
 90
       25
 71
     3
340
11
 40
5.0
 90
        0
 40
15.0
 90
        1
300
%<\AcVar ViewDetailId>% (%<\AcVar ViewScale \f "%sn">%)
 71
     4
340
16
 90
       25
340
16
 90
       25
280
     0
1001
ACAD
1000
AcRTDxfName
1000
ACDBDETAILVIEWSTYLE
1000
AcRTDxfName
1000
ACDBDETAILVIEWSTYLE
1000
AcRTDxfName
1000
ACDBDETAILVIEWSTYLE
  0
LAYOUT
  5
31D05
102
{ACAD_XDICTIONARY
360
86DA8
102
}
102
{ACAD_REACTORS
330
1A
102
}
330
1A
100
AcDbPlotSettings
  1

  2
Canon iPF605
  4
User4403
  6

 40
3.757083415985106
 41
3.75714111328125
 42
3.757080078125
 43
3.757080078125
 44
593.97900390625
 45
840.9940185546874
 46
0.0
 47
0.0
 48
0.0
 49
0.0
140
0.0
141
0.0
142
1.0
143
1.0
 70
   688
 72
     1
 73
     1
 74
     5
  7

 75
    16
147
1.0
148
0.0
149
0.0
100
AcDbLayout
  1
Layout1
 70
     1
 71
     1
 10
-3.757080078125
 20
-3.757083415985106
 11
837.2369384765624
 21
590.2219204902649
 12
0.0
 22
0.0
 32
0.0
 14
0.7612936004385347
 24
0.7559578922353012
 34
0.0
 15
832.7911693029752
 25
585.9562928245312
 35
0.0
146
0.0
 13
0.0
 23
0.0
 33
0.0
 16
1.0
 26
0.0
 36
0.0
 17
0.0
 27
1.0
 37
0.0
 76
     0
330
31D04
331
31D0B
1001
ACAD_PSEXT
1000
Canon iPF605
1000
Canon iPF605
1000
192.168.10.93
1000

1070
     0
  0
LAYOUT
  5
26
102
{ACAD_XDICTIONARY
360
86D6E
102
}
102
{ACAD_REACTORS
330
1A
102
}
330
1A
100
AcDbPlotSettings
  1

  2
\\pc17\HP DeskJet 1220C A4
  4
A4
  6

 40
4.180416584014891
 41
12.562424659729
 42
4.180404663085936
 43
3.84173583984375
 44
209.9733276367186
 45
296.9259948730469
 46
0.0
 47
0.0
 48
0.0
 49
0.0
140
0.0
141
0.0
142
1.0
143
1.0
 70
 11952
 72
     1
 73
     0
 74
     0
  7
monochrome.ctb
 75
    16
147
1.0
148
121.7955125582991
149
19.45327258920656
100
AcDbLayout
  1
Model
 70
     1
 71
     0
 10
0.0
 20
0.0
 11
12.0
 21
9.0
 12
0.0
 22
0.0
 32
0.0
 14
0.0
 24
0.0
 34
0.0
 15
0.0
 25
0.0
 35
0.0
146
0.0
 13
0.0
 23
0.0
 33
0.0
 16
1.0
 26
0.0
 36
0.0
 17
0.0
 27
1.0
 37
0.0
 76
     0
330
23
331
1D8D
1001
ACAD_PSEXT
1000
\\pc17\HP DeskJet 1220C A4
1000
HP DeskJet 1220C
1000
Zeichenbüro
1000
A4
1070
     0
  0
MATERIAL
  5
1D90
102
{ACAD_XDICTIONARY
360
86C71
102
}
102
{ACAD_REACTORS
330
1B
102
}
330
1B
100
AcDbMaterial
  1
ByBlock
 73
     1
 78
     1
172
     1
176
     1
270
     1
274
     1
  0
MATERIAL
  5
1D8F
102
{ACAD_XDICTIONARY
360
86C6F
102
}
102
{ACAD_REACTORS
330
1B
102
}
330
1B
100
AcDbMaterial
  1
ByLayer
 73
     1
 78
     1
172
     1
176
     1
270
     1
274
     1
  0
MATERIAL
  5
1D91
102
{ACAD_XDICTIONARY
360
86C73
102
}
102
{ACAD_REACTORS
330
1B
102
}
330
1B
100
AcDbMaterial
  1
Global
 73
     1
 78
     1
172
     1
176
     1
270
     1
274
     1
  0
MLEADERSTYLE
  5
252E
102
{ACAD_REACTORS
330
252D
102
}
330
252D
100
AcDbMLeaderStyle
170
     2
171
     1
172
     0
 90
        2
 40
0.0
 41
0.0
173
     1
 91
-1056964608
340
14
 92
       -2
290
     1
 42
2.0
291
     1
 43
0.36
  3
Standard
 44
4.0
300

342
11
174
     1
178
     6
175
     1
176
     0
 93
-1056964608
 45
4.0
292
     0
297
     0
 46
4.0
 94
-1056964608
 47
1.0
 49
1.0
140
1.0
293
     1
141
0.0
294
     1
177
     0
142
1.0
295
     0
296
     0
143
0.125
1001
ACAD_MLEADERVER
1070
     2
  0
MLINESTYLE
  5
18
102
{ACAD_REACTORS
330
17
102
}
330
17
100
AcDbMlineStyle
  2
STANDARD
 70
     0
  3

 62
   256
 51
90.0
 52
90.0
 71
     2
 49
0.5
 62
   256
  6
BYLAYER
 49
-0.5
 62
   256
  6
BYLAYER
  0
ACDBPLACEHOLDER
  5
F
102
{ACAD_REACTORS
330
E
102
}
330
E
  0
SCALE
  5
250C
102
{ACAD_REACTORS
330
250B
102
}
330
250B
100
AcDbScale
 70
     0
300
1:1
140
1.0
141
1.0
290
     1
  0
ACDBSECTIONVIEWSTYLE
  5
57953
102
{ACAD_XDICTIONARY
360
86DAD
102
}
102
{ACAD_REACTORS
330
31BF1
330
86D12
102
}
330
31BF1
100
AcDbModelDocViewStyle
 70
     0
  3
Imperial24
290
     0
100
AcDbSectionViewStyle
 70
     0
 71
     0
 90
       78
 71
     1
340
57949
 40
0.24
340
0
340
0
 40
0.24
300
I, O, Q, S, X, Z
 40
0.48
 90
        3
 40
0.18
 90
        1
 71
     2
340
16
 90
       25
340
16
 90
       50
 40
0.24
 40
0.0
 40
0.24
 71
     3
340
57949
 40
0.24
 90
        1
 40
0.75
 90
        1
300
%<\AcVar ViewType \f "%tc1">% %<\AcVar ViewSectionStartId>%-%<\AcVar ViewSectionEndId>%\PVARIA %<\AcVar ViewScale \f "%sn">%
 71
     4
300
ANSI31
 40
1.0
 90
        0
290
     0
290
     0
 90
        6
 40
0.0
 40
1.570796326794896
 40
0.2617993877991494
 40
1.308996938995747
 40
-0.2617993877991494
 40
1.832595714594045
  0
ACDBSECTIONVIEWSTYLE
  5
31BF2
102
{ACAD_XDICTIONARY
360
86DA4
102
}
102
{ACAD_REACTORS
330
31BF1
330
86D13
102
}
330
31BF1
100
AcDbModelDocViewStyle
 70
     0
  3
Metric50
290
     0
100
AcDbSectionViewStyle
 70
     0
 71
     0
 90
      102
 71
     1
340
11
 40
5.0
340
0
340
0
 40
5.0
300
I, O, Q, S, X, Z
 40
10.0
 90
        0
 40
2.5
 90
        0
 71
     2
340
16
 90
       25
340
16
 90
       50
 40
5.0
 40
2.5
 40
5.0
 71
     3
340
11
 40
5.0
 90
        0
 40
15.0
 90
        1
300
%<\AcVar ViewSectionStartId>%-%<\AcVar ViewSectionEndId>% (%<\AcVar ViewScale \f "%sn">%)
 71
     4
300
ANSI31
 40
1.0
 90
        0
290
     0
290
     0
 90
        6
 40
0.0
 40
1.570796326794896
 40
0.2617993877991494
 40
1.308996938995747
 40
-0.2617993877991494
 40
1.832595714594045
1001
ACAD
1000
AcRTDxfName
1000
ACDBSECTIONVIEWSTYLE
1000
AcRTDxfName
1000
ACDBSECTIONVIEWSTYLE
1000
AcRTDxfName
1000
ACDBSECTIONVIEWSTYLE
  0
TABLESTYLE
  5
1E
102
{ACAD_XDICTIONARY
360
2563
102
}
102
{ACAD_REACTORS
330
1D
102
}
330
1D
100
AcDbTableStyle
  3
Standard
 70
     0
 71
     0
 40
1.5
 41
1.5
280
     0
281
     0
  7
Standard
140
4.5
170
     2
 62
     0
 63
     7
283
     0
274
    -2
284
     1
 64
     0
275
    -2
285
     1
 65
     0
276
    -2
286
     1
 66
     0
277
    -2
287
     1
 67
     0
278
    -2
288
     1
 68
     0
279
    -2
289
     1
 69
     0
  7
Standard
140
6.0
170
     5
 62
     0
 63
     7
283
     0
274
    -2
284
     1
 64
     0
275
    -2
285
     1
 65
     0
276
    -2
286
     1
 66
     0
277
    -2
287
     1
 67
     0
278
    -2
288
     1
 68
     0
279
    -2
289
     1
 69
     0
  7
Standard
140
4.5
170
     5
 62
     0
 63
     7
283
     0
274
    -2
284
     1
 64
     0
275
    -2
285
     1
 65
     0
276
    -2
286
     1
 66
     0
277
    -2
287
     1
 67
     0
278
    -2
288
     1
 68
     0
279
    -2
289
     1
 69
     0
  0
VISUALSTYLE
  5
1D98
102
{ACAD_XDICTIONARY
360
86D7A
102
}
102
{ACAD_REACTORS
330
1D92
102
}
330
1D92
100
AcDbVisualStyle
  2

 70
     4
 71
     0
 72
     2
 73
     0
 90
        0
 40
-0.6
 41
-30.0
 62
     5
 63
     7
 74
     1
 91
        4
 64
     7
 65
   257
 75
     1
175
     1
 42
1.0
 92
        0
 66
   257
 43
1.0
 76
     1
 77
     6
 78
     2
 67
     7
 79
     5
170
     0
171
     0
290
     0
174
     0
 93
        1
 44
0.0
173
     0
291
     0
 45
0.0
1001
ACAD
1000
AcDbSavedByObjectVersion
1070
     0
  0
VISUALSTYLE
  5
1D9A
102
{ACAD_XDICTIONARY
360
86D7E
102
}
102
{ACAD_REACTORS
330
1D92
102
}
330
1D92
100
AcDbVisualStyle
  2

 70
     6
 71
     1
 72
     2
 73
     2
 90
        0
 40
-0.6
 41
-30.0
 62
     5
 63
     7
 74
     2
 91
        2
 64
     7
 65
   257
 75
     2
175
     1
 42
40.0
 92
        0
 66
   257
 43
1.0
 76
     1
 77
     6
 78
     2
 67
     7
 79
     3
170
     0
171
     0
290
     0
174
     0
 93
        1
 44
0.0
173
     0
291
     0
 45
0.0
1001
ACAD
1000
AcDbSavedByObjectVersion
1070
     0
  0
VISUALSTYLE
  5
1D99
102
{ACAD_XDICTIONARY
360
86D7C
102
}
102
{ACAD_REACTORS
330
1D92
102
}
330
1D92
100
AcDbVisualStyle
  2

 70
     5
 71
     0
 72
     2
 73
     0
 90
        0
 40
-0.6
 41
-30.0
 62
     5
 63
     7
 74
     1
 91
        4
 64
     7
 65
   257
 75
     1
175
     1
 42
1.0
 92
        0
 66
   257
 43
1.0
 76
     1
 77
     6
 78
     2
 67
     7
 79
     5
170
     0
171
     0
290
     0
174
     0
 93
        1
 44
0.0
173
     0
291
     0
 45
0.0
1001
ACAD
1000
AcDbSavedByObjectVersion
1070
     0
  0
VISUALSTYLE
  5
1D97
102
{ACAD_XDICTIONARY
360
86D78
102
}
102
{ACAD_REACTORS
330
1D92
102
}
330
1D92
100
AcDbVisualStyle
  2

 70
     7
 71
     1
 72
     0
 73
     1
 90
        0
 40
-0.6
 41
-30.0
 62
     5
 63
     7
 74
     0
 91
        4
 64
     7
 65
   257
 75
     1
175
     1
 42
1.0
 92
        8
 66
     7
 43
1.0
 76
     1
 77
     6
 78
     2
 67
     7
 79
     5
170
     0
171
     0
290
     0
174
     0
 93
        1
 44
0.0
173
     0
291
     1
 45
0.0
1001
ACAD
1000
AcDbSavedByObjectVersion
1070
     0
  0
VISUALSTYLE
  5
1D9E
102
{ACAD_XDICTIONARY
360
86D86
102
}
102
{ACAD_REACTORS
330
1D92
102
}
330
1D92
100
AcDbVisualStyle
  2

 70
    12
 71
     2
 72
     2
 73
     0
 90
        0
 40
-0.6
 41
-30.0
 62
     5
 63
     7
 74
     1
 91
        4
 64
     7
 65
   257
 75
     1
175
     1
 42
1.0
 92
        8
 66
     7
 43
1.0
 76
     1
 77
     6
 78
     2
 67
     7
 79
     5
170
     0
171
     0
290
     0
174
     0
 93
        1
 44
50.0
173
     0
291
     1
 45
0.0
1001
ACAD
1000
AcDbSavedByObjectVersion
1070
     0
  0
VISUALSTYLE
  5
1DA2
102
{ACAD_XDICTIONARY
360
86D8E
102
}
102
{ACAD_REACTORS
330
1D92
102
}
330
1D92
100
AcDbVisualStyle
  2

 70
    16
 71
     2
 72
     2
 73
     3
 90
        0
 40
-0.6
 41
-30.0
 62
     5
 63
     8
 74
     1
 91
        4
 64
     7
 65
   257
 75
     1
175
     1
 42
1.0
 92
        8
 66
     8
 43
1.0
 76
     1
 77
     6
 78
     2
 67
     7
 79
     5
170
     0
171
     0
290
     0
174
     0
 93
        1
 44
0.0
173
     0
291
     1
 45
0.0
1001
ACAD
1000
AcDbSavedByObjectVersion
1070
     0
  0
VISUALSTYLE
  5
1D9B
102
{ACAD_XDICTIONARY
360
86D80
102
}
102
{ACAD_REACTORS
330
1D92
102
}
330
1D92
100
AcDbVisualStyle
  2

 70
     9
 71
     3
 72
     2
 73
     0
 90
        0
 40
-0.6
 41
-30.0
 62
     5
 63
     7
 74
     2
 91
        2
 64
     7
 65
   257
 75
     1
175
     1
 42
40.0
 92
        8
 66
     7
 43
1.0
 76
     1
 77
     6
 78
     2
 67
     7
 79
     3
170
     0
171
     0
290
     0
174
     0
 93
        1
 44
0.0
173
     0
291
     0
 45
0.0
1001
ACAD
1000
AcDbSavedByObjectVersion
1070
     0
  0
VISUALSTYLE
  5
1D9D
102
{ACAD_XDICTIONARY
360
86D84
102
}
102
{ACAD_REACTORS
330
1D92
102
}
330
1D92
100
AcDbVisualStyle
  2

 70
    11
 71
     2
 72
     2
 73
     0
 90
        0
 40
-0.6
 41
-30.0
 62
     5
 63
     7
 74
     1
 91
        4
 64
     7
 65
   257
 75
     1
175
     1
 42
1.0
 92
        8
 66
     7
 43
1.0
 76
     1
 77
     6
 78
     2
 67
     7
 79
     5
170
     0
171
     0
290
     0
174
     0
 93
        1
 44
-50.0
173
     0
291
     1
 45
0.0
1001
ACAD
1000
AcDbSavedByObjectVersion
1070
     0
  0
VISUALSTYLE
  5
58CB
102
{ACAD_XDICTIONARY
360
86D94
102
}
102
{ACAD_REACTORS
330
1D92
102
}
330
1D92
100
AcDbVisualStyle
  2

 70
    22
 71
     2
 72
     2
 73
     0
 90
        0
 40
-0.6
 41
-30.0
 62
     5
 63
     7
 74
     1
 91
        4
 64
     7
 65
   257
 75
     1
175
     1
 42
1.0
 92
        8
 66
     7
 43
1.0
 76
     1
 77
     6
 78
     2
 67
     7
 79
     5
170
     0
171
     0
290
     0
174
     0
 93
        1
 44
0.0
173
     0
291
     1
 45
0.0
1001
ACAD
1000
AcDbSavedByObjectVersion
1070
     0
  0
VISUALSTYLE
  5
1DA1
102
{ACAD_XDICTIONARY
360
86D8C
102
}
102
{ACAD_REACTORS
330
1D92
102
}
330
1D92
100
AcDbVisualStyle
  2

 70
    15
 71
     2
 72
     2
 73
     0
 90
        0
 40
-0.6
 41
-30.0
 62
     5
 63
     7
 74
     1
 91
        4
 64
     7
 65
   257
 75
     1
175
     1
 42
1.0
 92
        8
 66
     7
 43
1.0
 76
     1
 77
     6
 78
     2
 67
     7
 79
     5
170
     0
171
     0
290
     0
174
     0
 93
        1
 44
0.0
173
     0
291
     1
 45
0.0
1001
ACAD
1000
AcDbSavedByObjectVersion
1070
     0
  0
VISUALSTYLE
  5
1D93
102
{ACAD_XDICTIONARY
360
86D70
102
}
102
{ACAD_REACTORS
330
1D92
102
}
330
1D92
100
AcDbVisualStyle
  2

 70
     0
 71
     2
 72
     1
 73
     1
 90
        2
 40
-0.6
 41
30.0
 62
     5
 63
     7
 74
     0
 91
        4
 64
     7
 65
   257
 75
     1
175
     1
 42
1.0
 92
        8
 66
     7
 43
1.0
 76
     1
 77
     6
 78
     2
 67
     7
 79
     5
170
     0
171
     0
290
     0
174
     0
 93
       13
 44
0.0
173
     0
291
     1
 45
0.0
1001
ACAD
1000
AcDbSavedByObjectVersion
1070
     0
  0
VISUALSTYLE
  5
1D94
102
{ACAD_XDICTIONARY
360
86D72
102
}
102
{ACAD_REACTORS
330
1D92
102
}
330
1D92
100
AcDbVisualStyle
  2

 70
     1
 71
     2
 72
     1
 73
     1
 90
        2
 40
-0.6
 41
30.0
 62
     5
 63
     7
 74
     1
 91
        4
 64
     7
 65
   257
 75
     1
175
     1
 42
1.0
 92
        0
 66
   257
 43
1.0
 76
     1
 77
     6
 78
     2
 67
     7
 79
     5
170
     0
171
     0
290
     0
174
     0
 93
       13
 44
0.0
173
     0
291
     1
 45
0.0
1001
ACAD
1000
AcDbSavedByObjectVersion
1070
     0
  0
VISUALSTYLE
  5
1D95
102
{ACAD_XDICTIONARY
360
86D74
102
}
102
{ACAD_REACTORS
330
1D92
102
}
330
1D92
100
AcDbVisualStyle
  2

 70
     2
 71
     2
 72
     2
 73
     1
 90
        2
 40
-0.6
 41
30.0
 62
     5
 63
     7
 74
     0
 91
        4
 64
     7
 65
   257
 75
     1
175
     1
 42
1.0
 92
        0
 66
     7
 43
1.0
 76
     1
 77
     6
 78
     2
 67
     7
 79
     5
170
     0
171
     0
290
     0
174
     0
 93
       13
 44
0.0
173
     0
291
     1
 45
0.0
1001
ACAD
1000
AcDbSavedByObjectVersion
1070
     0
  0
VISUALSTYLE
  5
1D96
102
{ACAD_XDICTIONARY
360
86D76
102
}
102
{ACAD_REACTORS
330
1D92
102
}
330
1D92
100
AcDbVisualStyle
  2

 70
     3
 71
     2
 72
     2
 73
     1
 90
        2
 40
-0.6
 41
30.0
 62
     5
 63
     7
 74
     1
 91
        4
 64
     7
 65
   257
 75
     1
175
     1
 42
1.0
 92
        0
 66
   257
 43
1.0
 76
     1
 77
     6
 78
     2
 67
     7
 79
     5
170
     0
171
     0
290
     0
174
     0
 93
       13
 44
0.0
173
     0
291
     1
 45
0.0
1001
ACAD
1000
AcDbSavedByObjectVersion
1070
     0
  0
VISUALSTYLE
  5
A3B8
102
{ACAD_XDICTIONARY
360
86D98
102
}
102
{ACAD_REACTORS
330
1D92
102
}
330
1D92
100
AcDbVisualStyle
  2

 70
     6
 71
     1
 72
     2
 73
     2
 90
        0
 40
-0.6
 41
-30.0
 62
     5
 63
     7
 74
     2
 91
        2
 64
     7
 65
   257
 75
     2
175
     1
 42
40.0
 92
        0
 66
   257
 43
1.0
 76
     1
 77
     6
 78
     2
 67
     7
 79
     3
170
     0
171
     0
290
     0
174
     0
 93
        1
 44
0.0
173
     0
291
     0
 45
0.0
1001
ACAD
1000
AcDbSavedByObjectVersion
1070
     0
  0
VISUALSTYLE
  5
58C9
102
{ACAD_XDICTIONARY
360
86D90
102
}
102
{ACAD_REACTORS
330
1D92
102
}
330
1D92
100
AcDbVisualStyle
  2

 70
    20
 71
     2
 72
     2
 73
     0
 90
        0
 40
-0.6
 41
-30.0
 62
     5
 63
     7
 74
     1
 91
        4
 64
     7
 65
   257
 75
     1
175
     1
 42
1.0
 92
       10
 66
     7
 43
1.0
 76
     1
 77
     6
 78
     2
 67
     7
 79
     5
170
     0
171
     0
290
     0
174
     0
 93
        1
 44
0.0
173
     0
291
     1
 45
0.0
1001
ACAD
1000
AcDbSavedByObjectVersion
1070
     0
  0
VISUALSTYLE
  5
1DA0
102
{ACAD_XDICTIONARY
360
86D8A
102
}
102
{ACAD_REACTORS
330
1D92
102
}
330
1D92
100
AcDbVisualStyle
  2

 70
    14
 71
     2
 72
     2
 73
     0
 90
        0
 40
-0.6
 41
-30.0
 62
     5
 63
     7
 74
     1
 91
        4
 64
     7
 65
   257
 75
     7
175
     7
 42
1.0
 92
        8
 66
     7
 43
1.0
 76
     1
 77
     6
 78
     2
 67
     7
 79
     5
170
     0
171
     0
290
     0
174
     0
 93
        1
 44
0.0
173
     0
291
     1
 45
0.0
1001
ACAD
1000
AcDbSavedByObjectVersion
1070
     0
  0
VISUALSTYLE
  5
58CA
102
{ACAD_XDICTIONARY
360
86D92
102
}
102
{ACAD_REACTORS
330
1D92
102
}
330
1D92
100
AcDbVisualStyle
  2

 70
    21
 71
     2
 72
     2
 73
     0
 90
        0
 40
-0.6
 41
-30.0
 62
     5
 63
     7
 74
     1
 91
        4
 64
     7
 65
   257
 75
     1
175
     1
 42
1.0
 92
        9
 66
     7
 43
1.0
 76
     1
 77
     6
 78
     2
 67
     7
 79
     5
170
     0
171
     0
290
     0
174
     0
 93
        1
 44
0.0
173
     0
291
     1
 45
0.0
1001
ACAD
1000
AcDbSavedByObjectVersion
1070
     0
  0
VISUALSTYLE
  5
1D9C
102
{ACAD_XDICTIONARY
360
86D82
102
}
102
{ACAD_REACTORS
330
1D92
102
}
330
1D92
100
AcDbVisualStyle
  2

 70
     8
 71
     2
 72
     2
 73
     0
 90
        0
 40
-0.6
 41
-30.0
 62
     5
 63
     7
 74
     1
 91
        0
 64
     7
 65
   257
 75
     1
175
     1
 42
1.0
 92
        8
 66
     8
 43
1.0
 76
     1
 77
     6
 78
     2
 67
     7
 79
     5
170
     0
171
     0
290
     0
174
     0
 93
       13
 44
0.0
173
     0
291
     0
 45
0.0
1001
ACAD
1000
AcDbSavedByObjectVersion
1070
     0
  0
VISUALSTYLE
  5
A3BD
102
{ACAD_XDICTIONARY
360
86DA2
102
}
102
{ACAD_REACTORS
330
1D92
102
}
330
1D92
100
AcDbVisualStyle
  2

 70
    27
 71
     2
 72
     2
 73
     1
 90
        2
 40
-0.6
 41
30.0
 62
     5
 63
     7
 74
     0
 91
        4
 64
     7
 65
   257
 75
     1
175
     1
 42
1.0
 92
        8
 66
   257
 43
1.0
 76
     1
 77
     6
 78
     2
 67
     8
 79
     3
170
     0
171
     0
290
     0
174
     0
 93
        5
 44
0.0
173
     0
291
     0
 45
0.0
1001
ACAD
1000
AcDbSavedByObjectVersion
1070
     0
  0
VISUALSTYLE
  5
A3BC
102
{ACAD_XDICTIONARY
360
86DA0
102
}
102
{ACAD_REACTORS
330
1D92
102
}
330
1D92
100
AcDbVisualStyle
  2

 70
    26
 71
     2
 72
     2
 73
     1
 90
        2
 40
-0.6
 41
30.0
 62
     5
 63
     7
 74
     1
 91
       10
 64
     7
 65
   257
 75
     2
175
     1
 42
1.0
 92
        8
 66
   257
 43
1.0
 76
     1
 77
     6
 78
     2
 67
     7
 79
     3
170
     0
171
     0
290
     0
174
     0
 93
        5
 44
0.0
173
     0
291
     0
 45
0.0
1001
ACAD
1000
AcDbSavedByObjectVersion
1070
     0
  0
VISUALSTYLE
  5
A3B9
102
{ACAD_XDICTIONARY
360
86D9A
102
}
102
{ACAD_REACTORS
330
1D92
102
}
330
1D92
100
AcDbVisualStyle
  2

 70
    23
 71
     2
 72
     2
 73
     3
 90
        0
 40
-0.6
 41
-30.0
 62
     5
 63
     7
 74
     2
 91
        2
 64
     7
 65
     7
 75
     1
175
     1
 42
40.0
 92
        8
 66
     7
 43
1.0
 76
     1
 77
     6
 78
     2
 67
     7
 79
     3
170
     0
171
     0
290
     0
174
     0
 93
        1
 44
0.0
173
     0
291
     0
 45
0.0
1001
ACAD
1000
AcDbSavedByObjectVersion
1070
     0
  0
VISUALSTYLE
  5
A3BA
102
{ACAD_XDICTIONARY
360
86D9C
102
}
102
{ACAD_REACTORS
330
1D92
102
}
330
1D92
100
AcDbVisualStyle
  2

 70
    24
 71
     1
 72
     2
 73
     2
 90
        0
 40
-0.6
 41
-30.0
 62
     5
 63
     7
 74
     2
 91
        2
 64
     7
 65
     7
 75
     1
175
     1
 42
40.0
 92
       11
 66
     7
 43
1.0
 76
     1
 77
     6
 78
     2
 67
     7
 79
     6
170
     0
171
     0
290
     0
174
     0
 93
        1
 44
0.0
173
     0
291
     0
 45
0.0
1001
ACAD
1000
AcDbSavedByObjectVersion
1070
     0
  0
VISUALSTYLE
  5
1D9F
102
{ACAD_XDICTIONARY
360
86D88
102
}
102
{ACAD_REACTORS
330
1D92
102
}
330
1D92
100
AcDbVisualStyle
  2

 70
    13
 71
     2
 72
     2
 73
     0
 90
        0
 40
-0.6
 41
-30.0
 62
     5
 63
     7
 74
     1
 91
        4
 64
     7
 65
   257
 75
     1
175
     1
 42
1.0
 92
       12
 66
     7
 43
1.0
 76
     1
 77
     6
 78
     2
 67
     7
 79
     5
170
     0
171
     0
290
     0
174
     0
 93
        1
 44
0.0
173
     0
291
     1
 45
0.0
1001
ACAD
1000
AcDbSavedByObjectVersion
1070
     0
  0
VISUALSTYLE
  5
A3B7
102
{ACAD_XDICTIONARY
360
86D96
102
}
102
{ACAD_REACTORS
330
1D92
102
}
330
1D92
100
AcDbVisualStyle
  2

 70
     5
 71
     0
 72
     2
 73
     0
 90
        0
 40
-0.6
 41
-30.0
 62
     5
 63
     7
 74
     1
 91
        4
 64
     7
 65
   257
 75
     1
175
     1
 42
1.0
 92
        0
 66
   257
 43
1.0
 76
     1
 77
     6
 78
     2
 67
     7
 79
     3
170
     0
171
     0
290
     0
174
     0
 93
        1
 44
0.0
173
     0
291
     0
 45
0.0
1001
ACAD
1000
AcDbSavedByObjectVersion
1070
     0
  0
VISUALSTYLE
  5
A3BB
102
{ACAD_XDICTIONARY
360
86D9E
102
}
102
{ACAD_REACTORS
330
1D92
102
}
330
1D92
100
AcDbVisualStyle
  2

 70
    25
 71
     2
 72
     2
 73
     1
 90
        1
 40
0.5
 41
-30.0
 62
     5
 63
     7
 74
     1
 91
        0
 64
     7
 65
   257
 75
     1
175
     1
 42
1.0
 92
        8
 66
     7
 43
1.0
 76
     1
 77
     6
 78
     2
 67
     7
 79
     3
170
     0
171
     0
290
     0
174
     0
 93
       13
 44
0.0
173
     0
291
     0
 45
0.0
1001
ACAD
1000
AcDbSavedByObjectVersion
1070
     0
  0
DICTIONARYVAR
  5
86D5F
102
{ACAD_REACTORS
330
86D5A
102
}
330
86D5A
100
DictionaryVariables
280
     0
  1
1:1
  0
DICTIONARYVAR
  5
86D5C
102
{ACAD_REACTORS
330
86D5A
102
}
330
86D5A
100
DictionaryVariables
280
     0
  1
STANDARD
  0
DICTIONARYVAR
  5
86D5B
102
{ACAD_REACTORS
330
86D5A
102
}
330
86D5A
100
DictionaryVariables
280
     0
  1
STANDARD
  0
DICTIONARYVAR
  5
86D5D
102
{ACAD_REACTORS
330
86D5A
102
}
330
86D5A
100
DictionaryVariables
280
     0
  1
Metric50
  0
DICTIONARYVAR
  5
86D5E
102
{ACAD_REACTORS
330
86D5A
102
}
330
86D5A
100
DictionaryVariables
280
     0
  1
Metric50
  0
DICTIONARYVAR
  5
86D62
102
{ACAD_REACTORS
330
86D5A
102
}
330
86D5A
100
DictionaryVariables
280
     0
  1
1
  0
DICTIONARYVAR
  5
86D61
102
{ACAD_REACTORS
330
86D5A
102
}
330
86D5A
100
DictionaryVariables
280
     0
  1
0
  0
DICTIONARYVAR
  5
86D60
102
{ACAD_REACTORS
330
86D5A
102
}
330
86D5A
100
DictionaryVariables
280
     0
  1
127
  0
DICTIONARYVAR
  5
86D63
102
{ACAD_REACTORS
330
86D5A
102
}
330
86D5A
100
DictionaryVariables
280
     0
  1
2
  0
DICTIONARY
  5
535B6
102
{ACAD_REACTORS
330
535AD
102
}
330
535AD
100
AcDbDictionary
281
     1
  0
DICTIONARY
  5
86B83
102
{ACAD_REACTORS
330
86B82
102
}
330
86B82
100
AcDbDictionary
281
     1
  0
DICTIONARY
  5
86B87
102
{ACAD_REACTORS
330
86B86
102
}
330
86B86
100
AcDbDictionary
281
     1
  0
DICTIONARY
  5
86B8B
102
{ACAD_REACTORS
330
86B8A
102
}
330
86B8A
100
AcDbDictionary
281
     1
  0
DICTIONARY
  5
86B91
102
{ACAD_REACTORS
330
86B90
102
}
330
86B90
100
AcDbDictionary
281
     1
  0
DICTIONARY
  5
86B96
102
{ACAD_REACTORS
330
86B95
102
}
330
86B95
100
AcDbDictionary
281
     1
  0
DICTIONARY
  5
86BAF
102
{ACAD_REACTORS
330
86BAE
102
}
330
86BAE
100
AcDbDictionary
281
     1
  0
DICTIONARY
  5
86BDB
102
{ACAD_REACTORS
330
86BDA
102
}
330
86BDA
100
AcDbDictionary
281
     1
  0
DICTIONARY
  5
86BFD
102
{ACAD_REACTORS
330
86BFC
102
}
330
86BFC
100
AcDbDictionary
281
     1
  0
DICTIONARY
  5
86C01
102
{ACAD_REACTORS
330
86C00
102
}
330
86C00
100
AcDbDictionary
281
     1
  0
DICTIONARY
  5
86C06
102
{ACAD_REACTORS
330
86C05
102
}
330
86C05
100
AcDbDictionary
281
     1
  0
DICTIONARY
  5
86C0B
102
{ACAD_REACTORS
330
86C0A
102
}
330
86C0A
100
AcDbDictionary
281
     1
  0
DICTIONARY
  5
86DAF
330
5795B
100
AcDbDictionary
280
     1
281
     1
  3
ACAD_XREC_ROUNDTRIP
360
86DB0
  0
DICTIONARY
  5
86DA6
330
31BF4
100
AcDbDictionary
280
     1
281
     1
  3
ACAD_XREC_ROUNDTRIP
360
86DA7
  0
DICTIONARY
  5
86DA8
330
31D05
100
AcDbDictionary
280
     1
281
     1
  3
ACAD_XREC_ROUNDTRIP
360
86DA9
  0
DICTIONARY
  5
86D6E
330
26
100
AcDbDictionary
280
     1
281
     1
  3
ACAD_XREC_ROUNDTRIP
360
86D6F
  0
DICTIONARY
  5
86C71
330
1D90
100
AcDbDictionary
280
     1
281
     1
  3
ACAD_XREC_ROUNDTRIP
360
86C72
  0
DICTIONARY
  5
86C6F
330
1D8F
100
AcDbDictionary
280
     1
281
     1
  3
ACAD_XREC_ROUNDTRIP
360
86C70
  0
DICTIONARY
  5
86C73
330
1D91
100
AcDbDictionary
280
     1
281
     1
  3
ACAD_XREC_ROUNDTRIP
360
86C74
  0
DICTIONARY
  5
86DAD
330
57953
100
AcDbDictionary
280
     1
281
     1
  3
ACAD_XREC_ROUNDTRIP
360
86DAE
  0
DICTIONARY
  5
86DA4
330
31BF2
100
AcDbDictionary
280
     1
281
     1
  3
ACAD_XREC_ROUNDTRIP
360
86DA5
  0
DICTIONARY
  5
2563
330
1E
100
AcDbDictionary
280
     1
281
     1
  3
ACAD_ROUNDTRIP_2008_TABLESTYLE_CELLSTYLEMAP
360
86D64
  3
ACAD_XREC_ROUNDTRIP
360
86D6D
  0
DICTIONARY
  5
86D7A
330
1D98
100
AcDbDictionary
280
     1
281
     1
  3
ACAD_XREC_ROUNDTRIP
360
86D7B
  0
DICTIONARY
  5
86D7E
330
1D9A
100
AcDbDictionary
280
     1
281
     1
  3
ACAD_XREC_ROUNDTRIP
360
86D7F
  0
DICTIONARY
  5
86D7C
330
1D99
100
AcDbDictionary
280
     1
281
     1
  3
ACAD_XREC_ROUNDTRIP
360
86D7D
  0
DICTIONARY
  5
86D78
330
1D97
100
AcDbDictionary
280
     1
281
     1
  3
ACAD_XREC_ROUNDTRIP
360
86D79
  0
DICTIONARY
  5
86D86
330
1D9E
100
AcDbDictionary
280
     1
281
     1
  3
ACAD_XREC_ROUNDTRIP
360
86D87
  0
DICTIONARY
  5
86D8E
330
1DA2
100
AcDbDictionary
280
     1
281
     1
  3
ACAD_XREC_ROUNDTRIP
360
86D8F
  0
DICTIONARY
  5
86D80
330
1D9B
100
AcDbDictionary
280
     1
281
     1
  3
ACAD_XREC_ROUNDTRIP
360
86D81
  0
DICTIONARY
  5
86D84
330
1D9D
100
AcDbDictionary
280
     1
281
     1
  3
ACAD_XREC_ROUNDTRIP
360
86D85
  0
DICTIONARY
  5
86D94
330
58CB
100
AcDbDictionary
280
     1
281
     1
  3
ACAD_XREC_ROUNDTRIP
360
86D95
  0
DICTIONARY
  5
86D8C
330
1DA1
100
AcDbDictionary
280
     1
281
     1
  3
ACAD_XREC_ROUNDTRIP
360
86D8D
  0
DICTIONARY
  5
86D70
330
1D93
100
AcDbDictionary
280
     1
281
     1
  3
ACAD_XREC_ROUNDTRIP
360
86D71
  0
DICTIONARY
  5
86D72
330
1D94
100
AcDbDictionary
280
     1
281
     1
  3
ACAD_XREC_ROUNDTRIP
360
86D73
  0
DICTIONARY
  5
86D74
330
1D95
100
AcDbDictionary
280
     1
281
     1
  3
ACAD_XREC_ROUNDTRIP
360
86D75
  0
DICTIONARY
  5
86D76
330
1D96
100
AcDbDictionary
280
     1
281
     1
  3
ACAD_XREC_ROUNDTRIP
360
86D77
  0
DICTIONARY
  5
86D98
330
A3B8
100
AcDbDictionary
280
     1
281
     1
  3
ACAD_XREC_ROUNDTRIP
360
86D99
  0
DICTIONARY
  5
86D90
330
58C9
100
AcDbDictionary
280
     1
281
     1
  3
ACAD_XREC_ROUNDTRIP
360
86D91
  0
DICTIONARY
  5
86D8A
330
1DA0
100
AcDbDictionary
280
     1
281
     1
  3
ACAD_XREC_ROUNDTRIP
360
86D8B
  0
DICTIONARY
  5
86D92
330
58CA
100
AcDbDictionary
280
     1
281
     1
  3
ACAD_XREC_ROUNDTRIP
360
86D93
  0
DICTIONARY
  5
86D82
330
1D9C
100
AcDbDictionary
280
     1
281
     1
  3
ACAD_XREC_ROUNDTRIP
360
86D83
  0
DICTIONARY
  5
86DA2
330
A3BD
100
AcDbDictionary
280
     1
281
     1
  3
ACAD_XREC_ROUNDTRIP
360
86DA3
  0
DICTIONARY
  5
86DA0
330
A3BC
100
AcDbDictionary
280
     1
281
     1
  3
ACAD_XREC_ROUNDTRIP
360
86DA1
  0
DICTIONARY
  5
86D9A
330
A3B9
100
AcDbDictionary
280
     1
281
     1
  3
ACAD_XREC_ROUNDTRIP
360
86D9B
  0
DICTIONARY
  5
86D9C
330
A3BA
100
AcDbDictionary
280
     1
281
     1
  3
ACAD_XREC_ROUNDTRIP
360
86D9D
  0
DICTIONARY
  5
86D88
330
1D9F
100
AcDbDictionary
280
     1
281
     1
  3
ACAD_XREC_ROUNDTRIP
360
86D89
  0
DICTIONARY
  5
86D96
330
A3B7
100
AcDbDictionary
280
     1
281
     1
  3
ACAD_XREC_ROUNDTRIP
360
86D97
  0
DICTIONARY
  5
86D9E
330
A3BB
100
AcDbDictionary
280
     1
281
     1
  3
ACAD_XREC_ROUNDTRIP
360
86D9F
  0
XRECORD
  5
86DB0
102
{ACAD_REACTORS
330
86DAF
102
}
330
86DAF
100
AcDbXrecord
280
     1
102
DISPLAYNAME
  1
Imperial24
102
FLAGS
 90
        0
  0
XRECORD
  5
86DA7
102
{ACAD_REACTORS
330
86DA6
102
}
330
86DA6
100
AcDbXrecord
280
     1
102
DISPLAYNAME
  1
Metric50
102
FLAGS
 90
        0
  0
XRECORD
  5
86DA9
102
{ACAD_REACTORS
330
86DA8
102
}
330
86DA8
100
AcDbXrecord
280
     1
102
SHADEPLOT
 70
     0
102
SHADEPLOTRESLEVEL
 70
     2
102
SHADEPLOTCUSTOMDPI
 70
   300
  0
XRECORD
  5
86D6F
102
{ACAD_REACTORS
330
86D6E
102
}
330
86D6E
100
AcDbXrecord
280
     1
102
SHADEPLOT
 70
     0
102
SHADEPLOTRESLEVEL
 70
     2
102
SHADEPLOTCUSTOMDPI
 70
   300
  0
XRECORD
  5
86C72
102
{ACAD_REACTORS
330
86C71
102
}
330
86C71
100
AcDbXrecord
280
     1
102
MATERIAL
148
0.0
149
0.0
149
0.0
 93
        0
 94
      127
282
     0
 72
     1
 77
     1
171
     1
175
     1
179
     1
273
     0
  0
XRECORD
  5
86C70
102
{ACAD_REACTORS
330
86C6F
102
}
330
86C6F
100
AcDbXrecord
280
     1
102
MATERIAL
148
0.0
149
0.0
149
0.0
 93
        0
 94
      127
282
     0
 72
     1
 77
     1
171
     1
175
     1
179
     1
273
     0
  0
XRECORD
  5
86C74
102
{ACAD_REACTORS
330
86C73
102
}
330
86C73
100
AcDbXrecord
280
     1
102
MATERIAL
148
0.0
149
0.0
149
0.0
 93
        0
 94
      127
282
     0
 72
     1
 77
     1
171
     1
175
     1
179
     1
273
     0
  0
XRECORD
  5
86DAE
102
{ACAD_REACTORS
330
86DAD
102
}
330
86DAD
100
AcDbXrecord
280
     1
102
DISPLAYNAME
  1
Imperial24
102
FLAGS
 90
        0
  0
XRECORD
  5
86DA5
102
{ACAD_REACTORS
330
86DA4
102
}
330
86DA4
100
AcDbXrecord
280
     1
102
DISPLAYNAME
  1
Metric50
102
FLAGS
 90
        0
  0
CELLSTYLEMAP
  5
86D64
102
{ACAD_REACTORS
330
2563
102
}
330
2563
100
AcDbCellStyleMap
 90
        3
300
CELLSTYLE
  1
TABLEFORMAT_BEGIN
 90
        5
170
     1
 91
        0
 92
    32768
 62
   257
 93
        1
300
CONTENTFORMAT
  1
CONTENTFORMAT_BEGIN
 90
        0
 91
        0
 92
        4
 93
        0
300

 40
0.0
140
1.0
 94
        5
 62
     0
340
11
144
6.0
309
CONTENTFORMAT_END
171
     1
301
MARGIN
  1
CELLMARGIN_BEGIN
 40
1.5
 40
1.5
 40
1.5
 40
1.5
 40
0.18
 40
0.18
309
CELLMARGIN_END
 94
        6
 95
        1
302
GRIDFORMAT
  1
GRIDFORMAT_BEGIN
 90
        0
 91
        1
 62
     0
 92
       -2
340
0
 93
        0
 40
0.045
309
GRIDFORMAT_END
 95
        2
302
GRIDFORMAT
  1
GRIDFORMAT_BEGIN
 90
        0
 91
        1
 62
     0
 92
       -2
340
0
 93
        0
 40
0.045
309
GRIDFORMAT_END
 95
        4
302
GRIDFORMAT
  1
GRIDFORMAT_BEGIN
 90
        0
 91
        1
 62
     0
 92
       -2
340
0
 93
        0
 40
0.045
309
GRIDFORMAT_END
 95
        8
302
GRIDFORMAT
  1
GRIDFORMAT_BEGIN
 90
        0
 91
        1
 62
     0
 92
       -2
340
0
 93
        0
 40
0.045
309
GRIDFORMAT_END
 95
       16
302
GRIDFORMAT
  1
GRIDFORMAT_BEGIN
 90
        0
 91
        1
 62
     0
 92
       -2
340
0
 93
        0
 40
0.045
309
GRIDFORMAT_END
 95
       32
302
GRIDFORMAT
  1
GRIDFORMAT_BEGIN
 90
        0
 91
        1
 62
     0
 92
       -2
340
0
 93
        0
 40
0.045
309
GRIDFORMAT_END
309
TABLEFORMAT_END
  1
CELLSTYLE_BEGIN
 90
        1
 91
        1
300
_TITLE
309
CELLSTYLE_END
300
CELLSTYLE
  1
TABLEFORMAT_BEGIN
 90
        5
170
     1
 91
        0
 92
        0
 62
   257
 93
        1
300
CONTENTFORMAT
  1
CONTENTFORMAT_BEGIN
 90
        0
 91
        0
 92
        4
 93
        0
300

 40
0.0
140
1.0
 94
        5
 62
     0
340
11
144
4.5
309
CONTENTFORMAT_END
171
     1
301
MARGIN
  1
CELLMARGIN_BEGIN
 40
1.5
 40
1.5
 40
1.5
 40
1.5
 40
0.18
 40
0.18
309
CELLMARGIN_END
 94
        6
 95
        1
302
GRIDFORMAT
  1
GRIDFORMAT_BEGIN
 90
        0
 91
        1
 62
     0
 92
       -2
340
0
 93
        0
 40
0.045
309
GRIDFORMAT_END
 95
        2
302
GRIDFORMAT
  1
GRIDFORMAT_BEGIN
 90
        0
 91
        1
 62
     0
 92
       -2
340
0
 93
        0
 40
0.045
309
GRIDFORMAT_END
 95
        4
302
GRIDFORMAT
  1
GRIDFORMAT_BEGIN
 90
        0
 91
        1
 62
     0
 92
       -2
340
0
 93
        0
 40
0.045
309
GRIDFORMAT_END
 95
        8
302
GRIDFORMAT
  1
GRIDFORMAT_BEGIN
 90
        0
 91
        1
 62
     0
 92
       -2
340
0
 93
        0
 40
0.045
309
GRIDFORMAT_END
 95
       16
302
GRIDFORMAT
  1
GRIDFORMAT_BEGIN
 90
        0
 91
        1
 62
     0
 92
       -2
340
0
 93
        0
 40
0.045
309
GRIDFORMAT_END
 95
       32
302
GRIDFORMAT
  1
GRIDFORMAT_BEGIN
 90
        0
 91
        1
 62
     0
 92
       -2
340
0
 93
        0
 40
0.045
309
GRIDFORMAT_END
309
TABLEFORMAT_END
  1
CELLSTYLE_BEGIN
 90
        2
 91
        1
300
_HEADER
309
CELLSTYLE_END
300
CELLSTYLE
  1
TABLEFORMAT_BEGIN
 90
        5
170
     1
 91
        0
 92
        0
 62
   257
 93
        1
300
CONTENTFORMAT
  1
CONTENTFORMAT_BEGIN
 90
        0
 91
        0
 92
        4
 93
        0
300

 40
0.0
140
1.0
 94
        2
 62
     0
340
11
144
4.5
309
CONTENTFORMAT_END
171
     1
301
MARGIN
  1
CELLMARGIN_BEGIN
 40
1.5
 40
1.5
 40
1.5
 40
1.5
 40
0.18
 40
0.18
309
CELLMARGIN_END
 94
        6
 95
        1
302
GRIDFORMAT
  1
GRIDFORMAT_BEGIN
 90
        0
 91
        1
 62
     0
 92
       -2
340
0
 93
        0
 40
0.045
309
GRIDFORMAT_END
 95
        2
302
GRIDFORMAT
  1
GRIDFORMAT_BEGIN
 90
        0
 91
        1
 62
     0
 92
       -2
340
0
 93
        0
 40
0.045
309
GRIDFORMAT_END
 95
        4
302
GRIDFORMAT
  1
GRIDFORMAT_BEGIN
 90
        0
 91
        1
 62
     0
 92
       -2
340
0
 93
        0
 40
0.045
309
GRIDFORMAT_END
 95
        8
302
GRIDFORMAT
  1
GRIDFORMAT_BEGIN
 90
        0
 91
        1
 62
     0
 92
       -2
340
0
 93
        0
 40
0.045
309
GRIDFORMAT_END
 95
       16
302
GRIDFORMAT
  1
GRIDFORMAT_BEGIN
 90
        0
 91
        1
 62
     0
 92
       -2
340
0
 93
        0
 40
0.045
309
GRIDFORMAT_END
 95
       32
302
GRIDFORMAT
  1
GRIDFORMAT_BEGIN
 90
        0
 91
        1
 62
     0
 92
       -2
340
0
 93
        0
 40
0.045
309
GRIDFORMAT_END
309
TABLEFORMAT_END
  1
CELLSTYLE_BEGIN
 90
        3
 91
        2
300
_DATA
309
CELLSTYLE_END
  0
XRECORD
  5
86D6D
102
{ACAD_REACTORS
330
2563
102
}
330
2563
100
AcDbXrecord
280
     1
102
ACAD_ROUNDTRIP_PRE2007_TABLESTYLE
 90
        4
 91
        0
  1

 92
        4
 93
        0
  2

 94
        4
 95
        0
  3

  0
XRECORD
  5
86D7B
102
{ACAD_REACTORS
330
86D7A
102
}
330
86D7A
100
AcDbXrecord
280
     1
102
RTVSPost2010Prop28
280
     1
102
RTVSPost2010PropOp28
 70
     1
102
RTVSPost2010Prop29
280
     1
102
RTVSPost2010PropOp29
 70
     1
102
RTVSPost2010Prop30
280
     0
102
RTVSPost2010PropOp30
 70
     1
102
RTVSPost2010Prop31
280
     0
102
RTVSPost2010PropOp31
 70
     1
102
RTVSPost2010Prop32
280
     0
102
RTVSPost2010PropOp32
 70
     1
102
RTVSPost2010Prop33
280
     0
102
RTVSPost2010PropOp33
 70
     1
102
RTVSPost2010Prop34
280
     0
102
RTVSPost2010PropOp34
 70
     1
102
RTVSPost2010Prop35
280
     0
102
RTVSPost2010PropOp35
 70
     1
102
RTVSPost2010Prop36
280
     0
102
RTVSPost2010PropOp36
 70
     1
102
RTVSPost2010Prop37
 90
       50
102
RTVSPost2010PropOp37
 70
     1
102
RTVSPost2010Prop38
140
0.0
102
RTVSPost2010PropOp38
 70
     1
102
RTVSPost2010Prop39
140
1.0
102
RTVSPost2010PropOp39
 70
     1
102
RTVSPost2010Prop40
 90
        0
102
RTVSPost2010PropOp40
 70
     1
102
RTVSPost2010Prop41ColorIndex
 90
       18
102
RTVSPost2010Prop41ColorRGB
 90
        0
102
RTVSPost2010PropOp41
 70
     1
102
RTVSPost2010Prop42
 90
       50
102
RTVSPost2010PropOp42
 70
     1
102
RTVSPost2010Prop43
 90
        3
102
RTVSPost2010PropOp43
 70
     1
102
RTVSPost2010Prop44ColorIndex
 90
        5
102
RTVSPost2010Prop44ColorRGB
 90
      255
102
RTVSPost2010PropOp44
 70
     1
102
RTVSPost2010Prop45
280
     0
102
RTVSPost2010PropOp45
 70
     1
102
RTVSPost2010Prop46
 90
       50
102
RTVSPost2010PropOp46
 70
     1
102
RTVSPost2010Prop47
 90
       50
102
RTVSPost2010PropOp47
 70
     1
102
RTVSPost2010Prop48
 90
       50
102
RTVSPost2010PropOp48
 70
     1
102
RTVSPost2010Prop49
280
     0
102
RTVSPost2010PropOp49
 70
     1
102
RTVSPost2010Prop50
 90
       50
102
RTVSPost2010PropOp50
 70
     1
102
RTVSPost2010Prop51ColorIndex
 90
      256
102
RTVSPost2010Prop51ColorRGB
 90
-16777216
102
RTVSPost2010PropOp51
 70
     0
102
RTVSPost2010Prop52
140
1.0
102
RTVSPost2010PropOp52
 70
     0
102
RTVSPost2010Prop53
 90
        2
102
RTVSPost2010PropOp53
 70
     1
102
RTVSPost2010Prop54
  1
strokes_ogs.tif
102
RTVSPost2010PropOp54
 70
     1
102
RTVSPost2010Prop55
280
     0
102
RTVSPost2010PropOp55
 70
     1
102
RTVSPost2010Prop56
140
1.0
102
RTVSPost2010PropOp56
 70
     1
102
RTVSPost2010Prop57
140
1.0
102
RTVSPost2010PropOp57
 70
     1
102
RTVSPropertyOp0
 70
     1
102
RTVSPropertyOp1
 70
     1
102
RTVSPropertyOp2
 70
     1
102
RTVSPropertyOp3
 70
     1
102
RTVSPropertyOp4
 70
     1
102
RTVSPropertyOp5
 70
     1
102
RTVSPropertyOp6
 70
     1
102
RTVSPropertyOp7
 70
     1
102
RTVSPropertyOp8
 70
     1
102
RTVSPropertyOp9
 70
     1
102
RTVSPropertyOp10
 70
     1
102
RTVSPropertyOp11
 70
     1
102
RTVSPropertyOp12
 70
     1
102
RTVSPropertyOp13
 70
     1
102
RTVSPropertyOp14
 70
     1
102
RTVSPropertyOp15
 70
     1
102
RTVSPropertyOp16
 70
     1
102
RTVSPropertyOp17
 70
     1
102
RTVSPropertyOp18
 70
     1
102
RTVSPropertyOp19
 70
     1
102
RTVSPropertyOp20
 70
     1
102
RTVSPropertyOp21
 70
     1
102
RTVSPropertyOp22
 70
     1
102
RTVSPropertyOp23
 70
     1
102
RTVSPropertyOp24
 70
     1
102
RTVSPropertyOp25
 70
     1
102
RTVSPropertyOp26
 70
     1
102
RTVSPropertyOp27
 70
     1
102
RTVSPropertyOp28
 70
     1
102
RTVSPropertyOp29
 70
     1
102
RTVSPropertyOp30
 70
     1
102
RTVSPropertyOp31
 70
     1
102
RTVSPropertyOp32
 70
     1
102
RTVSPropertyOp33
 70
     1
102
RTVSPropertyOp34
 70
     1
102
RTVSPropertyOp35
 70
     1
102
RTVSPropertyOp36
 70
     1
102
RTVSPropertyOp37
 70
     1
102
RTVSPropertyOp38
 70
     1
102
RTVSPropertyOp39
 70
     1
102
RTVSPropertyOp40
 70
     1
102
RTVSPropertyOp41
 70
     1
102
RTVSPropertyOp42
 70
     1
102
RTVSPropertyOp43
 70
     1
102
RTVSPropertyOp44
 70
     1
102
RTVSPropertyOp45
 70
     1
102
RTVSPropertyOp46
 70
     1
102
RTVSPropertyOp47
 70
     1
102
RTVSPropertyOp48
 70
     1
102
RTVSPropertyOp49
 70
     1
102
RTVSPropertyOp50
 70
     1
102
RTVSPropertyOp51
 70
     0
102
RTVSPropertyOp52
 70
     0
102
RTVSPropertyOp53
 70
     1
102
RTVSPropertyOp54
 70
     1
102
RTVSPropertyOp55
 70
     1
102
RTVSPropertyOp56
 70
     1
102
RTVSPropertyOp57
 70
     1
102
RTVSPropertyOp58
 70
     1
102
RTVSPropertyOp59
 70
     1
102
RTVSPropertyOp60
 70
     1
102
RTVSPropertyOp61
 70
     1
102
RTVSPropertyOp62
 70
     1
  0
XRECORD
  5
86D7F
102
{ACAD_REACTORS
330
86D7E
102
}
330
86D7E
100
AcDbXrecord
280
     1
102
RTVSPost2010Prop28
280
     0
102
RTVSPost2010PropOp28
 70
     1
102
RTVSPost2010Prop29
280
     1
102
RTVSPost2010PropOp29
 70
     1
102
RTVSPost2010Prop30
280
     1
102
RTVSPost2010PropOp30
 70
     1
102
RTVSPost2010Prop31
280
     0
102
RTVSPost2010PropOp31
 70
     1
102
RTVSPost2010Prop32
280
     0
102
RTVSPost2010PropOp32
 70
     1
102
RTVSPost2010Prop33
280
     0
102
RTVSPost2010PropOp33
 70
     1
102
RTVSPost2010Prop34
280
     0
102
RTVSPost2010PropOp34
 70
     1
102
RTVSPost2010Prop35
280
     0
102
RTVSPost2010PropOp35
 70
     1
102
RTVSPost2010Prop36
280
     0
102
RTVSPost2010PropOp36
 70
     1
102
RTVSPost2010Prop37
 90
       50
102
RTVSPost2010PropOp37
 70
     1
102
RTVSPost2010Prop38
140
0.0
102
RTVSPost2010PropOp38
 70
     1
102
RTVSPost2010Prop39
140
1.0
102
RTVSPost2010PropOp39
 70
     1
102
RTVSPost2010Prop40
 90
        0
102
RTVSPost2010PropOp40
 70
     1
102
RTVSPost2010Prop41ColorIndex
 90
       18
102
RTVSPost2010Prop41ColorRGB
 90
        0
102
RTVSPost2010PropOp41
 70
     1
102
RTVSPost2010Prop42
 90
       50
102
RTVSPost2010PropOp42
 70
     1
102
RTVSPost2010Prop43
 90
        3
102
RTVSPost2010PropOp43
 70
     1
102
RTVSPost2010Prop44ColorIndex
 90
        5
102
RTVSPost2010Prop44ColorRGB
 90
      255
102
RTVSPost2010PropOp44
 70
     1
102
RTVSPost2010Prop45
280
     0
102
RTVSPost2010PropOp45
 70
     1
102
RTVSPost2010Prop46
 90
       50
102
RTVSPost2010PropOp46
 70
     1
102
RTVSPost2010Prop47
 90
       50
102
RTVSPost2010PropOp47
 70
     1
102
RTVSPost2010Prop48
 90
       50
102
RTVSPost2010PropOp48
 70
     1
102
RTVSPost2010Prop49
280
     0
102
RTVSPost2010PropOp49
 70
     1
102
RTVSPost2010Prop50
 90
       50
102
RTVSPost2010PropOp50
 70
     1
102
RTVSPost2010Prop51ColorIndex
 90
      256
102
RTVSPost2010Prop51ColorRGB
 90
-16777216
102
RTVSPost2010PropOp51
 70
     0
102
RTVSPost2010Prop52
140
1.0
102
RTVSPost2010PropOp52
 70
     0
102
RTVSPost2010Prop53
 90
        2
102
RTVSPost2010PropOp53
 70
     1
102
RTVSPost2010Prop54
  1
strokes_ogs.tif
102
RTVSPost2010PropOp54
 70
     1
102
RTVSPost2010Prop55
280
     0
102
RTVSPost2010PropOp55
 70
     1
102
RTVSPost2010Prop56
140
1.0
102
RTVSPost2010PropOp56
 70
     1
102
RTVSPost2010Prop57
140
1.0
102
RTVSPost2010PropOp57
 70
     1
102
RTVSPropertyOp0
 70
     1
102
RTVSPropertyOp1
 70
     1
102
RTVSPropertyOp2
 70
     1
102
RTVSPropertyOp3
 70
     1
102
RTVSPropertyOp4
 70
     1
102
RTVSPropertyOp5
 70
     1
102
RTVSPropertyOp6
 70
     1
102
RTVSPropertyOp7
 70
     1
102
RTVSPropertyOp8
 70
     1
102
RTVSPropertyOp9
 70
     1
102
RTVSPropertyOp10
 70
     1
102
RTVSPropertyOp11
 70
     1
102
RTVSPropertyOp12
 70
     1
102
RTVSPropertyOp13
 70
     1
102
RTVSPropertyOp14
 70
     1
102
RTVSPropertyOp15
 70
     1
102
RTVSPropertyOp16
 70
     1
102
RTVSPropertyOp17
 70
     1
102
RTVSPropertyOp18
 70
     1
102
RTVSPropertyOp19
 70
     1
102
RTVSPropertyOp20
 70
     1
102
RTVSPropertyOp21
 70
     1
102
RTVSPropertyOp22
 70
     1
102
RTVSPropertyOp23
 70
     1
102
RTVSPropertyOp24
 70
     1
102
RTVSPropertyOp25
 70
     1
102
RTVSPropertyOp26
 70
     1
102
RTVSPropertyOp27
 70
     1
102
RTVSPropertyOp28
 70
     1
102
RTVSPropertyOp29
 70
     1
102
RTVSPropertyOp30
 70
     1
102
RTVSPropertyOp31
 70
     1
102
RTVSPropertyOp32
 70
     1
102
RTVSPropertyOp33
 70
     1
102
RTVSPropertyOp34
 70
     1
102
RTVSPropertyOp35
 70
     1
102
RTVSPropertyOp36
 70
     1
102
RTVSPropertyOp37
 70
     1
102
RTVSPropertyOp38
 70
     1
102
RTVSPropertyOp39
 70
     1
102
RTVSPropertyOp40
 70
     1
102
RTVSPropertyOp41
 70
     1
102
RTVSPropertyOp42
 70
     1
102
RTVSPropertyOp43
 70
     1
102
RTVSPropertyOp44
 70
     1
102
RTVSPropertyOp45
 70
     1
102
RTVSPropertyOp46
 70
     1
102
RTVSPropertyOp47
 70
     1
102
RTVSPropertyOp48
 70
     1
102
RTVSPropertyOp49
 70
     1
102
RTVSPropertyOp50
 70
     1
102
RTVSPropertyOp51
 70
     0
102
RTVSPropertyOp52
 70
     0
102
RTVSPropertyOp53
 70
     1
102
RTVSPropertyOp54
 70
     1
102
RTVSPropertyOp55
 70
     1
102
RTVSPropertyOp56
 70
     1
102
RTVSPropertyOp57
 70
     1
102
RTVSPropertyOp58
 70
     1
102
RTVSPropertyOp59
 70
     1
102
RTVSPropertyOp60
 70
     1
102
RTVSPropertyOp61
 70
     1
102
RTVSPropertyOp62
 70
     1
  0
XRECORD
  5
86D7D
102
{ACAD_REACTORS
330
86D7C
102
}
330
86D7C
100
AcDbXrecord
280
     1
102
RTVSPost2010Prop28
280
     0
102
RTVSPost2010PropOp28
 70
     1
102
RTVSPost2010Prop29
280
     1
102
RTVSPost2010PropOp29
 70
     1
102
RTVSPost2010Prop30
280
     1
102
RTVSPost2010PropOp30
 70
     1
102
RTVSPost2010Prop31
280
     0
102
RTVSPost2010PropOp31
 70
     1
102
RTVSPost2010Prop32
280
     0
102
RTVSPost2010PropOp32
 70
     1
102
RTVSPost2010Prop33
280
     0
102
RTVSPost2010PropOp33
 70
     1
102
RTVSPost2010Prop34
280
     0
102
RTVSPost2010PropOp34
 70
     1
102
RTVSPost2010Prop35
280
     0
102
RTVSPost2010PropOp35
 70
     1
102
RTVSPost2010Prop36
280
     0
102
RTVSPost2010PropOp36
 70
     1
102
RTVSPost2010Prop37
 90
       50
102
RTVSPost2010PropOp37
 70
     1
102
RTVSPost2010Prop38
140
0.0
102
RTVSPost2010PropOp38
 70
     1
102
RTVSPost2010Prop39
140
1.0
102
RTVSPost2010PropOp39
 70
     1
102
RTVSPost2010Prop40
 90
        0
102
RTVSPost2010PropOp40
 70
     1
102
RTVSPost2010Prop41ColorIndex
 90
       18
102
RTVSPost2010Prop41ColorRGB
 90
        0
102
RTVSPost2010PropOp41
 70
     1
102
RTVSPost2010Prop42
 90
       50
102
RTVSPost2010PropOp42
 70
     1
102
RTVSPost2010Prop43
 90
        3
102
RTVSPost2010PropOp43
 70
     1
102
RTVSPost2010Prop44ColorIndex
 90
        5
102
RTVSPost2010Prop44ColorRGB
 90
      255
102
RTVSPost2010PropOp44
 70
     1
102
RTVSPost2010Prop45
280
     0
102
RTVSPost2010PropOp45
 70
     1
102
RTVSPost2010Prop46
 90
       50
102
RTVSPost2010PropOp46
 70
     1
102
RTVSPost2010Prop47
 90
       50
102
RTVSPost2010PropOp47
 70
     1
102
RTVSPost2010Prop48
 90
       50
102
RTVSPost2010PropOp48
 70
     1
102
RTVSPost2010Prop49
280
     0
102
RTVSPost2010PropOp49
 70
     1
102
RTVSPost2010Prop50
 90
       50
102
RTVSPost2010PropOp50
 70
     1
102
RTVSPost2010Prop51ColorIndex
 90
      256
102
RTVSPost2010Prop51ColorRGB
 90
-16777216
102
RTVSPost2010PropOp51
 70
     0
102
RTVSPost2010Prop52
140
1.0
102
RTVSPost2010PropOp52
 70
     0
102
RTVSPost2010Prop53
 90
        2
102
RTVSPost2010PropOp53
 70
     1
102
RTVSPost2010Prop54
  1
strokes_ogs.tif
102
RTVSPost2010PropOp54
 70
     1
102
RTVSPost2010Prop55
280
     0
102
RTVSPost2010PropOp55
 70
     1
102
RTVSPost2010Prop56
140
1.0
102
RTVSPost2010PropOp56
 70
     1
102
RTVSPost2010Prop57
140
1.0
102
RTVSPost2010PropOp57
 70
     1
102
RTVSPropertyOp0
 70
     1
102
RTVSPropertyOp1
 70
     1
102
RTVSPropertyOp2
 70
     1
102
RTVSPropertyOp3
 70
     1
102
RTVSPropertyOp4
 70
     1
102
RTVSPropertyOp5
 70
     1
102
RTVSPropertyOp6
 70
     1
102
RTVSPropertyOp7
 70
     1
102
RTVSPropertyOp8
 70
     1
102
RTVSPropertyOp9
 70
     1
102
RTVSPropertyOp10
 70
     1
102
RTVSPropertyOp11
 70
     1
102
RTVSPropertyOp12
 70
     1
102
RTVSPropertyOp13
 70
     1
102
RTVSPropertyOp14
 70
     1
102
RTVSPropertyOp15
 70
     1
102
RTVSPropertyOp16
 70
     1
102
RTVSPropertyOp17
 70
     1
102
RTVSPropertyOp18
 70
     1
102
RTVSPropertyOp19
 70
     1
102
RTVSPropertyOp20
 70
     1
102
RTVSPropertyOp21
 70
     1
102
RTVSPropertyOp22
 70
     1
102
RTVSPropertyOp23
 70
     1
102
RTVSPropertyOp24
 70
     1
102
RTVSPropertyOp25
 70
     1
102
RTVSPropertyOp26
 70
     1
102
RTVSPropertyOp27
 70
     1
102
RTVSPropertyOp28
 70
     1
102
RTVSPropertyOp29
 70
     1
102
RTVSPropertyOp30
 70
     1
102
RTVSPropertyOp31
 70
     1
102
RTVSPropertyOp32
 70
     1
102
RTVSPropertyOp33
 70
     1
102
RTVSPropertyOp34
 70
     1
102
RTVSPropertyOp35
 70
     1
102
RTVSPropertyOp36
 70
     1
102
RTVSPropertyOp37
 70
     1
102
RTVSPropertyOp38
 70
     1
102
RTVSPropertyOp39
 70
     1
102
RTVSPropertyOp40
 70
     1
102
RTVSPropertyOp41
 70
     1
102
RTVSPropertyOp42
 70
     1
102
RTVSPropertyOp43
 70
     1
102
RTVSPropertyOp44
 70
     1
102
RTVSPropertyOp45
 70
     1
102
RTVSPropertyOp46
 70
     1
102
RTVSPropertyOp47
 70
     1
102
RTVSPropertyOp48
 70
     1
102
RTVSPropertyOp49
 70
     1
102
RTVSPropertyOp50
 70
     1
102
RTVSPropertyOp51
 70
     0
102
RTVSPropertyOp52
 70
     0
102
RTVSPropertyOp53
 70
     1
102
RTVSPropertyOp54
 70
     1
102
RTVSPropertyOp55
 70
     1
102
RTVSPropertyOp56
 70
     1
102
RTVSPropertyOp57
 70
     1
102
RTVSPropertyOp58
 70
     1
102
RTVSPropertyOp59
 70
     1
102
RTVSPropertyOp60
 70
     1
102
RTVSPropertyOp61
 70
     1
102
RTVSPropertyOp62
 70
     1
  0
XRECORD
  5
86D79
102
{ACAD_REACTORS
330
86D78
102
}
330
86D78
100
AcDbXrecord
280
     1
102
RTVSPost2010Prop28
280
     0
102
RTVSPost2010PropOp28
 70
     1
102
RTVSPost2010Prop29
280
     1
102
RTVSPost2010PropOp29
 70
     1
102
RTVSPost2010Prop30
280
     1
102
RTVSPost2010PropOp30
 70
     1
102
RTVSPost2010Prop31
280
     0
102
RTVSPost2010PropOp31
 70
     1
102
RTVSPost2010Prop32
280
     0
102
RTVSPost2010PropOp32
 70
     1
102
RTVSPost2010Prop33
280
     0
102
RTVSPost2010PropOp33
 70
     1
102
RTVSPost2010Prop34
280
     0
102
RTVSPost2010PropOp34
 70
     1
102
RTVSPost2010Prop35
280
     0
102
RTVSPost2010PropOp35
 70
     1
102
RTVSPost2010Prop36
280
     0
102
RTVSPost2010PropOp36
 70
     1
102
RTVSPost2010Prop37
 90
       50
102
RTVSPost2010PropOp37
 70
     1
102
RTVSPost2010Prop38
140
0.0
102
RTVSPost2010PropOp38
 70
     1
102
RTVSPost2010Prop39
140
1.0
102
RTVSPost2010PropOp39
 70
     1
102
RTVSPost2010Prop40
 90
        0
102
RTVSPost2010PropOp40
 70
     1
102
RTVSPost2010Prop41ColorIndex
 90
       18
102
RTVSPost2010Prop41ColorRGB
 90
        0
102
RTVSPost2010PropOp41
 70
     1
102
RTVSPost2010Prop42
 90
       50
102
RTVSPost2010PropOp42
 70
     1
102
RTVSPost2010Prop43
 90
        3
102
RTVSPost2010PropOp43
 70
     1
102
RTVSPost2010Prop44ColorIndex
 90
        5
102
RTVSPost2010Prop44ColorRGB
 90
      255
102
RTVSPost2010PropOp44
 70
     1
102
RTVSPost2010Prop45
280
     0
102
RTVSPost2010PropOp45
 70
     1
102
RTVSPost2010Prop46
 90
       50
102
RTVSPost2010PropOp46
 70
     1
102
RTVSPost2010Prop47
 90
       50
102
RTVSPost2010PropOp47
 70
     1
102
RTVSPost2010Prop48
 90
       50
102
RTVSPost2010PropOp48
 70
     1
102
RTVSPost2010Prop49
280
     0
102
RTVSPost2010PropOp49
 70
     1
102
RTVSPost2010Prop50
 90
       50
102
RTVSPost2010PropOp50
 70
     1
102
RTVSPost2010Prop51ColorIndex
 90
      256
102
RTVSPost2010Prop51ColorRGB
 90
-16777216
102
RTVSPost2010PropOp51
 70
     0
102
RTVSPost2010Prop52
140
1.0
102
RTVSPost2010PropOp52
 70
     0
102
RTVSPost2010Prop53
 90
        2
102
RTVSPost2010PropOp53
 70
     1
102
RTVSPost2010Prop54
  1
strokes_ogs.tif
102
RTVSPost2010PropOp54
 70
     1
102
RTVSPost2010Prop55
280
     0
102
RTVSPost2010PropOp55
 70
     1
102
RTVSPost2010Prop56
140
1.0
102
RTVSPost2010PropOp56
 70
     1
102
RTVSPost2010Prop57
140
1.0
102
RTVSPost2010PropOp57
 70
     1
102
RTVSPropertyOp0
 70
     1
102
RTVSPropertyOp1
 70
     1
102
RTVSPropertyOp2
 70
     1
102
RTVSPropertyOp3
 70
     1
102
RTVSPropertyOp4
 70
     1
102
RTVSPropertyOp5
 70
     1
102
RTVSPropertyOp6
 70
     1
102
RTVSPropertyOp7
 70
     1
102
RTVSPropertyOp8
 70
     1
102
RTVSPropertyOp9
 70
     1
102
RTVSPropertyOp10
 70
     1
102
RTVSPropertyOp11
 70
     1
102
RTVSPropertyOp12
 70
     1
102
RTVSPropertyOp13
 70
     1
102
RTVSPropertyOp14
 70
     1
102
RTVSPropertyOp15
 70
     1
102
RTVSPropertyOp16
 70
     1
102
RTVSPropertyOp17
 70
     1
102
RTVSPropertyOp18
 70
     1
102
RTVSPropertyOp19
 70
     1
102
RTVSPropertyOp20
 70
     1
102
RTVSPropertyOp21
 70
     1
102
RTVSPropertyOp22
 70
     1
102
RTVSPropertyOp23
 70
     1
102
RTVSPropertyOp24
 70
     1
102
RTVSPropertyOp25
 70
     1
102
RTVSPropertyOp26
 70
     1
102
RTVSPropertyOp27
 70
     1
102
RTVSPropertyOp28
 70
     1
102
RTVSPropertyOp29
 70
     1
102
RTVSPropertyOp30
 70
     1
102
RTVSPropertyOp31
 70
     1
102
RTVSPropertyOp32
 70
     1
102
RTVSPropertyOp33
 70
     1
102
RTVSPropertyOp34
 70
     1
102
RTVSPropertyOp35
 70
     1
102
RTVSPropertyOp36
 70
     1
102
RTVSPropertyOp37
 70
     1
102
RTVSPropertyOp38
 70
     1
102
RTVSPropertyOp39
 70
     1
102
RTVSPropertyOp40
 70
     1
102
RTVSPropertyOp41
 70
     1
102
RTVSPropertyOp42
 70
     1
102
RTVSPropertyOp43
 70
     1
102
RTVSPropertyOp44
 70
     1
102
RTVSPropertyOp45
 70
     1
102
RTVSPropertyOp46
 70
     1
102
RTVSPropertyOp47
 70
     1
102
RTVSPropertyOp48
 70
     1
102
RTVSPropertyOp49
 70
     1
102
RTVSPropertyOp50
 70
     1
102
RTVSPropertyOp51
 70
     0
102
RTVSPropertyOp52
 70
     0
102
RTVSPropertyOp53
 70
     1
102
RTVSPropertyOp54
 70
     1
102
RTVSPropertyOp55
 70
     1
102
RTVSPropertyOp56
 70
     1
102
RTVSPropertyOp57
 70
     1
102
RTVSPropertyOp58
 70
     1
102
RTVSPropertyOp59
 70
     1
102
RTVSPropertyOp60
 70
     1
102
RTVSPropertyOp61
 70
     1
102
RTVSPropertyOp62
 70
     1
  0
XRECORD
  5
86D87
102
{ACAD_REACTORS
330
86D86
102
}
330
86D86
100
AcDbXrecord
280
     1
102
RTVSPost2010Prop28
280
     0
102
RTVSPost2010PropOp28
 70
     1
102
RTVSPost2010Prop29
280
     1
102
RTVSPost2010PropOp29
 70
     1
102
RTVSPost2010Prop30
280
     1
102
RTVSPost2010PropOp30
 70
     1
102
RTVSPost2010Prop31
280
     0
102
RTVSPost2010PropOp31
 70
     1
102
RTVSPost2010Prop32
280
     0
102
RTVSPost2010PropOp32
 70
     1
102
RTVSPost2010Prop33
280
     0
102
RTVSPost2010PropOp33
 70
     1
102
RTVSPost2010Prop34
280
     0
102
RTVSPost2010PropOp34
 70
     1
102
RTVSPost2010Prop35
280
     0
102
RTVSPost2010PropOp35
 70
     1
102
RTVSPost2010Prop36
280
     0
102
RTVSPost2010PropOp36
 70
     1
102
RTVSPost2010Prop37
 90
       50
102
RTVSPost2010PropOp37
 70
     1
102
RTVSPost2010Prop38
140
0.0
102
RTVSPost2010PropOp38
 70
     1
102
RTVSPost2010Prop39
140
1.0
102
RTVSPost2010PropOp39
 70
     1
102
RTVSPost2010Prop40
 90
        0
102
RTVSPost2010PropOp40
 70
     1
102
RTVSPost2010Prop41ColorIndex
 90
       18
102
RTVSPost2010Prop41ColorRGB
 90
        0
102
RTVSPost2010PropOp41
 70
     1
102
RTVSPost2010Prop42
 90
       50
102
RTVSPost2010PropOp42
 70
     1
102
RTVSPost2010Prop43
 90
        3
102
RTVSPost2010PropOp43
 70
     1
102
RTVSPost2010Prop44ColorIndex
 90
        5
102
RTVSPost2010Prop44ColorRGB
 90
      255
102
RTVSPost2010PropOp44
 70
     1
102
RTVSPost2010Prop45
280
     0
102
RTVSPost2010PropOp45
 70
     1
102
RTVSPost2010Prop46
 90
       50
102
RTVSPost2010PropOp46
 70
     1
102
RTVSPost2010Prop47
 90
       50
102
RTVSPost2010PropOp47
 70
     1
102
RTVSPost2010Prop48
 90
       50
102
RTVSPost2010PropOp48
 70
     1
102
RTVSPost2010Prop49
280
     0
102
RTVSPost2010PropOp49
 70
     1
102
RTVSPost2010Prop50
 90
       50
102
RTVSPost2010PropOp50
 70
     1
102
RTVSPost2010Prop51ColorIndex
 90
      256
102
RTVSPost2010Prop51ColorRGB
 90
-16777216
102
RTVSPost2010PropOp51
 70
     0
102
RTVSPost2010Prop52
140
1.0
102
RTVSPost2010PropOp52
 70
     0
102
RTVSPost2010Prop53
 90
        2
102
RTVSPost2010PropOp53
 70
     1
102
RTVSPost2010Prop54
  1
strokes_ogs.tif
102
RTVSPost2010PropOp54
 70
     1
102
RTVSPost2010Prop55
280
     0
102
RTVSPost2010PropOp55
 70
     1
102
RTVSPost2010Prop56
140
1.0
102
RTVSPost2010PropOp56
 70
     1
102
RTVSPost2010Prop57
140
1.0
102
RTVSPost2010PropOp57
 70
     1
102
RTVSPropertyOp0
 70
     1
102
RTVSPropertyOp1
 70
     1
102
RTVSPropertyOp2
 70
     1
102
RTVSPropertyOp3
 70
     1
102
RTVSPropertyOp4
 70
     1
102
RTVSPropertyOp5
 70
     1
102
RTVSPropertyOp6
 70
     1
102
RTVSPropertyOp7
 70
     1
102
RTVSPropertyOp8
 70
     1
102
RTVSPropertyOp9
 70
     1
102
RTVSPropertyOp10
 70
     1
102
RTVSPropertyOp11
 70
     1
102
RTVSPropertyOp12
 70
     1
102
RTVSPropertyOp13
 70
     1
102
RTVSPropertyOp14
 70
     1
102
RTVSPropertyOp15
 70
     1
102
RTVSPropertyOp16
 70
     1
102
RTVSPropertyOp17
 70
     1
102
RTVSPropertyOp18
 70
     1
102
RTVSPropertyOp19
 70
     1
102
RTVSPropertyOp20
 70
     1
102
RTVSPropertyOp21
 70
     1
102
RTVSPropertyOp22
 70
     1
102
RTVSPropertyOp23
 70
     1
102
RTVSPropertyOp24
 70
     1
102
RTVSPropertyOp25
 70
     1
102
RTVSPropertyOp26
 70
     1
102
RTVSPropertyOp27
 70
     1
102
RTVSPropertyOp28
 70
     1
102
RTVSPropertyOp29
 70
     1
102
RTVSPropertyOp30
 70
     1
102
RTVSPropertyOp31
 70
     1
102
RTVSPropertyOp32
 70
     1
102
RTVSPropertyOp33
 70
     1
102
RTVSPropertyOp34
 70
     1
102
RTVSPropertyOp35
 70
     1
102
RTVSPropertyOp36
 70
     1
102
RTVSPropertyOp37
 70
     1
102
RTVSPropertyOp38
 70
     1
102
RTVSPropertyOp39
 70
     1
102
RTVSPropertyOp40
 70
     1
102
RTVSPropertyOp41
 70
     1
102
RTVSPropertyOp42
 70
     1
102
RTVSPropertyOp43
 70
     1
102
RTVSPropertyOp44
 70
     1
102
RTVSPropertyOp45
 70
     1
102
RTVSPropertyOp46
 70
     1
102
RTVSPropertyOp47
 70
     1
102
RTVSPropertyOp48
 70
     1
102
RTVSPropertyOp49
 70
     1
102
RTVSPropertyOp50
 70
     1
102
RTVSPropertyOp51
 70
     0
102
RTVSPropertyOp52
 70
     0
102
RTVSPropertyOp53
 70
     1
102
RTVSPropertyOp54
 70
     1
102
RTVSPropertyOp55
 70
     1
102
RTVSPropertyOp56
 70
     1
102
RTVSPropertyOp57
 70
     1
102
RTVSPropertyOp58
 70
     1
102
RTVSPropertyOp59
 70
     1
102
RTVSPropertyOp60
 70
     1
102
RTVSPropertyOp61
 70
     1
102
RTVSPropertyOp62
 70
     1
  0
XRECORD
  5
86D8F
102
{ACAD_REACTORS
330
86D8E
102
}
330
86D8E
100
AcDbXrecord
280
     1
102
RTVSPost2010Prop28
280
     0
102
RTVSPost2010PropOp28
 70
     1
102
RTVSPost2010Prop29
280
     1
102
RTVSPost2010PropOp29
 70
     1
102
RTVSPost2010Prop30
280
     1
102
RTVSPost2010PropOp30
 70
     1
102
RTVSPost2010Prop31
280
     0
102
RTVSPost2010PropOp31
 70
     1
102
RTVSPost2010Prop32
280
     0
102
RTVSPost2010PropOp32
 70
     1
102
RTVSPost2010Prop33
280
     0
102
RTVSPost2010PropOp33
 70
     1
102
RTVSPost2010Prop34
280
     0
102
RTVSPost2010PropOp34
 70
     1
102
RTVSPost2010Prop35
280
     0
102
RTVSPost2010PropOp35
 70
     1
102
RTVSPost2010Prop36
280
     0
102
RTVSPost2010PropOp36
 70
     1
102
RTVSPost2010Prop37
 90
       50
102
RTVSPost2010PropOp37
 70
     1
102
RTVSPost2010Prop38
140
0.0
102
RTVSPost2010PropOp38
 70
     1
102
RTVSPost2010Prop39
140
1.0
102
RTVSPost2010PropOp39
 70
     1
102
RTVSPost2010Prop40
 90
        0
102
RTVSPost2010PropOp40
 70
     1
102
RTVSPost2010Prop41ColorIndex
 90
       18
102
RTVSPost2010Prop41ColorRGB
 90
        0
102
RTVSPost2010PropOp41
 70
     1
102
RTVSPost2010Prop42
 90
       50
102
RTVSPost2010PropOp42
 70
     1
102
RTVSPost2010Prop43
 90
        3
102
RTVSPost2010PropOp43
 70
     1
102
RTVSPost2010Prop44ColorIndex
 90
        5
102
RTVSPost2010Prop44ColorRGB
 90
      255
102
RTVSPost2010PropOp44
 70
     1
102
RTVSPost2010Prop45
280
     0
102
RTVSPost2010PropOp45
 70
     1
102
RTVSPost2010Prop46
 90
       50
102
RTVSPost2010PropOp46
 70
     1
102
RTVSPost2010Prop47
 90
       50
102
RTVSPost2010PropOp47
 70
     1
102
RTVSPost2010Prop48
 90
       50
102
RTVSPost2010PropOp48
 70
     1
102
RTVSPost2010Prop49
280
     0
102
RTVSPost2010PropOp49
 70
     1
102
RTVSPost2010Prop50
 90
       50
102
RTVSPost2010PropOp50
 70
     1
102
RTVSPost2010Prop51ColorIndex
 90
      256
102
RTVSPost2010Prop51ColorRGB
 90
-16777216
102
RTVSPost2010PropOp51
 70
     0
102
RTVSPost2010Prop52
140
1.0
102
RTVSPost2010PropOp52
 70
     0
102
RTVSPost2010Prop53
 90
        2
102
RTVSPost2010PropOp53
 70
     1
102
RTVSPost2010Prop54
  1
strokes_ogs.tif
102
RTVSPost2010PropOp54
 70
     1
102
RTVSPost2010Prop55
280
     0
102
RTVSPost2010PropOp55
 70
     1
102
RTVSPost2010Prop56
140
1.0
102
RTVSPost2010PropOp56
 70
     1
102
RTVSPost2010Prop57
140
1.0
102
RTVSPost2010PropOp57
 70
     1
102
RTVSPropertyOp0
 70
     1
102
RTVSPropertyOp1
 70
     1
102
RTVSPropertyOp2
 70
     1
102
RTVSPropertyOp3
 70
     1
102
RTVSPropertyOp4
 70
     1
102
RTVSPropertyOp5
 70
     1
102
RTVSPropertyOp6
 70
     1
102
RTVSPropertyOp7
 70
     1
102
RTVSPropertyOp8
 70
     1
102
RTVSPropertyOp9
 70
     1
102
RTVSPropertyOp10
 70
     1
102
RTVSPropertyOp11
 70
     1
102
RTVSPropertyOp12
 70
     1
102
RTVSPropertyOp13
 70
     1
102
RTVSPropertyOp14
 70
     1
102
RTVSPropertyOp15
 70
     1
102
RTVSPropertyOp16
 70
     1
102
RTVSPropertyOp17
 70
     1
102
RTVSPropertyOp18
 70
     1
102
RTVSPropertyOp19
 70
     1
102
RTVSPropertyOp20
 70
     1
102
RTVSPropertyOp21
 70
     1
102
RTVSPropertyOp22
 70
     1
102
RTVSPropertyOp23
 70
     1
102
RTVSPropertyOp24
 70
     1
102
RTVSPropertyOp25
 70
     1
102
RTVSPropertyOp26
 70
     1
102
RTVSPropertyOp27
 70
     1
102
RTVSPropertyOp28
 70
     1
102
RTVSPropertyOp29
 70
     1
102
RTVSPropertyOp30
 70
     1
102
RTVSPropertyOp31
 70
     1
102
RTVSPropertyOp32
 70
     1
102
RTVSPropertyOp33
 70
     1
102
RTVSPropertyOp34
 70
     1
102
RTVSPropertyOp35
 70
     1
102
RTVSPropertyOp36
 70
     1
102
RTVSPropertyOp37
 70
     1
102
RTVSPropertyOp38
 70
     1
102
RTVSPropertyOp39
 70
     1
102
RTVSPropertyOp40
 70
     1
102
RTVSPropertyOp41
 70
     1
102
RTVSPropertyOp42
 70
     1
102
RTVSPropertyOp43
 70
     1
102
RTVSPropertyOp44
 70
     1
102
RTVSPropertyOp45
 70
     1
102
RTVSPropertyOp46
 70
     1
102
RTVSPropertyOp47
 70
     1
102
RTVSPropertyOp48
 70
     1
102
RTVSPropertyOp49
 70
     1
102
RTVSPropertyOp50
 70
     1
102
RTVSPropertyOp51
 70
     0
102
RTVSPropertyOp52
 70
     0
102
RTVSPropertyOp53
 70
     1
102
RTVSPropertyOp54
 70
     1
102
RTVSPropertyOp55
 70
     1
102
RTVSPropertyOp56
 70
     1
102
RTVSPropertyOp57
 70
     1
102
RTVSPropertyOp58
 70
     1
102
RTVSPropertyOp59
 70
     1
102
RTVSPropertyOp60
 70
     1
102
RTVSPropertyOp61
 70
     1
102
RTVSPropertyOp62
 70
     1
  0
XRECORD
  5
86D81
102
{ACAD_REACTORS
330
86D80
102
}
330
86D80
100
AcDbXrecord
280
     1
102
RTVSPost2010Prop28
280
     0
102
RTVSPost2010PropOp28
 70
     1
102
RTVSPost2010Prop29
280
     1
102
RTVSPost2010PropOp29
 70
     1
102
RTVSPost2010Prop30
280
     1
102
RTVSPost2010PropOp30
 70
     1
102
RTVSPost2010Prop31
280
     0
102
RTVSPost2010PropOp31
 70
     1
102
RTVSPost2010Prop32
280
     0
102
RTVSPost2010PropOp32
 70
     1
102
RTVSPost2010Prop33
280
     0
102
RTVSPost2010PropOp33
 70
     1
102
RTVSPost2010Prop34
280
     0
102
RTVSPost2010PropOp34
 70
     1
102
RTVSPost2010Prop35
280
     0
102
RTVSPost2010PropOp35
 70
     1
102
RTVSPost2010Prop36
280
     0
102
RTVSPost2010PropOp36
 70
     1
102
RTVSPost2010Prop37
 90
       50
102
RTVSPost2010PropOp37
 70
     1
102
RTVSPost2010Prop38
140
0.0
102
RTVSPost2010PropOp38
 70
     1
102
RTVSPost2010Prop39
140
1.0
102
RTVSPost2010PropOp39
 70
     1
102
RTVSPost2010Prop40
 90
        0
102
RTVSPost2010PropOp40
 70
     1
102
RTVSPost2010Prop41ColorIndex
 90
       18
102
RTVSPost2010Prop41ColorRGB
 90
        0
102
RTVSPost2010PropOp41
 70
     1
102
RTVSPost2010Prop42
 90
       50
102
RTVSPost2010PropOp42
 70
     1
102
RTVSPost2010Prop43
 90
        3
102
RTVSPost2010PropOp43
 70
     1
102
RTVSPost2010Prop44ColorIndex
 90
        5
102
RTVSPost2010Prop44ColorRGB
 90
      255
102
RTVSPost2010PropOp44
 70
     1
102
RTVSPost2010Prop45
280
     0
102
RTVSPost2010PropOp45
 70
     1
102
RTVSPost2010Prop46
 90
       50
102
RTVSPost2010PropOp46
 70
     1
102
RTVSPost2010Prop47
 90
       50
102
RTVSPost2010PropOp47
 70
     1
102
RTVSPost2010Prop48
 90
       50
102
RTVSPost2010PropOp48
 70
     1
102
RTVSPost2010Prop49
280
     0
102
RTVSPost2010PropOp49
 70
     1
102
RTVSPost2010Prop50
 90
       50
102
RTVSPost2010PropOp50
 70
     1
102
RTVSPost2010Prop51ColorIndex
 90
      256
102
RTVSPost2010Prop51ColorRGB
 90
-16777216
102
RTVSPost2010PropOp51
 70
     0
102
RTVSPost2010Prop52
140
1.0
102
RTVSPost2010PropOp52
 70
     0
102
RTVSPost2010Prop53
 90
        2
102
RTVSPost2010PropOp53
 70
     1
102
RTVSPost2010Prop54
  1
strokes_ogs.tif
102
RTVSPost2010PropOp54
 70
     1
102
RTVSPost2010Prop55
280
     0
102
RTVSPost2010PropOp55
 70
     1
102
RTVSPost2010Prop56
140
1.0
102
RTVSPost2010PropOp56
 70
     1
102
RTVSPost2010Prop57
140
1.0
102
RTVSPost2010PropOp57
 70
     1
102
RTVSPropertyOp0
 70
     1
102
RTVSPropertyOp1
 70
     1
102
RTVSPropertyOp2
 70
     1
102
RTVSPropertyOp3
 70
     1
102
RTVSPropertyOp4
 70
     1
102
RTVSPropertyOp5
 70
     1
102
RTVSPropertyOp6
 70
     1
102
RTVSPropertyOp7
 70
     1
102
RTVSPropertyOp8
 70
     1
102
RTVSPropertyOp9
 70
     1
102
RTVSPropertyOp10
 70
     1
102
RTVSPropertyOp11
 70
     1
102
RTVSPropertyOp12
 70
     1
102
RTVSPropertyOp13
 70
     1
102
RTVSPropertyOp14
 70
     1
102
RTVSPropertyOp15
 70
     1
102
RTVSPropertyOp16
 70
     1
102
RTVSPropertyOp17
 70
     1
102
RTVSPropertyOp18
 70
     1
102
RTVSPropertyOp19
 70
     1
102
RTVSPropertyOp20
 70
     1
102
RTVSPropertyOp21
 70
     1
102
RTVSPropertyOp22
 70
     1
102
RTVSPropertyOp23
 70
     1
102
RTVSPropertyOp24
 70
     1
102
RTVSPropertyOp25
 70
     1
102
RTVSPropertyOp26
 70
     1
102
RTVSPropertyOp27
 70
     1
102
RTVSPropertyOp28
 70
     1
102
RTVSPropertyOp29
 70
     1
102
RTVSPropertyOp30
 70
     1
102
RTVSPropertyOp31
 70
     1
102
RTVSPropertyOp32
 70
     1
102
RTVSPropertyOp33
 70
     1
102
RTVSPropertyOp34
 70
     1
102
RTVSPropertyOp35
 70
     1
102
RTVSPropertyOp36
 70
     1
102
RTVSPropertyOp37
 70
     1
102
RTVSPropertyOp38
 70
     1
102
RTVSPropertyOp39
 70
     1
102
RTVSPropertyOp40
 70
     1
102
RTVSPropertyOp41
 70
     1
102
RTVSPropertyOp42
 70
     1
102
RTVSPropertyOp43
 70
     1
102
RTVSPropertyOp44
 70
     1
102
RTVSPropertyOp45
 70
     1
102
RTVSPropertyOp46
 70
     1
102
RTVSPropertyOp47
 70
     1
102
RTVSPropertyOp48
 70
     1
102
RTVSPropertyOp49
 70
     1
102
RTVSPropertyOp50
 70
     1
102
RTVSPropertyOp51
 70
     0
102
RTVSPropertyOp52
 70
     0
102
RTVSPropertyOp53
 70
     1
102
RTVSPropertyOp54
 70
     1
102
RTVSPropertyOp55
 70
     1
102
RTVSPropertyOp56
 70
     1
102
RTVSPropertyOp57
 70
     1
102
RTVSPropertyOp58
 70
     1
102
RTVSPropertyOp59
 70
     1
102
RTVSPropertyOp60
 70
     1
102
RTVSPropertyOp61
 70
     1
102
RTVSPropertyOp62
 70
     1
  0
XRECORD
  5
86D85
102
{ACAD_REACTORS
330
86D84
102
}
330
86D84
100
AcDbXrecord
280
     1
102
RTVSPost2010Prop28
280
     0
102
RTVSPost2010PropOp28
 70
     1
102
RTVSPost2010Prop29
280
     1
102
RTVSPost2010PropOp29
 70
     1
102
RTVSPost2010Prop30
280
     1
102
RTVSPost2010PropOp30
 70
     1
102
RTVSPost2010Prop31
280
     0
102
RTVSPost2010PropOp31
 70
     1
102
RTVSPost2010Prop32
280
     0
102
RTVSPost2010PropOp32
 70
     1
102
RTVSPost2010Prop33
280
     0
102
RTVSPost2010PropOp33
 70
     1
102
RTVSPost2010Prop34
280
     0
102
RTVSPost2010PropOp34
 70
     1
102
RTVSPost2010Prop35
280
     0
102
RTVSPost2010PropOp35
 70
     1
102
RTVSPost2010Prop36
280
     0
102
RTVSPost2010PropOp36
 70
     1
102
RTVSPost2010Prop37
 90
       50
102
RTVSPost2010PropOp37
 70
     1
102
RTVSPost2010Prop38
140
0.0
102
RTVSPost2010PropOp38
 70
     1
102
RTVSPost2010Prop39
140
1.0
102
RTVSPost2010PropOp39
 70
     1
102
RTVSPost2010Prop40
 90
        0
102
RTVSPost2010PropOp40
 70
     1
102
RTVSPost2010Prop41ColorIndex
 90
       18
102
RTVSPost2010Prop41ColorRGB
 90
        0
102
RTVSPost2010PropOp41
 70
     1
102
RTVSPost2010Prop42
 90
       50
102
RTVSPost2010PropOp42
 70
     1
102
RTVSPost2010Prop43
 90
        3
102
RTVSPost2010PropOp43
 70
     1
102
RTVSPost2010Prop44ColorIndex
 90
        5
102
RTVSPost2010Prop44ColorRGB
 90
      255
102
RTVSPost2010PropOp44
 70
     1
102
RTVSPost2010Prop45
280
     0
102
RTVSPost2010PropOp45
 70
     1
102
RTVSPost2010Prop46
 90
       50
102
RTVSPost2010PropOp46
 70
     1
102
RTVSPost2010Prop47
 90
       50
102
RTVSPost2010PropOp47
 70
     1
102
RTVSPost2010Prop48
 90
       50
102
RTVSPost2010PropOp48
 70
     1
102
RTVSPost2010Prop49
280
     0
102
RTVSPost2010PropOp49
 70
     1
102
RTVSPost2010Prop50
 90
       50
102
RTVSPost2010PropOp50
 70
     1
102
RTVSPost2010Prop51ColorIndex
 90
      256
102
RTVSPost2010Prop51ColorRGB
 90
-16777216
102
RTVSPost2010PropOp51
 70
     0
102
RTVSPost2010Prop52
140
1.0
102
RTVSPost2010PropOp52
 70
     0
102
RTVSPost2010Prop53
 90
        2
102
RTVSPost2010PropOp53
 70
     1
102
RTVSPost2010Prop54
  1
strokes_ogs.tif
102
RTVSPost2010PropOp54
 70
     1
102
RTVSPost2010Prop55
280
     0
102
RTVSPost2010PropOp55
 70
     1
102
RTVSPost2010Prop56
140
1.0
102
RTVSPost2010PropOp56
 70
     1
102
RTVSPost2010Prop57
140
1.0
102
RTVSPost2010PropOp57
 70
     1
102
RTVSPropertyOp0
 70
     1
102
RTVSPropertyOp1
 70
     1
102
RTVSPropertyOp2
 70
     1
102
RTVSPropertyOp3
 70
     1
102
RTVSPropertyOp4
 70
     1
102
RTVSPropertyOp5
 70
     1
102
RTVSPropertyOp6
 70
     1
102
RTVSPropertyOp7
 70
     1
102
RTVSPropertyOp8
 70
     1
102
RTVSPropertyOp9
 70
     1
102
RTVSPropertyOp10
 70
     1
102
RTVSPropertyOp11
 70
     1
102
RTVSPropertyOp12
 70
     1
102
RTVSPropertyOp13
 70
     1
102
RTVSPropertyOp14
 70
     1
102
RTVSPropertyOp15
 70
     1
102
RTVSPropertyOp16
 70
     1
102
RTVSPropertyOp17
 70
     1
102
RTVSPropertyOp18
 70
     1
102
RTVSPropertyOp19
 70
     1
102
RTVSPropertyOp20
 70
     1
102
RTVSPropertyOp21
 70
     1
102
RTVSPropertyOp22
 70
     1
102
RTVSPropertyOp23
 70
     1
102
RTVSPropertyOp24
 70
     1
102
RTVSPropertyOp25
 70
     1
102
RTVSPropertyOp26
 70
     1
102
RTVSPropertyOp27
 70
     1
102
RTVSPropertyOp28
 70
     1
102
RTVSPropertyOp29
 70
     1
102
RTVSPropertyOp30
 70
     1
102
RTVSPropertyOp31
 70
     1
102
RTVSPropertyOp32
 70
     1
102
RTVSPropertyOp33
 70
     1
102
RTVSPropertyOp34
 70
     1
102
RTVSPropertyOp35
 70
     1
102
RTVSPropertyOp36
 70
     1
102
RTVSPropertyOp37
 70
     1
102
RTVSPropertyOp38
 70
     1
102
RTVSPropertyOp39
 70
     1
102
RTVSPropertyOp40
 70
     1
102
RTVSPropertyOp41
 70
     1
102
RTVSPropertyOp42
 70
     1
102
RTVSPropertyOp43
 70
     1
102
RTVSPropertyOp44
 70
     1
102
RTVSPropertyOp45
 70
     1
102
RTVSPropertyOp46
 70
     1
102
RTVSPropertyOp47
 70
     1
102
RTVSPropertyOp48
 70
     1
102
RTVSPropertyOp49
 70
     1
102
RTVSPropertyOp50
 70
     1
102
RTVSPropertyOp51
 70
     0
102
RTVSPropertyOp52
 70
     0
102
RTVSPropertyOp53
 70
     1
102
RTVSPropertyOp54
 70
     1
102
RTVSPropertyOp55
 70
     1
102
RTVSPropertyOp56
 70
     1
102
RTVSPropertyOp57
 70
     1
102
RTVSPropertyOp58
 70
     1
102
RTVSPropertyOp59
 70
     1
102
RTVSPropertyOp60
 70
     1
102
RTVSPropertyOp61
 70
     1
102
RTVSPropertyOp62
 70
     1
  0
XRECORD
  5
86D95
102
{ACAD_REACTORS
330
86D94
102
}
330
86D94
100
AcDbXrecord
280
     1
102
RTVSPost2010Prop28
280
     0
102
RTVSPost2010PropOp28
 70
     1
102
RTVSPost2010Prop29
280
     1
102
RTVSPost2010PropOp29
 70
     1
102
RTVSPost2010Prop30
280
     1
102
RTVSPost2010PropOp30
 70
     1
102
RTVSPost2010Prop31
280
     0
102
RTVSPost2010PropOp31
 70
     1
102
RTVSPost2010Prop32
280
     0
102
RTVSPost2010PropOp32
 70
     1
102
RTVSPost2010Prop33
280
     0
102
RTVSPost2010PropOp33
 70
     1
102
RTVSPost2010Prop34
280
     0
102
RTVSPost2010PropOp34
 70
     1
102
RTVSPost2010Prop35
280
     0
102
RTVSPost2010PropOp35
 70
     1
102
RTVSPost2010Prop36
280
     0
102
RTVSPost2010PropOp36
 70
     1
102
RTVSPost2010Prop37
 90
       50
102
RTVSPost2010PropOp37
 70
     1
102
RTVSPost2010Prop38
140
0.0
102
RTVSPost2010PropOp38
 70
     1
102
RTVSPost2010Prop39
140
1.0
102
RTVSPost2010PropOp39
 70
     1
102
RTVSPost2010Prop40
 90
        0
102
RTVSPost2010PropOp40
 70
     1
102
RTVSPost2010Prop41ColorIndex
 90
       18
102
RTVSPost2010Prop41ColorRGB
 90
        0
102
RTVSPost2010PropOp41
 70
     1
102
RTVSPost2010Prop42
 90
       50
102
RTVSPost2010PropOp42
 70
     1
102
RTVSPost2010Prop43
 90
        3
102
RTVSPost2010PropOp43
 70
     1
102
RTVSPost2010Prop44ColorIndex
 90
        5
102
RTVSPost2010Prop44ColorRGB
 90
      255
102
RTVSPost2010PropOp44
 70
     1
102
RTVSPost2010Prop45
280
     0
102
RTVSPost2010PropOp45
 70
     1
102
RTVSPost2010Prop46
 90
       50
102
RTVSPost2010PropOp46
 70
     1
102
RTVSPost2010Prop47
 90
       50
102
RTVSPost2010PropOp47
 70
     1
102
RTVSPost2010Prop48
 90
       50
102
RTVSPost2010PropOp48
 70
     1
102
RTVSPost2010Prop49
280
     0
102
RTVSPost2010PropOp49
 70
     1
102
RTVSPost2010Prop50
 90
       50
102
RTVSPost2010PropOp50
 70
     1
102
RTVSPost2010Prop51ColorIndex
 90
      256
102
RTVSPost2010Prop51ColorRGB
 90
-16777216
102
RTVSPost2010PropOp51
 70
     0
102
RTVSPost2010Prop52
140
1.0
102
RTVSPost2010PropOp52
 70
     0
102
RTVSPost2010Prop53
 90
        2
102
RTVSPost2010PropOp53
 70
     1
102
RTVSPost2010Prop54
  1
strokes_ogs.tif
102
RTVSPost2010PropOp54
 70
     1
102
RTVSPost2010Prop55
280
     0
102
RTVSPost2010PropOp55
 70
     1
102
RTVSPost2010Prop56
140
1.0
102
RTVSPost2010PropOp56
 70
     1
102
RTVSPost2010Prop57
140
1.0
102
RTVSPost2010PropOp57
 70
     1
102
RTVSPropertyOp0
 70
     0
102
RTVSPropertyOp1
 70
     0
102
RTVSPropertyOp2
 70
     0
102
RTVSPropertyOp3
 70
     0
102
RTVSPropertyOp4
 70
     0
102
RTVSPropertyOp5
 70
     0
102
RTVSPropertyOp6
 70
     0
102
RTVSPropertyOp7
 70
     0
102
RTVSPropertyOp8
 70
     0
102
RTVSPropertyOp9
 70
     0
102
RTVSPropertyOp10
 70
     0
102
RTVSPropertyOp11
 70
     0
102
RTVSPropertyOp12
 70
     0
102
RTVSPropertyOp13
 70
     0
102
RTVSPropertyOp14
 70
     2
102
RTVSPropertyOp15
 70
     0
102
RTVSPropertyOp16
 70
     0
102
RTVSPropertyOp17
 70
     0
102
RTVSPropertyOp18
 70
     0
102
RTVSPropertyOp19
 70
     0
102
RTVSPropertyOp20
 70
     0
102
RTVSPropertyOp21
 70
     0
102
RTVSPropertyOp22
 70
     0
102
RTVSPropertyOp23
 70
     0
102
RTVSPropertyOp24
 70
     0
102
RTVSPropertyOp25
 70
     0
102
RTVSPropertyOp26
 70
     0
102
RTVSPropertyOp27
 70
     0
102
RTVSPropertyOp28
 70
     1
102
RTVSPropertyOp29
 70
     1
102
RTVSPropertyOp30
 70
     1
102
RTVSPropertyOp31
 70
     1
102
RTVSPropertyOp32
 70
     1
102
RTVSPropertyOp33
 70
     1
102
RTVSPropertyOp34
 70
     1
102
RTVSPropertyOp35
 70
     1
102
RTVSPropertyOp36
 70
     1
102
RTVSPropertyOp37
 70
     1
102
RTVSPropertyOp38
 70
     1
102
RTVSPropertyOp39
 70
     1
102
RTVSPropertyOp40
 70
     1
102
RTVSPropertyOp41
 70
     1
102
RTVSPropertyOp42
 70
     1
102
RTVSPropertyOp43
 70
     1
102
RTVSPropertyOp44
 70
     1
102
RTVSPropertyOp45
 70
     1
102
RTVSPropertyOp46
 70
     1
102
RTVSPropertyOp47
 70
     1
102
RTVSPropertyOp48
 70
     1
102
RTVSPropertyOp49
 70
     1
102
RTVSPropertyOp50
 70
     1
102
RTVSPropertyOp51
 70
     0
102
RTVSPropertyOp52
 70
     0
102
RTVSPropertyOp53
 70
     1
102
RTVSPropertyOp54
 70
     1
102
RTVSPropertyOp55
 70
     1
102
RTVSPropertyOp56
 70
     1
102
RTVSPropertyOp57
 70
     1
102
RTVSPropertyOp58
 70
     1
102
RTVSPropertyOp59
 70
     1
102
RTVSPropertyOp60
 70
     1
102
RTVSPropertyOp61
 70
     1
102
RTVSPropertyOp62
 70
     1
  0
XRECORD
  5
86D8D
102
{ACAD_REACTORS
330
86D8C
102
}
330
86D8C
100
AcDbXrecord
280
     1
102
RTVSPost2010Prop28
280
     0
102
RTVSPost2010PropOp28
 70
     1
102
RTVSPost2010Prop29
280
     1
102
RTVSPost2010PropOp29
 70
     1
102
RTVSPost2010Prop30
280
     1
102
RTVSPost2010PropOp30
 70
     1
102
RTVSPost2010Prop31
280
     0
102
RTVSPost2010PropOp31
 70
     1
102
RTVSPost2010Prop32
280
     0
102
RTVSPost2010PropOp32
 70
     1
102
RTVSPost2010Prop33
280
     0
102
RTVSPost2010PropOp33
 70
     1
102
RTVSPost2010Prop34
280
     0
102
RTVSPost2010PropOp34
 70
     1
102
RTVSPost2010Prop35
280
     0
102
RTVSPost2010PropOp35
 70
     1
102
RTVSPost2010Prop36
280
     0
102
RTVSPost2010PropOp36
 70
     1
102
RTVSPost2010Prop37
 90
       50
102
RTVSPost2010PropOp37
 70
     1
102
RTVSPost2010Prop38
140
0.0
102
RTVSPost2010PropOp38
 70
     1
102
RTVSPost2010Prop39
140
1.0
102
RTVSPost2010PropOp39
 70
     1
102
RTVSPost2010Prop40
 90
        0
102
RTVSPost2010PropOp40
 70
     1
102
RTVSPost2010Prop41ColorIndex
 90
       18
102
RTVSPost2010Prop41ColorRGB
 90
        0
102
RTVSPost2010PropOp41
 70
     1
102
RTVSPost2010Prop42
 90
       50
102
RTVSPost2010PropOp42
 70
     1
102
RTVSPost2010Prop43
 90
        3
102
RTVSPost2010PropOp43
 70
     1
102
RTVSPost2010Prop44ColorIndex
 90
        5
102
RTVSPost2010Prop44ColorRGB
 90
      255
102
RTVSPost2010PropOp44
 70
     1
102
RTVSPost2010Prop45
280
     0
102
RTVSPost2010PropOp45
 70
     1
102
RTVSPost2010Prop46
 90
       50
102
RTVSPost2010PropOp46
 70
     1
102
RTVSPost2010Prop47
 90
       50
102
RTVSPost2010PropOp47
 70
     1
102
RTVSPost2010Prop48
 90
       50
102
RTVSPost2010PropOp48
 70
     1
102
RTVSPost2010Prop49
280
     0
102
RTVSPost2010PropOp49
 70
     1
102
RTVSPost2010Prop50
 90
       50
102
RTVSPost2010PropOp50
 70
     1
102
RTVSPost2010Prop51ColorIndex
 90
      256
102
RTVSPost2010Prop51ColorRGB
 90
-16777216
102
RTVSPost2010PropOp51
 70
     0
102
RTVSPost2010Prop52
140
1.0
102
RTVSPost2010PropOp52
 70
     0
102
RTVSPost2010Prop53
 90
        2
102
RTVSPost2010PropOp53
 70
     1
102
RTVSPost2010Prop54
  1
strokes_ogs.tif
102
RTVSPost2010PropOp54
 70
     1
102
RTVSPost2010Prop55
280
     0
102
RTVSPost2010PropOp55
 70
     1
102
RTVSPost2010Prop56
140
1.0
102
RTVSPost2010PropOp56
 70
     1
102
RTVSPost2010Prop57
140
1.0
102
RTVSPost2010PropOp57
 70
     1
102
RTVSPropertyOp0
 70
     1
102
RTVSPropertyOp1
 70
     1
102
RTVSPropertyOp2
 70
     1
102
RTVSPropertyOp3
 70
     1
102
RTVSPropertyOp4
 70
     1
102
RTVSPropertyOp5
 70
     1
102
RTVSPropertyOp6
 70
     1
102
RTVSPropertyOp7
 70
     1
102
RTVSPropertyOp8
 70
     1
102
RTVSPropertyOp9
 70
     1
102
RTVSPropertyOp10
 70
     1
102
RTVSPropertyOp11
 70
     1
102
RTVSPropertyOp12
 70
     1
102
RTVSPropertyOp13
 70
     1
102
RTVSPropertyOp14
 70
     1
102
RTVSPropertyOp15
 70
     1
102
RTVSPropertyOp16
 70
     1
102
RTVSPropertyOp17
 70
     1
102
RTVSPropertyOp18
 70
     1
102
RTVSPropertyOp19
 70
     1
102
RTVSPropertyOp20
 70
     1
102
RTVSPropertyOp21
 70
     1
102
RTVSPropertyOp22
 70
     1
102
RTVSPropertyOp23
 70
     1
102
RTVSPropertyOp24
 70
     1
102
RTVSPropertyOp25
 70
     1
102
RTVSPropertyOp26
 70
     1
102
RTVSPropertyOp27
 70
     1
102
RTVSPropertyOp28
 70
     1
102
RTVSPropertyOp29
 70
     1
102
RTVSPropertyOp30
 70
     1
102
RTVSPropertyOp31
 70
     1
102
RTVSPropertyOp32
 70
     1
102
RTVSPropertyOp33
 70
     1
102
RTVSPropertyOp34
 70
     1
102
RTVSPropertyOp35
 70
     1
102
RTVSPropertyOp36
 70
     1
102
RTVSPropertyOp37
 70
     1
102
RTVSPropertyOp38
 70
     1
102
RTVSPropertyOp39
 70
     1
102
RTVSPropertyOp40
 70
     1
102
RTVSPropertyOp41
 70
     1
102
RTVSPropertyOp42
 70
     1
102
RTVSPropertyOp43
 70
     1
102
RTVSPropertyOp44
 70
     1
102
RTVSPropertyOp45
 70
     1
102
RTVSPropertyOp46
 70
     1
102
RTVSPropertyOp47
 70
     1
102
RTVSPropertyOp48
 70
     1
102
RTVSPropertyOp49
 70
     1
102
RTVSPropertyOp50
 70
     1
102
RTVSPropertyOp51
 70
     0
102
RTVSPropertyOp52
 70
     0
102
RTVSPropertyOp53
 70
     1
102
RTVSPropertyOp54
 70
     1
102
RTVSPropertyOp55
 70
     1
102
RTVSPropertyOp56
 70
     1
102
RTVSPropertyOp57
 70
     1
102
RTVSPropertyOp58
 70
     1
102
RTVSPropertyOp59
 70
     1
102
RTVSPropertyOp60
 70
     1
102
RTVSPropertyOp61
 70
     1
102
RTVSPropertyOp62
 70
     1
  0
XRECORD
  5
86D71
102
{ACAD_REACTORS
330
86D70
102
}
330
86D70
100
AcDbXrecord
280
     1
102
RTVSPost2010Prop28
280
     0
102
RTVSPost2010PropOp28
 70
     1
102
RTVSPost2010Prop29
280
     1
102
RTVSPost2010PropOp29
 70
     1
102
RTVSPost2010Prop30
280
     1
102
RTVSPost2010PropOp30
 70
     1
102
RTVSPost2010Prop31
280
     0
102
RTVSPost2010PropOp31
 70
     1
102
RTVSPost2010Prop32
280
     0
102
RTVSPost2010PropOp32
 70
     1
102
RTVSPost2010Prop33
280
     0
102
RTVSPost2010PropOp33
 70
     1
102
RTVSPost2010Prop34
280
     0
102
RTVSPost2010PropOp34
 70
     1
102
RTVSPost2010Prop35
280
     0
102
RTVSPost2010PropOp35
 70
     1
102
RTVSPost2010Prop36
280
     0
102
RTVSPost2010PropOp36
 70
     1
102
RTVSPost2010Prop37
 90
       50
102
RTVSPost2010PropOp37
 70
     1
102
RTVSPost2010Prop38
140
0.0
102
RTVSPost2010PropOp38
 70
     1
102
RTVSPost2010Prop39
140
1.0
102
RTVSPost2010PropOp39
 70
     1
102
RTVSPost2010Prop40
 90
        0
102
RTVSPost2010PropOp40
 70
     1
102
RTVSPost2010Prop41ColorIndex
 90
       18
102
RTVSPost2010Prop41ColorRGB
 90
        0
102
RTVSPost2010PropOp41
 70
     1
102
RTVSPost2010Prop42
 90
       50
102
RTVSPost2010PropOp42
 70
     1
102
RTVSPost2010Prop43
 90
        3
102
RTVSPost2010PropOp43
 70
     1
102
RTVSPost2010Prop44ColorIndex
 90
        5
102
RTVSPost2010Prop44ColorRGB
 90
      255
102
RTVSPost2010PropOp44
 70
     1
102
RTVSPost2010Prop45
280
     0
102
RTVSPost2010PropOp45
 70
     1
102
RTVSPost2010Prop46
 90
       50
102
RTVSPost2010PropOp46
 70
     1
102
RTVSPost2010Prop47
 90
       50
102
RTVSPost2010PropOp47
 70
     1
102
RTVSPost2010Prop48
 90
       50
102
RTVSPost2010PropOp48
 70
     1
102
RTVSPost2010Prop49
280
     0
102
RTVSPost2010PropOp49
 70
     1
102
RTVSPost2010Prop50
 90
       50
102
RTVSPost2010PropOp50
 70
     1
102
RTVSPost2010Prop51ColorIndex
 90
      256
102
RTVSPost2010Prop51ColorRGB
 90
-16777216
102
RTVSPost2010PropOp51
 70
     0
102
RTVSPost2010Prop52
140
1.0
102
RTVSPost2010PropOp52
 70
     0
102
RTVSPost2010Prop53
 90
        2
102
RTVSPost2010PropOp53
 70
     1
102
RTVSPost2010Prop54
  1
strokes_ogs.tif
102
RTVSPost2010PropOp54
 70
     1
102
RTVSPost2010Prop55
280
     0
102
RTVSPost2010PropOp55
 70
     1
102
RTVSPost2010Prop56
140
1.0
102
RTVSPost2010PropOp56
 70
     1
102
RTVSPost2010Prop57
140
1.0
102
RTVSPost2010PropOp57
 70
     1
102
RTVSPropertyOp0
 70
     1
102
RTVSPropertyOp1
 70
     1
102
RTVSPropertyOp2
 70
     1
102
RTVSPropertyOp3
 70
     1
102
RTVSPropertyOp4
 70
     1
102
RTVSPropertyOp5
 70
     1
102
RTVSPropertyOp6
 70
     1
102
RTVSPropertyOp7
 70
     1
102
RTVSPropertyOp8
 70
     1
102
RTVSPropertyOp9
 70
     1
102
RTVSPropertyOp10
 70
     1
102
RTVSPropertyOp11
 70
     1
102
RTVSPropertyOp12
 70
     1
102
RTVSPropertyOp13
 70
     1
102
RTVSPropertyOp14
 70
     1
102
RTVSPropertyOp15
 70
     1
102
RTVSPropertyOp16
 70
     1
102
RTVSPropertyOp17
 70
     1
102
RTVSPropertyOp18
 70
     1
102
RTVSPropertyOp19
 70
     1
102
RTVSPropertyOp20
 70
     1
102
RTVSPropertyOp21
 70
     1
102
RTVSPropertyOp22
 70
     1
102
RTVSPropertyOp23
 70
     1
102
RTVSPropertyOp24
 70
     1
102
RTVSPropertyOp25
 70
     1
102
RTVSPropertyOp26
 70
     1
102
RTVSPropertyOp27
 70
     1
102
RTVSPropertyOp28
 70
     1
102
RTVSPropertyOp29
 70
     1
102
RTVSPropertyOp30
 70
     1
102
RTVSPropertyOp31
 70
     1
102
RTVSPropertyOp32
 70
     1
102
RTVSPropertyOp33
 70
     1
102
RTVSPropertyOp34
 70
     1
102
RTVSPropertyOp35
 70
     1
102
RTVSPropertyOp36
 70
     1
102
RTVSPropertyOp37
 70
     1
102
RTVSPropertyOp38
 70
     1
102
RTVSPropertyOp39
 70
     1
102
RTVSPropertyOp40
 70
     1
102
RTVSPropertyOp41
 70
     1
102
RTVSPropertyOp42
 70
     1
102
RTVSPropertyOp43
 70
     1
102
RTVSPropertyOp44
 70
     1
102
RTVSPropertyOp45
 70
     1
102
RTVSPropertyOp46
 70
     1
102
RTVSPropertyOp47
 70
     1
102
RTVSPropertyOp48
 70
     1
102
RTVSPropertyOp49
 70
     1
102
RTVSPropertyOp50
 70
     1
102
RTVSPropertyOp51
 70
     0
102
RTVSPropertyOp52
 70
     0
102
RTVSPropertyOp53
 70
     1
102
RTVSPropertyOp54
 70
     1
102
RTVSPropertyOp55
 70
     1
102
RTVSPropertyOp56
 70
     1
102
RTVSPropertyOp57
 70
     1
102
RTVSPropertyOp58
 70
     1
102
RTVSPropertyOp59
 70
     1
102
RTVSPropertyOp60
 70
     1
102
RTVSPropertyOp61
 70
     1
102
RTVSPropertyOp62
 70
     1
  0
XRECORD
  5
86D73
102
{ACAD_REACTORS
330
86D72
102
}
330
86D72
100
AcDbXrecord
280
     1
102
RTVSPost2010Prop28
280
     0
102
RTVSPost2010PropOp28
 70
     1
102
RTVSPost2010Prop29
280
     1
102
RTVSPost2010PropOp29
 70
     1
102
RTVSPost2010Prop30
280
     1
102
RTVSPost2010PropOp30
 70
     1
102
RTVSPost2010Prop31
280
     0
102
RTVSPost2010PropOp31
 70
     1
102
RTVSPost2010Prop32
280
     0
102
RTVSPost2010PropOp32
 70
     1
102
RTVSPost2010Prop33
280
     0
102
RTVSPost2010PropOp33
 70
     1
102
RTVSPost2010Prop34
280
     0
102
RTVSPost2010PropOp34
 70
     1
102
RTVSPost2010Prop35
280
     0
102
RTVSPost2010PropOp35
 70
     1
102
RTVSPost2010Prop36
280
     0
102
RTVSPost2010PropOp36
 70
     1
102
RTVSPost2010Prop37
 90
       50
102
RTVSPost2010PropOp37
 70
     1
102
RTVSPost2010Prop38
140
0.0
102
RTVSPost2010PropOp38
 70
     1
102
RTVSPost2010Prop39
140
1.0
102
RTVSPost2010PropOp39
 70
     1
102
RTVSPost2010Prop40
 90
        0
102
RTVSPost2010PropOp40
 70
     1
102
RTVSPost2010Prop41ColorIndex
 90
       18
102
RTVSPost2010Prop41ColorRGB
 90
        0
102
RTVSPost2010PropOp41
 70
     1
102
RTVSPost2010Prop42
 90
       50
102
RTVSPost2010PropOp42
 70
     1
102
RTVSPost2010Prop43
 90
        3
102
RTVSPost2010PropOp43
 70
     1
102
RTVSPost2010Prop44ColorIndex
 90
        5
102
RTVSPost2010Prop44ColorRGB
 90
      255
102
RTVSPost2010PropOp44
 70
     1
102
RTVSPost2010Prop45
280
     0
102
RTVSPost2010PropOp45
 70
     1
102
RTVSPost2010Prop46
 90
       50
102
RTVSPost2010PropOp46
 70
     1
102
RTVSPost2010Prop47
 90
       50
102
RTVSPost2010PropOp47
 70
     1
102
RTVSPost2010Prop48
 90
       50
102
RTVSPost2010PropOp48
 70
     1
102
RTVSPost2010Prop49
280
     0
102
RTVSPost2010PropOp49
 70
     1
102
RTVSPost2010Prop50
 90
       50
102
RTVSPost2010PropOp50
 70
     1
102
RTVSPost2010Prop51ColorIndex
 90
      256
102
RTVSPost2010Prop51ColorRGB
 90
-16777216
102
RTVSPost2010PropOp51
 70
     0
102
RTVSPost2010Prop52
140
1.0
102
RTVSPost2010PropOp52
 70
     0
102
RTVSPost2010Prop53
 90
        2
102
RTVSPost2010PropOp53
 70
     1
102
RTVSPost2010Prop54
  1
strokes_ogs.tif
102
RTVSPost2010PropOp54
 70
     1
102
RTVSPost2010Prop55
280
     0
102
RTVSPost2010PropOp55
 70
     1
102
RTVSPost2010Prop56
140
1.0
102
RTVSPost2010PropOp56
 70
     1
102
RTVSPost2010Prop57
140
1.0
102
RTVSPost2010PropOp57
 70
     1
102
RTVSPropertyOp0
 70
     1
102
RTVSPropertyOp1
 70
     1
102
RTVSPropertyOp2
 70
     1
102
RTVSPropertyOp3
 70
     1
102
RTVSPropertyOp4
 70
     1
102
RTVSPropertyOp5
 70
     1
102
RTVSPropertyOp6
 70
     1
102
RTVSPropertyOp7
 70
     1
102
RTVSPropertyOp8
 70
     1
102
RTVSPropertyOp9
 70
     1
102
RTVSPropertyOp10
 70
     1
102
RTVSPropertyOp11
 70
     1
102
RTVSPropertyOp12
 70
     1
102
RTVSPropertyOp13
 70
     1
102
RTVSPropertyOp14
 70
     1
102
RTVSPropertyOp15
 70
     1
102
RTVSPropertyOp16
 70
     1
102
RTVSPropertyOp17
 70
     1
102
RTVSPropertyOp18
 70
     1
102
RTVSPropertyOp19
 70
     1
102
RTVSPropertyOp20
 70
     1
102
RTVSPropertyOp21
 70
     1
102
RTVSPropertyOp22
 70
     1
102
RTVSPropertyOp23
 70
     1
102
RTVSPropertyOp24
 70
     1
102
RTVSPropertyOp25
 70
     1
102
RTVSPropertyOp26
 70
     1
102
RTVSPropertyOp27
 70
     1
102
RTVSPropertyOp28
 70
     1
102
RTVSPropertyOp29
 70
     1
102
RTVSPropertyOp30
 70
     1
102
RTVSPropertyOp31
 70
     1
102
RTVSPropertyOp32
 70
     1
102
RTVSPropertyOp33
 70
     1
102
RTVSPropertyOp34
 70
     1
102
RTVSPropertyOp35
 70
     1
102
RTVSPropertyOp36
 70
     1
102
RTVSPropertyOp37
 70
     1
102
RTVSPropertyOp38
 70
     1
102
RTVSPropertyOp39
 70
     1
102
RTVSPropertyOp40
 70
     1
102
RTVSPropertyOp41
 70
     1
102
RTVSPropertyOp42
 70
     1
102
RTVSPropertyOp43
 70
     1
102
RTVSPropertyOp44
 70
     1
102
RTVSPropertyOp45
 70
     1
102
RTVSPropertyOp46
 70
     1
102
RTVSPropertyOp47
 70
     1
102
RTVSPropertyOp48
 70
     1
102
RTVSPropertyOp49
 70
     1
102
RTVSPropertyOp50
 70
     1
102
RTVSPropertyOp51
 70
     0
102
RTVSPropertyOp52
 70
     0
102
RTVSPropertyOp53
 70
     1
102
RTVSPropertyOp54
 70
     1
102
RTVSPropertyOp55
 70
     1
102
RTVSPropertyOp56
 70
     1
102
RTVSPropertyOp57
 70
     1
102
RTVSPropertyOp58
 70
     1
102
RTVSPropertyOp59
 70
     1
102
RTVSPropertyOp60
 70
     1
102
RTVSPropertyOp61
 70
     1
102
RTVSPropertyOp62
 70
     1
  0
XRECORD
  5
86D75
102
{ACAD_REACTORS
330
86D74
102
}
330
86D74
100
AcDbXrecord
280
     1
102
RTVSPost2010Prop28
280
     0
102
RTVSPost2010PropOp28
 70
     1
102
RTVSPost2010Prop29
280
     1
102
RTVSPost2010PropOp29
 70
     1
102
RTVSPost2010Prop30
280
     1
102
RTVSPost2010PropOp30
 70
     1
102
RTVSPost2010Prop31
280
     0
102
RTVSPost2010PropOp31
 70
     1
102
RTVSPost2010Prop32
280
     0
102
RTVSPost2010PropOp32
 70
     1
102
RTVSPost2010Prop33
280
     0
102
RTVSPost2010PropOp33
 70
     1
102
RTVSPost2010Prop34
280
     0
102
RTVSPost2010PropOp34
 70
     1
102
RTVSPost2010Prop35
280
     0
102
RTVSPost2010PropOp35
 70
     1
102
RTVSPost2010Prop36
280
     0
102
RTVSPost2010PropOp36
 70
     1
102
RTVSPost2010Prop37
 90
       50
102
RTVSPost2010PropOp37
 70
     1
102
RTVSPost2010Prop38
140
0.0
102
RTVSPost2010PropOp38
 70
     1
102
RTVSPost2010Prop39
140
1.0
102
RTVSPost2010PropOp39
 70
     1
102
RTVSPost2010Prop40
 90
        0
102
RTVSPost2010PropOp40
 70
     1
102
RTVSPost2010Prop41ColorIndex
 90
       18
102
RTVSPost2010Prop41ColorRGB
 90
        0
102
RTVSPost2010PropOp41
 70
     1
102
RTVSPost2010Prop42
 90
       50
102
RTVSPost2010PropOp42
 70
     1
102
RTVSPost2010Prop43
 90
        3
102
RTVSPost2010PropOp43
 70
     1
102
RTVSPost2010Prop44ColorIndex
 90
        5
102
RTVSPost2010Prop44ColorRGB
 90
      255
102
RTVSPost2010PropOp44
 70
     1
102
RTVSPost2010Prop45
280
     0
102
RTVSPost2010PropOp45
 70
     1
102
RTVSPost2010Prop46
 90
       50
102
RTVSPost2010PropOp46
 70
     1
102
RTVSPost2010Prop47
 90
       50
102
RTVSPost2010PropOp47
 70
     1
102
RTVSPost2010Prop48
 90
       50
102
RTVSPost2010PropOp48
 70
     1
102
RTVSPost2010Prop49
280
     0
102
RTVSPost2010PropOp49
 70
     1
102
RTVSPost2010Prop50
 90
       50
102
RTVSPost2010PropOp50
 70
     1
102
RTVSPost2010Prop51ColorIndex
 90
      256
102
RTVSPost2010Prop51ColorRGB
 90
-16777216
102
RTVSPost2010PropOp51
 70
     0
102
RTVSPost2010Prop52
140
1.0
102
RTVSPost2010PropOp52
 70
     0
102
RTVSPost2010Prop53
 90
        2
102
RTVSPost2010PropOp53
 70
     1
102
RTVSPost2010Prop54
  1
strokes_ogs.tif
102
RTVSPost2010PropOp54
 70
     1
102
RTVSPost2010Prop55
280
     0
102
RTVSPost2010PropOp55
 70
     1
102
RTVSPost2010Prop56
140
1.0
102
RTVSPost2010PropOp56
 70
     1
102
RTVSPost2010Prop57
140
1.0
102
RTVSPost2010PropOp57
 70
     1
102
RTVSPropertyOp0
 70
     1
102
RTVSPropertyOp1
 70
     1
102
RTVSPropertyOp2
 70
     1
102
RTVSPropertyOp3
 70
     1
102
RTVSPropertyOp4
 70
     1
102
RTVSPropertyOp5
 70
     1
102
RTVSPropertyOp6
 70
     1
102
RTVSPropertyOp7
 70
     1
102
RTVSPropertyOp8
 70
     1
102
RTVSPropertyOp9
 70
     1
102
RTVSPropertyOp10
 70
     1
102
RTVSPropertyOp11
 70
     1
102
RTVSPropertyOp12
 70
     1
102
RTVSPropertyOp13
 70
     1
102
RTVSPropertyOp14
 70
     1
102
RTVSPropertyOp15
 70
     1
102
RTVSPropertyOp16
 70
     1
102
RTVSPropertyOp17
 70
     1
102
RTVSPropertyOp18
 70
     1
102
RTVSPropertyOp19
 70
     1
102
RTVSPropertyOp20
 70
     1
102
RTVSPropertyOp21
 70
     1
102
RTVSPropertyOp22
 70
     1
102
RTVSPropertyOp23
 70
     1
102
RTVSPropertyOp24
 70
     1
102
RTVSPropertyOp25
 70
     1
102
RTVSPropertyOp26
 70
     1
102
RTVSPropertyOp27
 70
     1
102
RTVSPropertyOp28
 70
     1
102
RTVSPropertyOp29
 70
     1
102
RTVSPropertyOp30
 70
     1
102
RTVSPropertyOp31
 70
     1
102
RTVSPropertyOp32
 70
     1
102
RTVSPropertyOp33
 70
     1
102
RTVSPropertyOp34
 70
     1
102
RTVSPropertyOp35
 70
     1
102
RTVSPropertyOp36
 70
     1
102
RTVSPropertyOp37
 70
     1
102
RTVSPropertyOp38
 70
     1
102
RTVSPropertyOp39
 70
     1
102
RTVSPropertyOp40
 70
     1
102
RTVSPropertyOp41
 70
     1
102
RTVSPropertyOp42
 70
     1
102
RTVSPropertyOp43
 70
     1
102
RTVSPropertyOp44
 70
     1
102
RTVSPropertyOp45
 70
     1
102
RTVSPropertyOp46
 70
     1
102
RTVSPropertyOp47
 70
     1
102
RTVSPropertyOp48
 70
     1
102
RTVSPropertyOp49
 70
     1
102
RTVSPropertyOp50
 70
     1
102
RTVSPropertyOp51
 70
     0
102
RTVSPropertyOp52
 70
     0
102
RTVSPropertyOp53
 70
     1
102
RTVSPropertyOp54
 70
     1
102
RTVSPropertyOp55
 70
     1
102
RTVSPropertyOp56
 70
     1
102
RTVSPropertyOp57
 70
     1
102
RTVSPropertyOp58
 70
     1
102
RTVSPropertyOp59
 70
     1
102
RTVSPropertyOp60
 70
     1
102
RTVSPropertyOp61
 70
     1
102
RTVSPropertyOp62
 70
     1
  0
XRECORD
  5
86D77
102
{ACAD_REACTORS
330
86D76
102
}
330
86D76
100
AcDbXrecord
280
     1
102
RTVSPost2010Prop28
280
     0
102
RTVSPost2010PropOp28
 70
     1
102
RTVSPost2010Prop29
280
     1
102
RTVSPost2010PropOp29
 70
     1
102
RTVSPost2010Prop30
280
     1
102
RTVSPost2010PropOp30
 70
     1
102
RTVSPost2010Prop31
280
     0
102
RTVSPost2010PropOp31
 70
     1
102
RTVSPost2010Prop32
280
     0
102
RTVSPost2010PropOp32
 70
     1
102
RTVSPost2010Prop33
280
     0
102
RTVSPost2010PropOp33
 70
     1
102
RTVSPost2010Prop34
280
     0
102
RTVSPost2010PropOp34
 70
     1
102
RTVSPost2010Prop35
280
     0
102
RTVSPost2010PropOp35
 70
     1
102
RTVSPost2010Prop36
280
     0
102
RTVSPost2010PropOp36
 70
     1
102
RTVSPost2010Prop37
 90
       50
102
RTVSPost2010PropOp37
 70
     1
102
RTVSPost2010Prop38
140
0.0
102
RTVSPost2010PropOp38
 70
     1
102
RTVSPost2010Prop39
140
1.0
102
RTVSPost2010PropOp39
 70
     1
102
RTVSPost2010Prop40
 90
        0
102
RTVSPost2010PropOp40
 70
     1
102
RTVSPost2010Prop41ColorIndex
 90
       18
102
RTVSPost2010Prop41ColorRGB
 90
        0
102
RTVSPost2010PropOp41
 70
     1
102
RTVSPost2010Prop42
 90
       50
102
RTVSPost2010PropOp42
 70
     1
102
RTVSPost2010Prop43
 90
        3
102
RTVSPost2010PropOp43
 70
     1
102
RTVSPost2010Prop44ColorIndex
 90
        5
102
RTVSPost2010Prop44ColorRGB
 90
      255
102
RTVSPost2010PropOp44
 70
     1
102
RTVSPost2010Prop45
280
     0
102
RTVSPost2010PropOp45
 70
     1
102
RTVSPost2010Prop46
 90
       50
102
RTVSPost2010PropOp46
 70
     1
102
RTVSPost2010Prop47
 90
       50
102
RTVSPost2010PropOp47
 70
     1
102
RTVSPost2010Prop48
 90
       50
102
RTVSPost2010PropOp48
 70
     1
102
RTVSPost2010Prop49
280
     0
102
RTVSPost2010PropOp49
 70
     1
102
RTVSPost2010Prop50
 90
       50
102
RTVSPost2010PropOp50
 70
     1
102
RTVSPost2010Prop51ColorIndex
 90
      256
102
RTVSPost2010Prop51ColorRGB
 90
-16777216
102
RTVSPost2010PropOp51
 70
     0
102
RTVSPost2010Prop52
140
1.0
102
RTVSPost2010PropOp52
 70
     0
102
RTVSPost2010Prop53
 90
        2
102
RTVSPost2010PropOp53
 70
     1
102
RTVSPost2010Prop54
  1
strokes_ogs.tif
102
RTVSPost2010PropOp54
 70
     1
102
RTVSPost2010Prop55
280
     0
102
RTVSPost2010PropOp55
 70
     1
102
RTVSPost2010Prop56
140
1.0
102
RTVSPost2010PropOp56
 70
     1
102
RTVSPost2010Prop57
140
1.0
102
RTVSPost2010PropOp57
 70
     1
102
RTVSPropertyOp0
 70
     1
102
RTVSPropertyOp1
 70
     1
102
RTVSPropertyOp2
 70
     1
102
RTVSPropertyOp3
 70
     1
102
RTVSPropertyOp4
 70
     1
102
RTVSPropertyOp5
 70
     1
102
RTVSPropertyOp6
 70
     1
102
RTVSPropertyOp7
 70
     1
102
RTVSPropertyOp8
 70
     1
102
RTVSPropertyOp9
 70
     1
102
RTVSPropertyOp10
 70
     1
102
RTVSPropertyOp11
 70
     1
102
RTVSPropertyOp12
 70
     1
102
RTVSPropertyOp13
 70
     1
102
RTVSPropertyOp14
 70
     1
102
RTVSPropertyOp15
 70
     1
102
RTVSPropertyOp16
 70
     1
102
RTVSPropertyOp17
 70
     1
102
RTVSPropertyOp18
 70
     1
102
RTVSPropertyOp19
 70
     1
102
RTVSPropertyOp20
 70
     1
102
RTVSPropertyOp21
 70
     1
102
RTVSPropertyOp22
 70
     1
102
RTVSPropertyOp23
 70
     1
102
RTVSPropertyOp24
 70
     1
102
RTVSPropertyOp25
 70
     1
102
RTVSPropertyOp26
 70
     1
102
RTVSPropertyOp27
 70
     1
102
RTVSPropertyOp28
 70
     1
102
RTVSPropertyOp29
 70
     1
102
RTVSPropertyOp30
 70
     1
102
RTVSPropertyOp31
 70
     1
102
RTVSPropertyOp32
 70
     1
102
RTVSPropertyOp33
 70
     1
102
RTVSPropertyOp34
 70
     1
102
RTVSPropertyOp35
 70
     1
102
RTVSPropertyOp36
 70
     1
102
RTVSPropertyOp37
 70
     1
102
RTVSPropertyOp38
 70
     1
102
RTVSPropertyOp39
 70
     1
102
RTVSPropertyOp40
 70
     1
102
RTVSPropertyOp41
 70
     1
102
RTVSPropertyOp42
 70
     1
102
RTVSPropertyOp43
 70
     1
102
RTVSPropertyOp44
 70
     1
102
RTVSPropertyOp45
 70
     1
102
RTVSPropertyOp46
 70
     1
102
RTVSPropertyOp47
 70
     1
102
RTVSPropertyOp48
 70
     1
102
RTVSPropertyOp49
 70
     1
102
RTVSPropertyOp50
 70
     1
102
RTVSPropertyOp51
 70
     0
102
RTVSPropertyOp52
 70
     0
102
RTVSPropertyOp53
 70
     1
102
RTVSPropertyOp54
 70
     1
102
RTVSPropertyOp55
 70
     1
102
RTVSPropertyOp56
 70
     1
102
RTVSPropertyOp57
 70
     1
102
RTVSPropertyOp58
 70
     1
102
RTVSPropertyOp59
 70
     1
102
RTVSPropertyOp60
 70
     1
102
RTVSPropertyOp61
 70
     1
102
RTVSPropertyOp62
 70
     1
  0
XRECORD
  5
86D99
102
{ACAD_REACTORS
330
86D98
102
}
330
86D98
100
AcDbXrecord
280
     1
102
RTVSPost2010Prop28
280
     0
102
RTVSPost2010PropOp28
 70
     1
102
RTVSPost2010Prop29
280
     1
102
RTVSPost2010PropOp29
 70
     1
102
RTVSPost2010Prop30
280
     1
102
RTVSPost2010PropOp30
 70
     1
102
RTVSPost2010Prop31
280
     0
102
RTVSPost2010PropOp31
 70
     1
102
RTVSPost2010Prop32
280
     0
102
RTVSPost2010PropOp32
 70
     1
102
RTVSPost2010Prop33
280
     0
102
RTVSPost2010PropOp33
 70
     1
102
RTVSPost2010Prop34
280
     0
102
RTVSPost2010PropOp34
 70
     1
102
RTVSPost2010Prop35
280
     0
102
RTVSPost2010PropOp35
 70
     1
102
RTVSPost2010Prop36
280
     0
102
RTVSPost2010PropOp36
 70
     1
102
RTVSPost2010Prop37
 90
       50
102
RTVSPost2010PropOp37
 70
     1
102
RTVSPost2010Prop38
140
0.0
102
RTVSPost2010PropOp38
 70
     1
102
RTVSPost2010Prop39
140
1.0
102
RTVSPost2010PropOp39
 70
     1
102
RTVSPost2010Prop40
 90
        0
102
RTVSPost2010PropOp40
 70
     1
102
RTVSPost2010Prop41ColorIndex
 90
       18
102
RTVSPost2010Prop41ColorRGB
 90
        0
102
RTVSPost2010PropOp41
 70
     1
102
RTVSPost2010Prop42
 90
       50
102
RTVSPost2010PropOp42
 70
     1
102
RTVSPost2010Prop43
 90
        3
102
RTVSPost2010PropOp43
 70
     1
102
RTVSPost2010Prop44ColorIndex
 90
        5
102
RTVSPost2010Prop44ColorRGB
 90
      255
102
RTVSPost2010PropOp44
 70
     1
102
RTVSPost2010Prop45
280
     0
102
RTVSPost2010PropOp45
 70
     1
102
RTVSPost2010Prop46
 90
       50
102
RTVSPost2010PropOp46
 70
     1
102
RTVSPost2010Prop47
 90
       50
102
RTVSPost2010PropOp47
 70
     1
102
RTVSPost2010Prop48
 90
       50
102
RTVSPost2010PropOp48
 70
     1
102
RTVSPost2010Prop49
280
     0
102
RTVSPost2010PropOp49
 70
     1
102
RTVSPost2010Prop50
 90
       50
102
RTVSPost2010PropOp50
 70
     1
102
RTVSPost2010Prop51ColorIndex
 90
      256
102
RTVSPost2010Prop51ColorRGB
 90
-16777216
102
RTVSPost2010PropOp51
 70
     0
102
RTVSPost2010Prop52
140
1.0
102
RTVSPost2010PropOp52
 70
     0
102
RTVSPost2010Prop53
 90
        2
102
RTVSPost2010PropOp53
 70
     1
102
RTVSPost2010Prop54
  1
strokes_ogs.tif
102
RTVSPost2010PropOp54
 70
     1
102
RTVSPost2010Prop55
280
     0
102
RTVSPost2010PropOp55
 70
     1
102
RTVSPost2010Prop56
140
1.0
102
RTVSPost2010PropOp56
 70
     1
102
RTVSPost2010Prop57
140
1.0
102
RTVSPost2010PropOp57
 70
     1
102
RTVSPropertyOp0
 70
     1
102
RTVSPropertyOp1
 70
     1
102
RTVSPropertyOp2
 70
     1
102
RTVSPropertyOp3
 70
     1
102
RTVSPropertyOp4
 70
     1
102
RTVSPropertyOp5
 70
     1
102
RTVSPropertyOp6
 70
     1
102
RTVSPropertyOp7
 70
     1
102
RTVSPropertyOp8
 70
     1
102
RTVSPropertyOp9
 70
     1
102
RTVSPropertyOp10
 70
     1
102
RTVSPropertyOp11
 70
     1
102
RTVSPropertyOp12
 70
     1
102
RTVSPropertyOp13
 70
     1
102
RTVSPropertyOp14
 70
     1
102
RTVSPropertyOp15
 70
     1
102
RTVSPropertyOp16
 70
     1
102
RTVSPropertyOp17
 70
     1
102
RTVSPropertyOp18
 70
     1
102
RTVSPropertyOp19
 70
     1
102
RTVSPropertyOp20
 70
     1
102
RTVSPropertyOp21
 70
     1
102
RTVSPropertyOp22
 70
     1
102
RTVSPropertyOp23
 70
     1
102
RTVSPropertyOp24
 70
     1
102
RTVSPropertyOp25
 70
     1
102
RTVSPropertyOp26
 70
     1
102
RTVSPropertyOp27
 70
     1
102
RTVSPropertyOp28
 70
     1
102
RTVSPropertyOp29
 70
     1
102
RTVSPropertyOp30
 70
     1
102
RTVSPropertyOp31
 70
     1
102
RTVSPropertyOp32
 70
     1
102
RTVSPropertyOp33
 70
     1
102
RTVSPropertyOp34
 70
     1
102
RTVSPropertyOp35
 70
     1
102
RTVSPropertyOp36
 70
     1
102
RTVSPropertyOp37
 70
     1
102
RTVSPropertyOp38
 70
     1
102
RTVSPropertyOp39
 70
     1
102
RTVSPropertyOp40
 70
     1
102
RTVSPropertyOp41
 70
     1
102
RTVSPropertyOp42
 70
     1
102
RTVSPropertyOp43
 70
     1
102
RTVSPropertyOp44
 70
     1
102
RTVSPropertyOp45
 70
     1
102
RTVSPropertyOp46
 70
     1
102
RTVSPropertyOp47
 70
     1
102
RTVSPropertyOp48
 70
     1
102
RTVSPropertyOp49
 70
     1
102
RTVSPropertyOp50
 70
     1
102
RTVSPropertyOp51
 70
     0
102
RTVSPropertyOp52
 70
     0
102
RTVSPropertyOp53
 70
     1
102
RTVSPropertyOp54
 70
     1
102
RTVSPropertyOp55
 70
     1
102
RTVSPropertyOp56
 70
     1
102
RTVSPropertyOp57
 70
     1
102
RTVSPropertyOp58
 70
     1
102
RTVSPropertyOp59
 70
     1
102
RTVSPropertyOp60
 70
     1
102
RTVSPropertyOp61
 70
     1
102
RTVSPropertyOp62
 70
     1
  0
XRECORD
  5
86D91
102
{ACAD_REACTORS
330
86D90
102
}
330
86D90
100
AcDbXrecord
280
     1
102
RTVSPost2010Prop28
280
     0
102
RTVSPost2010PropOp28
 70
     1
102
RTVSPost2010Prop29
280
     1
102
RTVSPost2010PropOp29
 70
     1
102
RTVSPost2010Prop30
280
     1
102
RTVSPost2010PropOp30
 70
     1
102
RTVSPost2010Prop31
280
     0
102
RTVSPost2010PropOp31
 70
     1
102
RTVSPost2010Prop32
280
     0
102
RTVSPost2010PropOp32
 70
     1
102
RTVSPost2010Prop33
280
     0
102
RTVSPost2010PropOp33
 70
     1
102
RTVSPost2010Prop34
280
     0
102
RTVSPost2010PropOp34
 70
     1
102
RTVSPost2010Prop35
280
     0
102
RTVSPost2010PropOp35
 70
     1
102
RTVSPost2010Prop36
280
     0
102
RTVSPost2010PropOp36
 70
     1
102
RTVSPost2010Prop37
 90
       50
102
RTVSPost2010PropOp37
 70
     1
102
RTVSPost2010Prop38
140
0.0
102
RTVSPost2010PropOp38
 70
     1
102
RTVSPost2010Prop39
140
1.0
102
RTVSPost2010PropOp39
 70
     1
102
RTVSPost2010Prop40
 90
        0
102
RTVSPost2010PropOp40
 70
     1
102
RTVSPost2010Prop41ColorIndex
 90
       18
102
RTVSPost2010Prop41ColorRGB
 90
        0
102
RTVSPost2010PropOp41
 70
     1
102
RTVSPost2010Prop42
 90
       50
102
RTVSPost2010PropOp42
 70
     1
102
RTVSPost2010Prop43
 90
        3
102
RTVSPost2010PropOp43
 70
     1
102
RTVSPost2010Prop44ColorIndex
 90
        5
102
RTVSPost2010Prop44ColorRGB
 90
      255
102
RTVSPost2010PropOp44
 70
     1
102
RTVSPost2010Prop45
280
     0
102
RTVSPost2010PropOp45
 70
     1
102
RTVSPost2010Prop46
 90
       50
102
RTVSPost2010PropOp46
 70
     1
102
RTVSPost2010Prop47
 90
       50
102
RTVSPost2010PropOp47
 70
     1
102
RTVSPost2010Prop48
 90
       50
102
RTVSPost2010PropOp48
 70
     1
102
RTVSPost2010Prop49
280
     0
102
RTVSPost2010PropOp49
 70
     1
102
RTVSPost2010Prop50
 90
       50
102
RTVSPost2010PropOp50
 70
     1
102
RTVSPost2010Prop51ColorIndex
 90
      256
102
RTVSPost2010Prop51ColorRGB
 90
-16777216
102
RTVSPost2010PropOp51
 70
     0
102
RTVSPost2010Prop52
140
1.0
102
RTVSPost2010PropOp52
 70
     0
102
RTVSPost2010Prop53
 90
        2
102
RTVSPost2010PropOp53
 70
     1
102
RTVSPost2010Prop54
  1
strokes_ogs.tif
102
RTVSPost2010PropOp54
 70
     1
102
RTVSPost2010Prop55
280
     0
102
RTVSPost2010PropOp55
 70
     1
102
RTVSPost2010Prop56
140
1.0
102
RTVSPost2010PropOp56
 70
     1
102
RTVSPost2010Prop57
140
1.0
102
RTVSPost2010PropOp57
 70
     1
102
RTVSPropertyOp0
 70
     0
102
RTVSPropertyOp1
 70
     0
102
RTVSPropertyOp2
 70
     0
102
RTVSPropertyOp3
 70
     0
102
RTVSPropertyOp4
 70
     0
102
RTVSPropertyOp5
 70
     0
102
RTVSPropertyOp6
 70
     0
102
RTVSPropertyOp7
 70
     0
102
RTVSPropertyOp8
 70
     0
102
RTVSPropertyOp9
 70
     0
102
RTVSPropertyOp10
 70
     0
102
RTVSPropertyOp11
 70
     0
102
RTVSPropertyOp12
 70
     0
102
RTVSPropertyOp13
 70
     0
102
RTVSPropertyOp14
 70
     2
102
RTVSPropertyOp15
 70
     0
102
RTVSPropertyOp16
 70
     0
102
RTVSPropertyOp17
 70
     0
102
RTVSPropertyOp18
 70
     0
102
RTVSPropertyOp19
 70
     0
102
RTVSPropertyOp20
 70
     0
102
RTVSPropertyOp21
 70
     0
102
RTVSPropertyOp22
 70
     0
102
RTVSPropertyOp23
 70
     0
102
RTVSPropertyOp24
 70
     0
102
RTVSPropertyOp25
 70
     0
102
RTVSPropertyOp26
 70
     0
102
RTVSPropertyOp27
 70
     0
102
RTVSPropertyOp28
 70
     1
102
RTVSPropertyOp29
 70
     1
102
RTVSPropertyOp30
 70
     1
102
RTVSPropertyOp31
 70
     1
102
RTVSPropertyOp32
 70
     1
102
RTVSPropertyOp33
 70
     1
102
RTVSPropertyOp34
 70
     1
102
RTVSPropertyOp35
 70
     1
102
RTVSPropertyOp36
 70
     1
102
RTVSPropertyOp37
 70
     1
102
RTVSPropertyOp38
 70
     1
102
RTVSPropertyOp39
 70
     1
102
RTVSPropertyOp40
 70
     1
102
RTVSPropertyOp41
 70
     1
102
RTVSPropertyOp42
 70
     1
102
RTVSPropertyOp43
 70
     1
102
RTVSPropertyOp44
 70
     1
102
RTVSPropertyOp45
 70
     1
102
RTVSPropertyOp46
 70
     1
102
RTVSPropertyOp47
 70
     1
102
RTVSPropertyOp48
 70
     1
102
RTVSPropertyOp49
 70
     1
102
RTVSPropertyOp50
 70
     1
102
RTVSPropertyOp51
 70
     0
102
RTVSPropertyOp52
 70
     0
102
RTVSPropertyOp53
 70
     1
102
RTVSPropertyOp54
 70
     1
102
RTVSPropertyOp55
 70
     1
102
RTVSPropertyOp56
 70
     1
102
RTVSPropertyOp57
 70
     1
102
RTVSPropertyOp58
 70
     1
102
RTVSPropertyOp59
 70
     1
102
RTVSPropertyOp60
 70
     1
102
RTVSPropertyOp61
 70
     1
102
RTVSPropertyOp62
 70
     1
  0
XRECORD
  5
86D8B
102
{ACAD_REACTORS
330
86D8A
102
}
330
86D8A
100
AcDbXrecord
280
     1
102
RTVSPost2010Prop28
280
     0
102
RTVSPost2010PropOp28
 70
     1
102
RTVSPost2010Prop29
280
     1
102
RTVSPost2010PropOp29
 70
     1
102
RTVSPost2010Prop30
280
     1
102
RTVSPost2010PropOp30
 70
     1
102
RTVSPost2010Prop31
280
     0
102
RTVSPost2010PropOp31
 70
     1
102
RTVSPost2010Prop32
280
     0
102
RTVSPost2010PropOp32
 70
     1
102
RTVSPost2010Prop33
280
     0
102
RTVSPost2010PropOp33
 70
     1
102
RTVSPost2010Prop34
280
     0
102
RTVSPost2010PropOp34
 70
     1
102
RTVSPost2010Prop35
280
     0
102
RTVSPost2010PropOp35
 70
     1
102
RTVSPost2010Prop36
280
     0
102
RTVSPost2010PropOp36
 70
     1
102
RTVSPost2010Prop37
 90
       50
102
RTVSPost2010PropOp37
 70
     1
102
RTVSPost2010Prop38
140
0.0
102
RTVSPost2010PropOp38
 70
     1
102
RTVSPost2010Prop39
140
1.0
102
RTVSPost2010PropOp39
 70
     1
102
RTVSPost2010Prop40
 90
        0
102
RTVSPost2010PropOp40
 70
     1
102
RTVSPost2010Prop41ColorIndex
 90
       18
102
RTVSPost2010Prop41ColorRGB
 90
        0
102
RTVSPost2010PropOp41
 70
     1
102
RTVSPost2010Prop42
 90
       50
102
RTVSPost2010PropOp42
 70
     1
102
RTVSPost2010Prop43
 90
        3
102
RTVSPost2010PropOp43
 70
     1
102
RTVSPost2010Prop44ColorIndex
 90
        5
102
RTVSPost2010Prop44ColorRGB
 90
      255
102
RTVSPost2010PropOp44
 70
     1
102
RTVSPost2010Prop45
280
     0
102
RTVSPost2010PropOp45
 70
     1
102
RTVSPost2010Prop46
 90
       50
102
RTVSPost2010PropOp46
 70
     1
102
RTVSPost2010Prop47
 90
       50
102
RTVSPost2010PropOp47
 70
     1
102
RTVSPost2010Prop48
 90
       50
102
RTVSPost2010PropOp48
 70
     1
102
RTVSPost2010Prop49
280
     0
102
RTVSPost2010PropOp49
 70
     1
102
RTVSPost2010Prop50
 90
       50
102
RTVSPost2010PropOp50
 70
     1
102
RTVSPost2010Prop51ColorIndex
 90
      256
102
RTVSPost2010Prop51ColorRGB
 90
-16777216
102
RTVSPost2010PropOp51
 70
     0
102
RTVSPost2010Prop52
140
1.0
102
RTVSPost2010PropOp52
 70
     0
102
RTVSPost2010Prop53
 90
        2
102
RTVSPost2010PropOp53
 70
     1
102
RTVSPost2010Prop54
  1
strokes_ogs.tif
102
RTVSPost2010PropOp54
 70
     1
102
RTVSPost2010Prop55
280
     0
102
RTVSPost2010PropOp55
 70
     1
102
RTVSPost2010Prop56
140
1.0
102
RTVSPost2010PropOp56
 70
     1
102
RTVSPost2010Prop57
140
1.0
102
RTVSPost2010PropOp57
 70
     1
102
RTVSPropertyOp0
 70
     1
102
RTVSPropertyOp1
 70
     1
102
RTVSPropertyOp2
 70
     1
102
RTVSPropertyOp3
 70
     1
102
RTVSPropertyOp4
 70
     1
102
RTVSPropertyOp5
 70
     1
102
RTVSPropertyOp6
 70
     1
102
RTVSPropertyOp7
 70
     1
102
RTVSPropertyOp8
 70
     1
102
RTVSPropertyOp9
 70
     1
102
RTVSPropertyOp10
 70
     1
102
RTVSPropertyOp11
 70
     1
102
RTVSPropertyOp12
 70
     1
102
RTVSPropertyOp13
 70
     1
102
RTVSPropertyOp14
 70
     1
102
RTVSPropertyOp15
 70
     1
102
RTVSPropertyOp16
 70
     1
102
RTVSPropertyOp17
 70
     1
102
RTVSPropertyOp18
 70
     1
102
RTVSPropertyOp19
 70
     1
102
RTVSPropertyOp20
 70
     1
102
RTVSPropertyOp21
 70
     1
102
RTVSPropertyOp22
 70
     1
102
RTVSPropertyOp23
 70
     1
102
RTVSPropertyOp24
 70
     1
102
RTVSPropertyOp25
 70
     1
102
RTVSPropertyOp26
 70
     1
102
RTVSPropertyOp27
 70
     1
102
RTVSPropertyOp28
 70
     1
102
RTVSPropertyOp29
 70
     1
102
RTVSPropertyOp30
 70
     1
102
RTVSPropertyOp31
 70
     1
102
RTVSPropertyOp32
 70
     1
102
RTVSPropertyOp33
 70
     1
102
RTVSPropertyOp34
 70
     1
102
RTVSPropertyOp35
 70
     1
102
RTVSPropertyOp36
 70
     1
102
RTVSPropertyOp37
 70
     1
102
RTVSPropertyOp38
 70
     1
102
RTVSPropertyOp39
 70
     1
102
RTVSPropertyOp40
 70
     1
102
RTVSPropertyOp41
 70
     1
102
RTVSPropertyOp42
 70
     1
102
RTVSPropertyOp43
 70
     1
102
RTVSPropertyOp44
 70
     1
102
RTVSPropertyOp45
 70
     1
102
RTVSPropertyOp46
 70
     1
102
RTVSPropertyOp47
 70
     1
102
RTVSPropertyOp48
 70
     1
102
RTVSPropertyOp49
 70
     1
102
RTVSPropertyOp50
 70
     1
102
RTVSPropertyOp51
 70
     0
102
RTVSPropertyOp52
 70
     0
102
RTVSPropertyOp53
 70
     1
102
RTVSPropertyOp54
 70
     1
102
RTVSPropertyOp55
 70
     1
102
RTVSPropertyOp56
 70
     1
102
RTVSPropertyOp57
 70
     1
102
RTVSPropertyOp58
 70
     1
102
RTVSPropertyOp59
 70
     1
102
RTVSPropertyOp60
 70
     1
102
RTVSPropertyOp61
 70
     1
102
RTVSPropertyOp62
 70
     1
  0
XRECORD
  5
86D93
102
{ACAD_REACTORS
330
86D92
102
}
330
86D92
100
AcDbXrecord
280
     1
102
RTVSPost2010Prop28
280
     0
102
RTVSPost2010PropOp28
 70
     1
102
RTVSPost2010Prop29
280
     1
102
RTVSPost2010PropOp29
 70
     1
102
RTVSPost2010Prop30
280
     1
102
RTVSPost2010PropOp30
 70
     1
102
RTVSPost2010Prop31
280
     0
102
RTVSPost2010PropOp31
 70
     1
102
RTVSPost2010Prop32
280
     0
102
RTVSPost2010PropOp32
 70
     1
102
RTVSPost2010Prop33
280
     0
102
RTVSPost2010PropOp33
 70
     1
102
RTVSPost2010Prop34
280
     0
102
RTVSPost2010PropOp34
 70
     1
102
RTVSPost2010Prop35
280
     0
102
RTVSPost2010PropOp35
 70
     1
102
RTVSPost2010Prop36
280
     0
102
RTVSPost2010PropOp36
 70
     1
102
RTVSPost2010Prop37
 90
       50
102
RTVSPost2010PropOp37
 70
     1
102
RTVSPost2010Prop38
140
0.0
102
RTVSPost2010PropOp38
 70
     1
102
RTVSPost2010Prop39
140
1.0
102
RTVSPost2010PropOp39
 70
     1
102
RTVSPost2010Prop40
 90
        0
102
RTVSPost2010PropOp40
 70
     1
102
RTVSPost2010Prop41ColorIndex
 90
       18
102
RTVSPost2010Prop41ColorRGB
 90
        0
102
RTVSPost2010PropOp41
 70
     1
102
RTVSPost2010Prop42
 90
       50
102
RTVSPost2010PropOp42
 70
     1
102
RTVSPost2010Prop43
 90
        3
102
RTVSPost2010PropOp43
 70
     1
102
RTVSPost2010Prop44ColorIndex
 90
        5
102
RTVSPost2010Prop44ColorRGB
 90
      255
102
RTVSPost2010PropOp44
 70
     1
102
RTVSPost2010Prop45
280
     0
102
RTVSPost2010PropOp45
 70
     1
102
RTVSPost2010Prop46
 90
       50
102
RTVSPost2010PropOp46
 70
     1
102
RTVSPost2010Prop47
 90
       50
102
RTVSPost2010PropOp47
 70
     1
102
RTVSPost2010Prop48
 90
       50
102
RTVSPost2010PropOp48
 70
     1
102
RTVSPost2010Prop49
280
     0
102
RTVSPost2010PropOp49
 70
     1
102
RTVSPost2010Prop50
 90
       50
102
RTVSPost2010PropOp50
 70
     1
102
RTVSPost2010Prop51ColorIndex
 90
      256
102
RTVSPost2010Prop51ColorRGB
 90
-16777216
102
RTVSPost2010PropOp51
 70
     0
102
RTVSPost2010Prop52
140
1.0
102
RTVSPost2010PropOp52
 70
     0
102
RTVSPost2010Prop53
 90
        2
102
RTVSPost2010PropOp53
 70
     1
102
RTVSPost2010Prop54
  1
strokes_ogs.tif
102
RTVSPost2010PropOp54
 70
     1
102
RTVSPost2010Prop55
280
     0
102
RTVSPost2010PropOp55
 70
     1
102
RTVSPost2010Prop56
140
1.0
102
RTVSPost2010PropOp56
 70
     1
102
RTVSPost2010Prop57
140
1.0
102
RTVSPost2010PropOp57
 70
     1
102
RTVSPropertyOp0
 70
     0
102
RTVSPropertyOp1
 70
     0
102
RTVSPropertyOp2
 70
     0
102
RTVSPropertyOp3
 70
     0
102
RTVSPropertyOp4
 70
     0
102
RTVSPropertyOp5
 70
     0
102
RTVSPropertyOp6
 70
     0
102
RTVSPropertyOp7
 70
     0
102
RTVSPropertyOp8
 70
     0
102
RTVSPropertyOp9
 70
     0
102
RTVSPropertyOp10
 70
     0
102
RTVSPropertyOp11
 70
     0
102
RTVSPropertyOp12
 70
     0
102
RTVSPropertyOp13
 70
     0
102
RTVSPropertyOp14
 70
     2
102
RTVSPropertyOp15
 70
     0
102
RTVSPropertyOp16
 70
     0
102
RTVSPropertyOp17
 70
     0
102
RTVSPropertyOp18
 70
     0
102
RTVSPropertyOp19
 70
     0
102
RTVSPropertyOp20
 70
     0
102
RTVSPropertyOp21
 70
     0
102
RTVSPropertyOp22
 70
     0
102
RTVSPropertyOp23
 70
     0
102
RTVSPropertyOp24
 70
     0
102
RTVSPropertyOp25
 70
     0
102
RTVSPropertyOp26
 70
     0
102
RTVSPropertyOp27
 70
     0
102
RTVSPropertyOp28
 70
     1
102
RTVSPropertyOp29
 70
     1
102
RTVSPropertyOp30
 70
     1
102
RTVSPropertyOp31
 70
     1
102
RTVSPropertyOp32
 70
     1
102
RTVSPropertyOp33
 70
     1
102
RTVSPropertyOp34
 70
     1
102
RTVSPropertyOp35
 70
     1
102
RTVSPropertyOp36
 70
     1
102
RTVSPropertyOp37
 70
     1
102
RTVSPropertyOp38
 70
     1
102
RTVSPropertyOp39
 70
     1
102
RTVSPropertyOp40
 70
     1
102
RTVSPropertyOp41
 70
     1
102
RTVSPropertyOp42
 70
     1
102
RTVSPropertyOp43
 70
     1
102
RTVSPropertyOp44
 70
     1
102
RTVSPropertyOp45
 70
     1
102
RTVSPropertyOp46
 70
     1
102
RTVSPropertyOp47
 70
     1
102
RTVSPropertyOp48
 70
     1
102
RTVSPropertyOp49
 70
     1
102
RTVSPropertyOp50
 70
     1
102
RTVSPropertyOp51
 70
     0
102
RTVSPropertyOp52
 70
     0
102
RTVSPropertyOp53
 70
     1
102
RTVSPropertyOp54
 70
     1
102
RTVSPropertyOp55
 70
     1
102
RTVSPropertyOp56
 70
     1
102
RTVSPropertyOp57
 70
     1
102
RTVSPropertyOp58
 70
     1
102
RTVSPropertyOp59
 70
     1
102
RTVSPropertyOp60
 70
     1
102
RTVSPropertyOp61
 70
     1
102
RTVSPropertyOp62
 70
     1
  0
XRECORD
  5
86D83
102
{ACAD_REACTORS
330
86D82
102
}
330
86D82
100
AcDbXrecord
280
     1
102
RTVSPost2010Prop28
280
     0
102
RTVSPost2010PropOp28
 70
     1
102
RTVSPost2010Prop29
280
     1
102
RTVSPost2010PropOp29
 70
     1
102
RTVSPost2010Prop30
280
     1
102
RTVSPost2010PropOp30
 70
     1
102
RTVSPost2010Prop31
280
     0
102
RTVSPost2010PropOp31
 70
     1
102
RTVSPost2010Prop32
280
     0
102
RTVSPost2010PropOp32
 70
     1
102
RTVSPost2010Prop33
280
     0
102
RTVSPost2010PropOp33
 70
     1
102
RTVSPost2010Prop34
280
     0
102
RTVSPost2010PropOp34
 70
     1
102
RTVSPost2010Prop35
280
     0
102
RTVSPost2010PropOp35
 70
     1
102
RTVSPost2010Prop36
280
     0
102
RTVSPost2010PropOp36
 70
     1
102
RTVSPost2010Prop37
 90
       50
102
RTVSPost2010PropOp37
 70
     1
102
RTVSPost2010Prop38
140
0.0
102
RTVSPost2010PropOp38
 70
     1
102
RTVSPost2010Prop39
140
1.0
102
RTVSPost2010PropOp39
 70
     1
102
RTVSPost2010Prop40
 90
        0
102
RTVSPost2010PropOp40
 70
     1
102
RTVSPost2010Prop41ColorIndex
 90
       18
102
RTVSPost2010Prop41ColorRGB
 90
        0
102
RTVSPost2010PropOp41
 70
     1
102
RTVSPost2010Prop42
 90
       50
102
RTVSPost2010PropOp42
 70
     1
102
RTVSPost2010Prop43
 90
        3
102
RTVSPost2010PropOp43
 70
     1
102
RTVSPost2010Prop44ColorIndex
 90
        5
102
RTVSPost2010Prop44ColorRGB
 90
      255
102
RTVSPost2010PropOp44
 70
     1
102
RTVSPost2010Prop45
280
     0
102
RTVSPost2010PropOp45
 70
     1
102
RTVSPost2010Prop46
 90
       50
102
RTVSPost2010PropOp46
 70
     1
102
RTVSPost2010Prop47
 90
       50
102
RTVSPost2010PropOp47
 70
     1
102
RTVSPost2010Prop48
 90
       50
102
RTVSPost2010PropOp48
 70
     1
102
RTVSPost2010Prop49
280
     0
102
RTVSPost2010PropOp49
 70
     1
102
RTVSPost2010Prop50
 90
       50
102
RTVSPost2010PropOp50
 70
     1
102
RTVSPost2010Prop51ColorIndex
 90
      256
102
RTVSPost2010Prop51ColorRGB
 90
-16777216
102
RTVSPost2010PropOp51
 70
     0
102
RTVSPost2010Prop52
140
1.0
102
RTVSPost2010PropOp52
 70
     0
102
RTVSPost2010Prop53
 90
        2
102
RTVSPost2010PropOp53
 70
     1
102
RTVSPost2010Prop54
  1
strokes_ogs.tif
102
RTVSPost2010PropOp54
 70
     1
102
RTVSPost2010Prop55
280
     0
102
RTVSPost2010PropOp55
 70
     1
102
RTVSPost2010Prop56
140
1.0
102
RTVSPost2010PropOp56
 70
     1
102
RTVSPost2010Prop57
140
1.0
102
RTVSPost2010PropOp57
 70
     1
102
RTVSPropertyOp0
 70
     1
102
RTVSPropertyOp1
 70
     1
102
RTVSPropertyOp2
 70
     1
102
RTVSPropertyOp3
 70
     1
102
RTVSPropertyOp4
 70
     1
102
RTVSPropertyOp5
 70
     1
102
RTVSPropertyOp6
 70
     1
102
RTVSPropertyOp7
 70
     1
102
RTVSPropertyOp8
 70
     1
102
RTVSPropertyOp9
 70
     1
102
RTVSPropertyOp10
 70
     1
102
RTVSPropertyOp11
 70
     1
102
RTVSPropertyOp12
 70
     1
102
RTVSPropertyOp13
 70
     1
102
RTVSPropertyOp14
 70
     1
102
RTVSPropertyOp15
 70
     1
102
RTVSPropertyOp16
 70
     1
102
RTVSPropertyOp17
 70
     1
102
RTVSPropertyOp18
 70
     1
102
RTVSPropertyOp19
 70
     1
102
RTVSPropertyOp20
 70
     1
102
RTVSPropertyOp21
 70
     1
102
RTVSPropertyOp22
 70
     1
102
RTVSPropertyOp23
 70
     1
102
RTVSPropertyOp24
 70
     1
102
RTVSPropertyOp25
 70
     1
102
RTVSPropertyOp26
 70
     1
102
RTVSPropertyOp27
 70
     1
102
RTVSPropertyOp28
 70
     1
102
RTVSPropertyOp29
 70
     1
102
RTVSPropertyOp30
 70
     1
102
RTVSPropertyOp31
 70
     1
102
RTVSPropertyOp32
 70
     1
102
RTVSPropertyOp33
 70
     1
102
RTVSPropertyOp34
 70
     1
102
RTVSPropertyOp35
 70
     1
102
RTVSPropertyOp36
 70
     1
102
RTVSPropertyOp37
 70
     1
102
RTVSPropertyOp38
 70
     1
102
RTVSPropertyOp39
 70
     1
102
RTVSPropertyOp40
 70
     1
102
RTVSPropertyOp41
 70
     1
102
RTVSPropertyOp42
 70
     1
102
RTVSPropertyOp43
 70
     1
102
RTVSPropertyOp44
 70
     1
102
RTVSPropertyOp45
 70
     1
102
RTVSPropertyOp46
 70
     1
102
RTVSPropertyOp47
 70
     1
102
RTVSPropertyOp48
 70
     1
102
RTVSPropertyOp49
 70
     1
102
RTVSPropertyOp50
 70
     1
102
RTVSPropertyOp51
 70
     0
102
RTVSPropertyOp52
 70
     0
102
RTVSPropertyOp53
 70
     1
102
RTVSPropertyOp54
 70
     1
102
RTVSPropertyOp55
 70
     1
102
RTVSPropertyOp56
 70
     1
102
RTVSPropertyOp57
 70
     1
102
RTVSPropertyOp58
 70
     1
102
RTVSPropertyOp59
 70
     1
102
RTVSPropertyOp60
 70
     1
102
RTVSPropertyOp61
 70
     1
102
RTVSPropertyOp62
 70
     1
  0
XRECORD
  5
86DA3
102
{ACAD_REACTORS
330
86DA2
102
}
330
86DA2
100
AcDbXrecord
280
     1
102
RTVSPost2010Prop28
280
     0
102
RTVSPost2010PropOp28
 70
     1
102
RTVSPost2010Prop29
280
     1
102
RTVSPost2010PropOp29
 70
     1
102
RTVSPost2010Prop30
280
     1
102
RTVSPost2010PropOp30
 70
     1
102
RTVSPost2010Prop31
280
     0
102
RTVSPost2010PropOp31
 70
     1
102
RTVSPost2010Prop32
280
     0
102
RTVSPost2010PropOp32
 70
     1
102
RTVSPost2010Prop33
280
     0
102
RTVSPost2010PropOp33
 70
     1
102
RTVSPost2010Prop34
280
     0
102
RTVSPost2010PropOp34
 70
     1
102
RTVSPost2010Prop35
280
     0
102
RTVSPost2010PropOp35
 70
     1
102
RTVSPost2010Prop36
280
     0
102
RTVSPost2010PropOp36
 70
     1
102
RTVSPost2010Prop37
 90
       50
102
RTVSPost2010PropOp37
 70
     1
102
RTVSPost2010Prop38
140
0.0
102
RTVSPost2010PropOp38
 70
     1
102
RTVSPost2010Prop39
140
1.0
102
RTVSPost2010PropOp39
 70
     1
102
RTVSPost2010Prop40
 90
        0
102
RTVSPost2010PropOp40
 70
     1
102
RTVSPost2010Prop41ColorIndex
 90
       18
102
RTVSPost2010Prop41ColorRGB
 90
        0
102
RTVSPost2010PropOp41
 70
     1
102
RTVSPost2010Prop42
 90
       50
102
RTVSPost2010PropOp42
 70
     1
102
RTVSPost2010Prop43
 90
        3
102
RTVSPost2010PropOp43
 70
     1
102
RTVSPost2010Prop44ColorIndex
 90
        5
102
RTVSPost2010Prop44ColorRGB
 90
      255
102
RTVSPost2010PropOp44
 70
     1
102
RTVSPost2010Prop45
280
     0
102
RTVSPost2010PropOp45
 70
     1
102
RTVSPost2010Prop46
 90
       50
102
RTVSPost2010PropOp46
 70
     1
102
RTVSPost2010Prop47
 90
       50
102
RTVSPost2010PropOp47
 70
     1
102
RTVSPost2010Prop48
 90
       50
102
RTVSPost2010PropOp48
 70
     1
102
RTVSPost2010Prop49
280
     0
102
RTVSPost2010PropOp49
 70
     1
102
RTVSPost2010Prop50
 90
       50
102
RTVSPost2010PropOp50
 70
     1
102
RTVSPost2010Prop51ColorIndex
 90
      256
102
RTVSPost2010Prop51ColorRGB
 90
-16777216
102
RTVSPost2010PropOp51
 70
     0
102
RTVSPost2010Prop52
140
1.0
102
RTVSPost2010PropOp52
 70
     0
102
RTVSPost2010Prop53
 90
        2
102
RTVSPost2010PropOp53
 70
     1
102
RTVSPost2010Prop54
  1
strokes_ogs.tif
102
RTVSPost2010PropOp54
 70
     1
102
RTVSPost2010Prop55
280
     0
102
RTVSPost2010PropOp55
 70
     1
102
RTVSPost2010Prop56
140
1.0
102
RTVSPost2010PropOp56
 70
     1
102
RTVSPost2010Prop57
140
1.0
102
RTVSPost2010PropOp57
 70
     1
102
RTVSPropertyOp0
 70
     1
102
RTVSPropertyOp1
 70
     1
102
RTVSPropertyOp2
 70
     1
102
RTVSPropertyOp3
 70
     1
102
RTVSPropertyOp4
 70
     1
102
RTVSPropertyOp5
 70
     1
102
RTVSPropertyOp6
 70
     1
102
RTVSPropertyOp7
 70
     1
102
RTVSPropertyOp8
 70
     1
102
RTVSPropertyOp9
 70
     1
102
RTVSPropertyOp10
 70
     1
102
RTVSPropertyOp11
 70
     1
102
RTVSPropertyOp12
 70
     1
102
RTVSPropertyOp13
 70
     1
102
RTVSPropertyOp14
 70
     1
102
RTVSPropertyOp15
 70
     1
102
RTVSPropertyOp16
 70
     1
102
RTVSPropertyOp17
 70
     1
102
RTVSPropertyOp18
 70
     1
102
RTVSPropertyOp19
 70
     1
102
RTVSPropertyOp20
 70
     1
102
RTVSPropertyOp21
 70
     1
102
RTVSPropertyOp22
 70
     1
102
RTVSPropertyOp23
 70
     1
102
RTVSPropertyOp24
 70
     1
102
RTVSPropertyOp25
 70
     1
102
RTVSPropertyOp26
 70
     1
102
RTVSPropertyOp27
 70
     1
102
RTVSPropertyOp28
 70
     1
102
RTVSPropertyOp29
 70
     1
102
RTVSPropertyOp30
 70
     1
102
RTVSPropertyOp31
 70
     1
102
RTVSPropertyOp32
 70
     1
102
RTVSPropertyOp33
 70
     1
102
RTVSPropertyOp34
 70
     1
102
RTVSPropertyOp35
 70
     1
102
RTVSPropertyOp36
 70
     1
102
RTVSPropertyOp37
 70
     1
102
RTVSPropertyOp38
 70
     1
102
RTVSPropertyOp39
 70
     1
102
RTVSPropertyOp40
 70
     1
102
RTVSPropertyOp41
 70
     1
102
RTVSPropertyOp42
 70
     1
102
RTVSPropertyOp43
 70
     1
102
RTVSPropertyOp44
 70
     1
102
RTVSPropertyOp45
 70
     1
102
RTVSPropertyOp46
 70
     1
102
RTVSPropertyOp47
 70
     1
102
RTVSPropertyOp48
 70
     1
102
RTVSPropertyOp49
 70
     1
102
RTVSPropertyOp50
 70
     1
102
RTVSPropertyOp51
 70
     0
102
RTVSPropertyOp52
 70
     0
102
RTVSPropertyOp53
 70
     1
102
RTVSPropertyOp54
 70
     1
102
RTVSPropertyOp55
 70
     1
102
RTVSPropertyOp56
 70
     1
102
RTVSPropertyOp57
 70
     1
102
RTVSPropertyOp58
 70
     1
102
RTVSPropertyOp59
 70
     1
102
RTVSPropertyOp60
 70
     1
102
RTVSPropertyOp61
 70
     1
102
RTVSPropertyOp62
 70
     1
  0
XRECORD
  5
86DA1
102
{ACAD_REACTORS
330
86DA0
102
}
330
86DA0
100
AcDbXrecord
280
     1
102
RTVSPost2010Prop28
280
     0
102
RTVSPost2010PropOp28
 70
     1
102
RTVSPost2010Prop29
280
     1
102
RTVSPost2010PropOp29
 70
     1
102
RTVSPost2010Prop30
280
     1
102
RTVSPost2010PropOp30
 70
     1
102
RTVSPost2010Prop31
280
     0
102
RTVSPost2010PropOp31
 70
     1
102
RTVSPost2010Prop32
280
     0
102
RTVSPost2010PropOp32
 70
     1
102
RTVSPost2010Prop33
280
     0
102
RTVSPost2010PropOp33
 70
     1
102
RTVSPost2010Prop34
280
     0
102
RTVSPost2010PropOp34
 70
     1
102
RTVSPost2010Prop35
280
     0
102
RTVSPost2010PropOp35
 70
     1
102
RTVSPost2010Prop36
280
     0
102
RTVSPost2010PropOp36
 70
     1
102
RTVSPost2010Prop37
 90
       50
102
RTVSPost2010PropOp37
 70
     1
102
RTVSPost2010Prop38
140
0.0
102
RTVSPost2010PropOp38
 70
     1
102
RTVSPost2010Prop39
140
1.0
102
RTVSPost2010PropOp39
 70
     1
102
RTVSPost2010Prop40
 90
        0
102
RTVSPost2010PropOp40
 70
     1
102
RTVSPost2010Prop41ColorIndex
 90
       18
102
RTVSPost2010Prop41ColorRGB
 90
        0
102
RTVSPost2010PropOp41
 70
     1
102
RTVSPost2010Prop42
 90
       50
102
RTVSPost2010PropOp42
 70
     1
102
RTVSPost2010Prop43
 90
        3
102
RTVSPost2010PropOp43
 70
     1
102
RTVSPost2010Prop44ColorIndex
 90
        5
102
RTVSPost2010Prop44ColorRGB
 90
      255
102
RTVSPost2010PropOp44
 70
     1
102
RTVSPost2010Prop45
280
     0
102
RTVSPost2010PropOp45
 70
     1
102
RTVSPost2010Prop46
 90
       50
102
RTVSPost2010PropOp46
 70
     1
102
RTVSPost2010Prop47
 90
       50
102
RTVSPost2010PropOp47
 70
     1
102
RTVSPost2010Prop48
 90
       50
102
RTVSPost2010PropOp48
 70
     1
102
RTVSPost2010Prop49
280
     0
102
RTVSPost2010PropOp49
 70
     1
102
RTVSPost2010Prop50
 90
       50
102
RTVSPost2010PropOp50
 70
     1
102
RTVSPost2010Prop51ColorIndex
 90
      256
102
RTVSPost2010Prop51ColorRGB
 90
-16777216
102
RTVSPost2010PropOp51
 70
     0
102
RTVSPost2010Prop52
140
1.0
102
RTVSPost2010PropOp52
 70
     0
102
RTVSPost2010Prop53
 90
        2
102
RTVSPost2010PropOp53
 70
     1
102
RTVSPost2010Prop54
  1
strokes_ogs.tif
102
RTVSPost2010PropOp54
 70
     1
102
RTVSPost2010Prop55
280
     0
102
RTVSPost2010PropOp55
 70
     1
102
RTVSPost2010Prop56
140
1.0
102
RTVSPost2010PropOp56
 70
     1
102
RTVSPost2010Prop57
140
1.0
102
RTVSPost2010PropOp57
 70
     1
102
RTVSPropertyOp0
 70
     1
102
RTVSPropertyOp1
 70
     1
102
RTVSPropertyOp2
 70
     1
102
RTVSPropertyOp3
 70
     1
102
RTVSPropertyOp4
 70
     1
102
RTVSPropertyOp5
 70
     1
102
RTVSPropertyOp6
 70
     1
102
RTVSPropertyOp7
 70
     1
102
RTVSPropertyOp8
 70
     1
102
RTVSPropertyOp9
 70
     1
102
RTVSPropertyOp10
 70
     1
102
RTVSPropertyOp11
 70
     1
102
RTVSPropertyOp12
 70
     1
102
RTVSPropertyOp13
 70
     1
102
RTVSPropertyOp14
 70
     1
102
RTVSPropertyOp15
 70
     1
102
RTVSPropertyOp16
 70
     1
102
RTVSPropertyOp17
 70
     1
102
RTVSPropertyOp18
 70
     1
102
RTVSPropertyOp19
 70
     1
102
RTVSPropertyOp20
 70
     1
102
RTVSPropertyOp21
 70
     1
102
RTVSPropertyOp22
 70
     1
102
RTVSPropertyOp23
 70
     1
102
RTVSPropertyOp24
 70
     1
102
RTVSPropertyOp25
 70
     1
102
RTVSPropertyOp26
 70
     1
102
RTVSPropertyOp27
 70
     1
102
RTVSPropertyOp28
 70
     1
102
RTVSPropertyOp29
 70
     1
102
RTVSPropertyOp30
 70
     1
102
RTVSPropertyOp31
 70
     1
102
RTVSPropertyOp32
 70
     1
102
RTVSPropertyOp33
 70
     1
102
RTVSPropertyOp34
 70
     1
102
RTVSPropertyOp35
 70
     1
102
RTVSPropertyOp36
 70
     1
102
RTVSPropertyOp37
 70
     1
102
RTVSPropertyOp38
 70
     1
102
RTVSPropertyOp39
 70
     1
102
RTVSPropertyOp40
 70
     1
102
RTVSPropertyOp41
 70
     1
102
RTVSPropertyOp42
 70
     1
102
RTVSPropertyOp43
 70
     1
102
RTVSPropertyOp44
 70
     1
102
RTVSPropertyOp45
 70
     1
102
RTVSPropertyOp46
 70
     1
102
RTVSPropertyOp47
 70
     1
102
RTVSPropertyOp48
 70
     1
102
RTVSPropertyOp49
 70
     1
102
RTVSPropertyOp50
 70
     1
102
RTVSPropertyOp51
 70
     0
102
RTVSPropertyOp52
 70
     0
102
RTVSPropertyOp53
 70
     1
102
RTVSPropertyOp54
 70
     1
102
RTVSPropertyOp55
 70
     1
102
RTVSPropertyOp56
 70
     1
102
RTVSPropertyOp57
 70
     1
102
RTVSPropertyOp58
 70
     1
102
RTVSPropertyOp59
 70
     1
102
RTVSPropertyOp60
 70
     1
102
RTVSPropertyOp61
 70
     1
102
RTVSPropertyOp62
 70
     1
  0
XRECORD
  5
86D9B
102
{ACAD_REACTORS
330
86D9A
102
}
330
86D9A
100
AcDbXrecord
280
     1
102
RTVSPost2010Prop28
280
     0
102
RTVSPost2010PropOp28
 70
     1
102
RTVSPost2010Prop29
280
     1
102
RTVSPost2010PropOp29
 70
     1
102
RTVSPost2010Prop30
280
     1
102
RTVSPost2010PropOp30
 70
     1
102
RTVSPost2010Prop31
280
     0
102
RTVSPost2010PropOp31
 70
     1
102
RTVSPost2010Prop32
280
     0
102
RTVSPost2010PropOp32
 70
     1
102
RTVSPost2010Prop33
280
     0
102
RTVSPost2010PropOp33
 70
     1
102
RTVSPost2010Prop34
280
     0
102
RTVSPost2010PropOp34
 70
     1
102
RTVSPost2010Prop35
280
     0
102
RTVSPost2010PropOp35
 70
     1
102
RTVSPost2010Prop36
280
     0
102
RTVSPost2010PropOp36
 70
     1
102
RTVSPost2010Prop37
 90
       50
102
RTVSPost2010PropOp37
 70
     1
102
RTVSPost2010Prop38
140
0.0
102
RTVSPost2010PropOp38
 70
     1
102
RTVSPost2010Prop39
140
1.0
102
RTVSPost2010PropOp39
 70
     1
102
RTVSPost2010Prop40
 90
        0
102
RTVSPost2010PropOp40
 70
     1
102
RTVSPost2010Prop41ColorIndex
 90
       18
102
RTVSPost2010Prop41ColorRGB
 90
        0
102
RTVSPost2010PropOp41
 70
     1
102
RTVSPost2010Prop42
 90
       50
102
RTVSPost2010PropOp42
 70
     1
102
RTVSPost2010Prop43
 90
        3
102
RTVSPost2010PropOp43
 70
     1
102
RTVSPost2010Prop44ColorIndex
 90
        5
102
RTVSPost2010Prop44ColorRGB
 90
      255
102
RTVSPost2010PropOp44
 70
     1
102
RTVSPost2010Prop45
280
     0
102
RTVSPost2010PropOp45
 70
     1
102
RTVSPost2010Prop46
 90
       50
102
RTVSPost2010PropOp46
 70
     1
102
RTVSPost2010Prop47
 90
       50
102
RTVSPost2010PropOp47
 70
     1
102
RTVSPost2010Prop48
 90
       50
102
RTVSPost2010PropOp48
 70
     1
102
RTVSPost2010Prop49
280
     0
102
RTVSPost2010PropOp49
 70
     1
102
RTVSPost2010Prop50
 90
       50
102
RTVSPost2010PropOp50
 70
     1
102
RTVSPost2010Prop51ColorIndex
 90
      256
102
RTVSPost2010Prop51ColorRGB
 90
-16777216
102
RTVSPost2010PropOp51
 70
     0
102
RTVSPost2010Prop52
140
1.0
102
RTVSPost2010PropOp52
 70
     0
102
RTVSPost2010Prop53
 90
        2
102
RTVSPost2010PropOp53
 70
     1
102
RTVSPost2010Prop54
  1
strokes_ogs.tif
102
RTVSPost2010PropOp54
 70
     1
102
RTVSPost2010Prop55
280
     0
102
RTVSPost2010PropOp55
 70
     1
102
RTVSPost2010Prop56
140
1.0
102
RTVSPost2010PropOp56
 70
     1
102
RTVSPost2010Prop57
140
1.0
102
RTVSPost2010PropOp57
 70
     1
102
RTVSPropertyOp0
 70
     1
102
RTVSPropertyOp1
 70
     1
102
RTVSPropertyOp2
 70
     1
102
RTVSPropertyOp3
 70
     1
102
RTVSPropertyOp4
 70
     1
102
RTVSPropertyOp5
 70
     1
102
RTVSPropertyOp6
 70
     1
102
RTVSPropertyOp7
 70
     1
102
RTVSPropertyOp8
 70
     1
102
RTVSPropertyOp9
 70
     1
102
RTVSPropertyOp10
 70
     1
102
RTVSPropertyOp11
 70
     1
102
RTVSPropertyOp12
 70
     1
102
RTVSPropertyOp13
 70
     1
102
RTVSPropertyOp14
 70
     1
102
RTVSPropertyOp15
 70
     1
102
RTVSPropertyOp16
 70
     1
102
RTVSPropertyOp17
 70
     1
102
RTVSPropertyOp18
 70
     1
102
RTVSPropertyOp19
 70
     1
102
RTVSPropertyOp20
 70
     1
102
RTVSPropertyOp21
 70
     1
102
RTVSPropertyOp22
 70
     1
102
RTVSPropertyOp23
 70
     1
102
RTVSPropertyOp24
 70
     1
102
RTVSPropertyOp25
 70
     1
102
RTVSPropertyOp26
 70
     1
102
RTVSPropertyOp27
 70
     1
102
RTVSPropertyOp28
 70
     1
102
RTVSPropertyOp29
 70
     1
102
RTVSPropertyOp30
 70
     1
102
RTVSPropertyOp31
 70
     1
102
RTVSPropertyOp32
 70
     1
102
RTVSPropertyOp33
 70
     1
102
RTVSPropertyOp34
 70
     1
102
RTVSPropertyOp35
 70
     1
102
RTVSPropertyOp36
 70
     1
102
RTVSPropertyOp37
 70
     1
102
RTVSPropertyOp38
 70
     1
102
RTVSPropertyOp39
 70
     1
102
RTVSPropertyOp40
 70
     1
102
RTVSPropertyOp41
 70
     1
102
RTVSPropertyOp42
 70
     1
102
RTVSPropertyOp43
 70
     1
102
RTVSPropertyOp44
 70
     1
102
RTVSPropertyOp45
 70
     1
102
RTVSPropertyOp46
 70
     1
102
RTVSPropertyOp47
 70
     1
102
RTVSPropertyOp48
 70
     1
102
RTVSPropertyOp49
 70
     1
102
RTVSPropertyOp50
 70
     1
102
RTVSPropertyOp51
 70
     0
102
RTVSPropertyOp52
 70
     0
102
RTVSPropertyOp53
 70
     1
102
RTVSPropertyOp54
 70
     1
102
RTVSPropertyOp55
 70
     1
102
RTVSPropertyOp56
 70
     1
102
RTVSPropertyOp57
 70
     1
102
RTVSPropertyOp58
 70
     1
102
RTVSPropertyOp59
 70
     1
102
RTVSPropertyOp60
 70
     1
102
RTVSPropertyOp61
 70
     1
102
RTVSPropertyOp62
 70
     1
  0
XRECORD
  5
86D9D
102
{ACAD_REACTORS
330
86D9C
102
}
330
86D9C
100
AcDbXrecord
280
     1
102
RTVSPost2010Prop28
280
     0
102
RTVSPost2010PropOp28
 70
     1
102
RTVSPost2010Prop29
280
     1
102
RTVSPost2010PropOp29
 70
     1
102
RTVSPost2010Prop30
280
     1
102
RTVSPost2010PropOp30
 70
     1
102
RTVSPost2010Prop31
280
     0
102
RTVSPost2010PropOp31
 70
     1
102
RTVSPost2010Prop32
280
     0
102
RTVSPost2010PropOp32
 70
     1
102
RTVSPost2010Prop33
280
     0
102
RTVSPost2010PropOp33
 70
     1
102
RTVSPost2010Prop34
280
     0
102
RTVSPost2010PropOp34
 70
     1
102
RTVSPost2010Prop35
280
     0
102
RTVSPost2010PropOp35
 70
     1
102
RTVSPost2010Prop36
280
     0
102
RTVSPost2010PropOp36
 70
     1
102
RTVSPost2010Prop37
 90
       50
102
RTVSPost2010PropOp37
 70
     1
102
RTVSPost2010Prop38
140
0.0
102
RTVSPost2010PropOp38
 70
     1
102
RTVSPost2010Prop39
140
1.0
102
RTVSPost2010PropOp39
 70
     1
102
RTVSPost2010Prop40
 90
        0
102
RTVSPost2010PropOp40
 70
     1
102
RTVSPost2010Prop41ColorIndex
 90
       18
102
RTVSPost2010Prop41ColorRGB
 90
        0
102
RTVSPost2010PropOp41
 70
     1
102
RTVSPost2010Prop42
 90
       50
102
RTVSPost2010PropOp42
 70
     1
102
RTVSPost2010Prop43
 90
        3
102
RTVSPost2010PropOp43
 70
     1
102
RTVSPost2010Prop44ColorIndex
 90
        5
102
RTVSPost2010Prop44ColorRGB
 90
      255
102
RTVSPost2010PropOp44
 70
     1
102
RTVSPost2010Prop45
280
     0
102
RTVSPost2010PropOp45
 70
     1
102
RTVSPost2010Prop46
 90
       50
102
RTVSPost2010PropOp46
 70
     1
102
RTVSPost2010Prop47
 90
       50
102
RTVSPost2010PropOp47
 70
     1
102
RTVSPost2010Prop48
 90
       50
102
RTVSPost2010PropOp48
 70
     1
102
RTVSPost2010Prop49
280
     0
102
RTVSPost2010PropOp49
 70
     1
102
RTVSPost2010Prop50
 90
       50
102
RTVSPost2010PropOp50
 70
     1
102
RTVSPost2010Prop51ColorIndex
 90
      256
102
RTVSPost2010Prop51ColorRGB
 90
-16777216
102
RTVSPost2010PropOp51
 70
     0
102
RTVSPost2010Prop52
140
1.0
102
RTVSPost2010PropOp52
 70
     0
102
RTVSPost2010Prop53
 90
        2
102
RTVSPost2010PropOp53
 70
     1
102
RTVSPost2010Prop54
  1
strokes_ogs.tif
102
RTVSPost2010PropOp54
 70
     1
102
RTVSPost2010Prop55
280
     0
102
RTVSPost2010PropOp55
 70
     1
102
RTVSPost2010Prop56
140
1.0
102
RTVSPost2010PropOp56
 70
     1
102
RTVSPost2010Prop57
140
1.0
102
RTVSPost2010PropOp57
 70
     1
102
RTVSPropertyOp0
 70
     1
102
RTVSPropertyOp1
 70
     1
102
RTVSPropertyOp2
 70
     1
102
RTVSPropertyOp3
 70
     1
102
RTVSPropertyOp4
 70
     1
102
RTVSPropertyOp5
 70
     1
102
RTVSPropertyOp6
 70
     1
102
RTVSPropertyOp7
 70
     1
102
RTVSPropertyOp8
 70
     1
102
RTVSPropertyOp9
 70
     1
102
RTVSPropertyOp10
 70
     1
102
RTVSPropertyOp11
 70
     1
102
RTVSPropertyOp12
 70
     1
102
RTVSPropertyOp13
 70
     1
102
RTVSPropertyOp14
 70
     1
102
RTVSPropertyOp15
 70
     1
102
RTVSPropertyOp16
 70
     1
102
RTVSPropertyOp17
 70
     1
102
RTVSPropertyOp18
 70
     1
102
RTVSPropertyOp19
 70
     1
102
RTVSPropertyOp20
 70
     1
102
RTVSPropertyOp21
 70
     1
102
RTVSPropertyOp22
 70
     1
102
RTVSPropertyOp23
 70
     1
102
RTVSPropertyOp24
 70
     1
102
RTVSPropertyOp25
 70
     1
102
RTVSPropertyOp26
 70
     1
102
RTVSPropertyOp27
 70
     1
102
RTVSPropertyOp28
 70
     1
102
RTVSPropertyOp29
 70
     1
102
RTVSPropertyOp30
 70
     1
102
RTVSPropertyOp31
 70
     1
102
RTVSPropertyOp32
 70
     1
102
RTVSPropertyOp33
 70
     1
102
RTVSPropertyOp34
 70
     1
102
RTVSPropertyOp35
 70
     1
102
RTVSPropertyOp36
 70
     1
102
RTVSPropertyOp37
 70
     1
102
RTVSPropertyOp38
 70
     1
102
RTVSPropertyOp39
 70
     1
102
RTVSPropertyOp40
 70
     1
102
RTVSPropertyOp41
 70
     1
102
RTVSPropertyOp42
 70
     1
102
RTVSPropertyOp43
 70
     1
102
RTVSPropertyOp44
 70
     1
102
RTVSPropertyOp45
 70
     1
102
RTVSPropertyOp46
 70
     1
102
RTVSPropertyOp47
 70
     1
102
RTVSPropertyOp48
 70
     1
102
RTVSPropertyOp49
 70
     1
102
RTVSPropertyOp50
 70
     1
102
RTVSPropertyOp51
 70
     0
102
RTVSPropertyOp52
 70
     0
102
RTVSPropertyOp53
 70
     1
102
RTVSPropertyOp54
 70
     1
102
RTVSPropertyOp55
 70
     1
102
RTVSPropertyOp56
 70
     1
102
RTVSPropertyOp57
 70
     1
102
RTVSPropertyOp58
 70
     1
102
RTVSPropertyOp59
 70
     1
102
RTVSPropertyOp60
 70
     1
102
RTVSPropertyOp61
 70
     1
102
RTVSPropertyOp62
 70
     1
  0
XRECORD
  5
86D89
102
{ACAD_REACTORS
330
86D88
102
}
330
86D88
100
AcDbXrecord
280
     1
102
RTVSPost2010Prop28
280
     0
102
RTVSPost2010PropOp28
 70
     1
102
RTVSPost2010Prop29
280
     1
102
RTVSPost2010PropOp29
 70
     1
102
RTVSPost2010Prop30
280
     1
102
RTVSPost2010PropOp30
 70
     1
102
RTVSPost2010Prop31
280
     0
102
RTVSPost2010PropOp31
 70
     1
102
RTVSPost2010Prop32
280
     0
102
RTVSPost2010PropOp32
 70
     1
102
RTVSPost2010Prop33
280
     0
102
RTVSPost2010PropOp33
 70
     1
102
RTVSPost2010Prop34
280
     0
102
RTVSPost2010PropOp34
 70
     1
102
RTVSPost2010Prop35
280
     0
102
RTVSPost2010PropOp35
 70
     1
102
RTVSPost2010Prop36
280
     0
102
RTVSPost2010PropOp36
 70
     1
102
RTVSPost2010Prop37
 90
       50
102
RTVSPost2010PropOp37
 70
     1
102
RTVSPost2010Prop38
140
0.0
102
RTVSPost2010PropOp38
 70
     1
102
RTVSPost2010Prop39
140
1.0
102
RTVSPost2010PropOp39
 70
     1
102
RTVSPost2010Prop40
 90
        0
102
RTVSPost2010PropOp40
 70
     1
102
RTVSPost2010Prop41ColorIndex
 90
       18
102
RTVSPost2010Prop41ColorRGB
 90
        0
102
RTVSPost2010PropOp41
 70
     1
102
RTVSPost2010Prop42
 90
       50
102
RTVSPost2010PropOp42
 70
     1
102
RTVSPost2010Prop43
 90
        3
102
RTVSPost2010PropOp43
 70
     1
102
RTVSPost2010Prop44ColorIndex
 90
        5
102
RTVSPost2010Prop44ColorRGB
 90
      255
102
RTVSPost2010PropOp44
 70
     1
102
RTVSPost2010Prop45
280
     0
102
RTVSPost2010PropOp45
 70
     1
102
RTVSPost2010Prop46
 90
       50
102
RTVSPost2010PropOp46
 70
     1
102
RTVSPost2010Prop47
 90
       50
102
RTVSPost2010PropOp47
 70
     1
102
RTVSPost2010Prop48
 90
       50
102
RTVSPost2010PropOp48
 70
     1
102
RTVSPost2010Prop49
280
     0
102
RTVSPost2010PropOp49
 70
     1
102
RTVSPost2010Prop50
 90
       50
102
RTVSPost2010PropOp50
 70
     1
102
RTVSPost2010Prop51ColorIndex
 90
      256
102
RTVSPost2010Prop51ColorRGB
 90
-16777216
102
RTVSPost2010PropOp51
 70
     0
102
RTVSPost2010Prop52
140
1.0
102
RTVSPost2010PropOp52
 70
     0
102
RTVSPost2010Prop53
 90
        2
102
RTVSPost2010PropOp53
 70
     1
102
RTVSPost2010Prop54
  1
strokes_ogs.tif
102
RTVSPost2010PropOp54
 70
     1
102
RTVSPost2010Prop55
280
     0
102
RTVSPost2010PropOp55
 70
     1
102
RTVSPost2010Prop56
140
1.0
102
RTVSPost2010PropOp56
 70
     1
102
RTVSPost2010Prop57
140
1.0
102
RTVSPost2010PropOp57
 70
     1
102
RTVSPropertyOp0
 70
     1
102
RTVSPropertyOp1
 70
     1
102
RTVSPropertyOp2
 70
     1
102
RTVSPropertyOp3
 70
     1
102
RTVSPropertyOp4
 70
     1
102
RTVSPropertyOp5
 70
     1
102
RTVSPropertyOp6
 70
     1
102
RTVSPropertyOp7
 70
     1
102
RTVSPropertyOp8
 70
     1
102
RTVSPropertyOp9
 70
     1
102
RTVSPropertyOp10
 70
     1
102
RTVSPropertyOp11
 70
     1
102
RTVSPropertyOp12
 70
     1
102
RTVSPropertyOp13
 70
     1
102
RTVSPropertyOp14
 70
     1
102
RTVSPropertyOp15
 70
     1
102
RTVSPropertyOp16
 70
     1
102
RTVSPropertyOp17
 70
     1
102
RTVSPropertyOp18
 70
     1
102
RTVSPropertyOp19
 70
     1
102
RTVSPropertyOp20
 70
     1
102
RTVSPropertyOp21
 70
     1
102
RTVSPropertyOp22
 70
     1
102
RTVSPropertyOp23
 70
     1
102
RTVSPropertyOp24
 70
     1
102
RTVSPropertyOp25
 70
     1
102
RTVSPropertyOp26
 70
     1
102
RTVSPropertyOp27
 70
     1
102
RTVSPropertyOp28
 70
     1
102
RTVSPropertyOp29
 70
     1
102
RTVSPropertyOp30
 70
     1
102
RTVSPropertyOp31
 70
     1
102
RTVSPropertyOp32
 70
     1
102
RTVSPropertyOp33
 70
     1
102
RTVSPropertyOp34
 70
     1
102
RTVSPropertyOp35
 70
     1
102
RTVSPropertyOp36
 70
     1
102
RTVSPropertyOp37
 70
     1
102
RTVSPropertyOp38
 70
     1
102
RTVSPropertyOp39
 70
     1
102
RTVSPropertyOp40
 70
     1
102
RTVSPropertyOp41
 70
     1
102
RTVSPropertyOp42
 70
     1
102
RTVSPropertyOp43
 70
     1
102
RTVSPropertyOp44
 70
     1
102
RTVSPropertyOp45
 70
     1
102
RTVSPropertyOp46
 70
     1
102
RTVSPropertyOp47
 70
     1
102
RTVSPropertyOp48
 70
     1
102
RTVSPropertyOp49
 70
     1
102
RTVSPropertyOp50
 70
     1
102
RTVSPropertyOp51
 70
     0
102
RTVSPropertyOp52
 70
     0
102
RTVSPropertyOp53
 70
     1
102
RTVSPropertyOp54
 70
     1
102
RTVSPropertyOp55
 70
     1
102
RTVSPropertyOp56
 70
     1
102
RTVSPropertyOp57
 70
     1
102
RTVSPropertyOp58
 70
     1
102
RTVSPropertyOp59
 70
     1
102
RTVSPropertyOp60
 70
     1
102
RTVSPropertyOp61
 70
     1
102
RTVSPropertyOp62
 70
     1
  0
XRECORD
  5
86D97
102
{ACAD_REACTORS
330
86D96
102
}
330
86D96
100
AcDbXrecord
280
     1
102
RTVSPost2010Prop28
280
     0
102
RTVSPost2010PropOp28
 70
     1
102
RTVSPost2010Prop29
280
     1
102
RTVSPost2010PropOp29
 70
     1
102
RTVSPost2010Prop30
280
     1
102
RTVSPost2010PropOp30
 70
     1
102
RTVSPost2010Prop31
280
     0
102
RTVSPost2010PropOp31
 70
     1
102
RTVSPost2010Prop32
280
     0
102
RTVSPost2010PropOp32
 70
     1
102
RTVSPost2010Prop33
280
     0
102
RTVSPost2010PropOp33
 70
     1
102
RTVSPost2010Prop34
280
     0
102
RTVSPost2010PropOp34
 70
     1
102
RTVSPost2010Prop35
280
     0
102
RTVSPost2010PropOp35
 70
     1
102
RTVSPost2010Prop36
280
     0
102
RTVSPost2010PropOp36
 70
     1
102
RTVSPost2010Prop37
 90
       50
102
RTVSPost2010PropOp37
 70
     1
102
RTVSPost2010Prop38
140
0.0
102
RTVSPost2010PropOp38
 70
     1
102
RTVSPost2010Prop39
140
1.0
102
RTVSPost2010PropOp39
 70
     1
102
RTVSPost2010Prop40
 90
        0
102
RTVSPost2010PropOp40
 70
     1
102
RTVSPost2010Prop41ColorIndex
 90
       18
102
RTVSPost2010Prop41ColorRGB
 90
        0
102
RTVSPost2010PropOp41
 70
     1
102
RTVSPost2010Prop42
 90
       50
102
RTVSPost2010PropOp42
 70
     1
102
RTVSPost2010Prop43
 90
        3
102
RTVSPost2010PropOp43
 70
     1
102
RTVSPost2010Prop44ColorIndex
 90
        5
102
RTVSPost2010Prop44ColorRGB
 90
      255
102
RTVSPost2010PropOp44
 70
     1
102
RTVSPost2010Prop45
280
     0
102
RTVSPost2010PropOp45
 70
     1
102
RTVSPost2010Prop46
 90
       50
102
RTVSPost2010PropOp46
 70
     1
102
RTVSPost2010Prop47
 90
       50
102
RTVSPost2010PropOp47
 70
     1
102
RTVSPost2010Prop48
 90
       50
102
RTVSPost2010PropOp48
 70
     1
102
RTVSPost2010Prop49
280
     0
102
RTVSPost2010PropOp49
 70
     1
102
RTVSPost2010Prop50
 90
       50
102
RTVSPost2010PropOp50
 70
     1
102
RTVSPost2010Prop51ColorIndex
 90
      256
102
RTVSPost2010Prop51ColorRGB
 90
-16777216
102
RTVSPost2010PropOp51
 70
     0
102
RTVSPost2010Prop52
140
1.0
102
RTVSPost2010PropOp52
 70
     0
102
RTVSPost2010Prop53
 90
        2
102
RTVSPost2010PropOp53
 70
     1
102
RTVSPost2010Prop54
  1
strokes_ogs.tif
102
RTVSPost2010PropOp54
 70
     1
102
RTVSPost2010Prop55
280
     0
102
RTVSPost2010PropOp55
 70
     1
102
RTVSPost2010Prop56
140
1.0
102
RTVSPost2010PropOp56
 70
     1
102
RTVSPost2010Prop57
140
1.0
102
RTVSPost2010PropOp57
 70
     1
102
RTVSPropertyOp0
 70
     1
102
RTVSPropertyOp1
 70
     1
102
RTVSPropertyOp2
 70
     1
102
RTVSPropertyOp3
 70
     1
102
RTVSPropertyOp4
 70
     1
102
RTVSPropertyOp5
 70
     1
102
RTVSPropertyOp6
 70
     1
102
RTVSPropertyOp7
 70
     1
102
RTVSPropertyOp8
 70
     1
102
RTVSPropertyOp9
 70
     1
102
RTVSPropertyOp10
 70
     1
102
RTVSPropertyOp11
 70
     1
102
RTVSPropertyOp12
 70
     1
102
RTVSPropertyOp13
 70
     1
102
RTVSPropertyOp14
 70
     1
102
RTVSPropertyOp15
 70
     1
102
RTVSPropertyOp16
 70
     1
102
RTVSPropertyOp17
 70
     1
102
RTVSPropertyOp18
 70
     1
102
RTVSPropertyOp19
 70
     1
102
RTVSPropertyOp20
 70
     1
102
RTVSPropertyOp21
 70
     1
102
RTVSPropertyOp22
 70
     1
102
RTVSPropertyOp23
 70
     1
102
RTVSPropertyOp24
 70
     1
102
RTVSPropertyOp25
 70
     1
102
RTVSPropertyOp26
 70
     1
102
RTVSPropertyOp27
 70
     1
102
RTVSPropertyOp28
 70
     1
102
RTVSPropertyOp29
 70
     1
102
RTVSPropertyOp30
 70
     1
102
RTVSPropertyOp31
 70
     1
102
RTVSPropertyOp32
 70
     1
102
RTVSPropertyOp33
 70
     1
102
RTVSPropertyOp34
 70
     1
102
RTVSPropertyOp35
 70
     1
102
RTVSPropertyOp36
 70
     1
102
RTVSPropertyOp37
 70
     1
102
RTVSPropertyOp38
 70
     1
102
RTVSPropertyOp39
 70
     1
102
RTVSPropertyOp40
 70
     1
102
RTVSPropertyOp41
 70
     1
102
RTVSPropertyOp42
 70
     1
102
RTVSPropertyOp43
 70
     1
102
RTVSPropertyOp44
 70
     1
102
RTVSPropertyOp45
 70
     1
102
RTVSPropertyOp46
 70
     1
102
RTVSPropertyOp47
 70
     1
102
RTVSPropertyOp48
 70
     1
102
RTVSPropertyOp49
 70
     1
102
RTVSPropertyOp50
 70
     1
102
RTVSPropertyOp51
 70
     0
102
RTVSPropertyOp52
 70
     0
102
RTVSPropertyOp53
 70
     1
102
RTVSPropertyOp54
 70
     1
102
RTVSPropertyOp55
 70
     1
102
RTVSPropertyOp56
 70
     1
102
RTVSPropertyOp57
 70
     1
102
RTVSPropertyOp58
 70
     1
102
RTVSPropertyOp59
 70
     1
102
RTVSPropertyOp60
 70
     1
102
RTVSPropertyOp61
 70
     1
102
RTVSPropertyOp62
 70
     1
  0
XRECORD
  5
86D9F
102
{ACAD_REACTORS
330
86D9E
102
}
330
86D9E
100
AcDbXrecord
280
     1
102
RTVSPost2010Prop28
280
     0
102
RTVSPost2010PropOp28
 70
     1
102
RTVSPost2010Prop29
280
     1
102
RTVSPost2010PropOp29
 70
     1
102
RTVSPost2010Prop30
280
     1
102
RTVSPost2010PropOp30
 70
     1
102
RTVSPost2010Prop31
280
     0
102
RTVSPost2010PropOp31
 70
     1
102
RTVSPost2010Prop32
280
     0
102
RTVSPost2010PropOp32
 70
     1
102
RTVSPost2010Prop33
280
     0
102
RTVSPost2010PropOp33
 70
     1
102
RTVSPost2010Prop34
280
     0
102
RTVSPost2010PropOp34
 70
     1
102
RTVSPost2010Prop35
280
     0
102
RTVSPost2010PropOp35
 70
     1
102
RTVSPost2010Prop36
280
     0
102
RTVSPost2010PropOp36
 70
     1
102
RTVSPost2010Prop37
 90
       50
102
RTVSPost2010PropOp37
 70
     1
102
RTVSPost2010Prop38
140
0.0
102
RTVSPost2010PropOp38
 70
     1
102
RTVSPost2010Prop39
140
1.0
102
RTVSPost2010PropOp39
 70
     1
102
RTVSPost2010Prop40
 90
        0
102
RTVSPost2010PropOp40
 70
     1
102
RTVSPost2010Prop41ColorIndex
 90
       18
102
RTVSPost2010Prop41ColorRGB
 90
        0
102
RTVSPost2010PropOp41
 70
     1
102
RTVSPost2010Prop42
 90
       50
102
RTVSPost2010PropOp42
 70
     1
102
RTVSPost2010Prop43
 90
        3
102
RTVSPost2010PropOp43
 70
     1
102
RTVSPost2010Prop44ColorIndex
 90
        5
102
RTVSPost2010Prop44ColorRGB
 90
      255
102
RTVSPost2010PropOp44
 70
     1
102
RTVSPost2010Prop45
280
     0
102
RTVSPost2010PropOp45
 70
     1
102
RTVSPost2010Prop46
 90
       50
102
RTVSPost2010PropOp46
 70
     1
102
RTVSPost2010Prop47
 90
       50
102
RTVSPost2010PropOp47
 70
     1
102
RTVSPost2010Prop48
 90
       50
102
RTVSPost2010PropOp48
 70
     1
102
RTVSPost2010Prop49
280
     0
102
RTVSPost2010PropOp49
 70
     1
102
RTVSPost2010Prop50
 90
       50
102
RTVSPost2010PropOp50
 70
     1
102
RTVSPost2010Prop51ColorIndex
 90
      256
102
RTVSPost2010Prop51ColorRGB
 90
-16777216
102
RTVSPost2010PropOp51
 70
     0
102
RTVSPost2010Prop52
140
1.0
102
RTVSPost2010PropOp52
 70
     0
102
RTVSPost2010Prop53
 90
        2
102
RTVSPost2010PropOp53
 70
     1
102
RTVSPost2010Prop54
  1
strokes_ogs.tif
102
RTVSPost2010PropOp54
 70
     1
102
RTVSPost2010Prop55
280
     0
102
RTVSPost2010PropOp55
 70
     1
102
RTVSPost2010Prop56
140
1.0
102
RTVSPost2010PropOp56
 70
     1
102
RTVSPost2010Prop57
140
1.0
102
RTVSPost2010PropOp57
 70
     1
102
RTVSPropertyOp0
 70
     1
102
RTVSPropertyOp1
 70
     1
102
RTVSPropertyOp2
 70
     1
102
RTVSPropertyOp3
 70
     1
102
RTVSPropertyOp4
 70
     1
102
RTVSPropertyOp5
 70
     1
102
RTVSPropertyOp6
 70
     1
102
RTVSPropertyOp7
 70
     1
102
RTVSPropertyOp8
 70
     1
102
RTVSPropertyOp9
 70
     1
102
RTVSPropertyOp10
 70
     1
102
RTVSPropertyOp11
 70
     1
102
RTVSPropertyOp12
 70
     1
102
RTVSPropertyOp13
 70
     1
102
RTVSPropertyOp14
 70
     1
102
RTVSPropertyOp15
 70
     1
102
RTVSPropertyOp16
 70
     1
102
RTVSPropertyOp17
 70
     1
102
RTVSPropertyOp18
 70
     1
102
RTVSPropertyOp19
 70
     1
102
RTVSPropertyOp20
 70
     1
102
RTVSPropertyOp21
 70
     1
102
RTVSPropertyOp22
 70
     1
102
RTVSPropertyOp23
 70
     1
102
RTVSPropertyOp24
 70
     1
102
RTVSPropertyOp25
 70
     1
102
RTVSPropertyOp26
 70
     1
102
RTVSPropertyOp27
 70
     1
102
RTVSPropertyOp28
 70
     1
102
RTVSPropertyOp29
 70
     1
102
RTVSPropertyOp30
 70
     1
102
RTVSPropertyOp31
 70
     1
102
RTVSPropertyOp32
 70
     1
102
RTVSPropertyOp33
 70
     1
102
RTVSPropertyOp34
 70
     1
102
RTVSPropertyOp35
 70
     1
102
RTVSPropertyOp36
 70
     1
102
RTVSPropertyOp37
 70
     1
102
RTVSPropertyOp38
 70
     1
102
RTVSPropertyOp39
 70
     1
102
RTVSPropertyOp40
 70
     1
102
RTVSPropertyOp41
 70
     1
102
RTVSPropertyOp42
 70
     1
102
RTVSPropertyOp43
 70
     1
102
RTVSPropertyOp44
 70
     1
102
RTVSPropertyOp45
 70
     1
102
RTVSPropertyOp46
 70
     1
102
RTVSPropertyOp47
 70
     1
102
RTVSPropertyOp48
 70
     1
102
RTVSPropertyOp49
 70
     1
102
RTVSPropertyOp50
 70
     1
102
RTVSPropertyOp51
 70
     0
102
RTVSPropertyOp52
 70
     0
102
RTVSPropertyOp53
 70
     1
102
RTVSPropertyOp54
 70
     1
102
RTVSPropertyOp55
 70
     1
102
RTVSPropertyOp56
 70
     1
102
RTVSPropertyOp57
 70
     1
102
RTVSPropertyOp58
 70
     1
102
RTVSPropertyOp59
 70
     1
102
RTVSPropertyOp60
 70
     1
102
RTVSPropertyOp61
 70
     1
102
RTVSPropertyOp62
 70
     1
  0
ENDSEC
  0
EOF
